#TITLE:Finally;
#SUBTITLE:;
#ARTIST:Ce Ce Peniston;
#TITLETRANSLIT:;
#SUBTITLETRANSLIT:;
#ARTISTTRANSLIT:;
#GENRE:;
#CREDIT:Steps By CMG-UTOPIA;
#BANNER:finallybanner.png;
#BACKGROUND:finallybg.png;
#LYRICSPATH:;
#CDTITLE:cdtitle.png;
#MUSIC:Finally.ogg;
#OFFSET:-0.482000;
#SAMPLESTART:88.919998;
#SAMPLELENGTH:15.900000;
#SELECTABLE:YES;
#BPMS:0.000000=120.120003
;
#STOPS:
;
#BGCHANGES:;
#KEYSOUNDS:;
#ATTACKS:;

//---------------dance-single - ----------------
#NOTES:
     dance-single:
     :
     Beginner:
     1:
     0.131179,0.193317,0.027617,0.110467,0.000000,113.000000,4.000000,16.000000,0.000000,0.000000,0.000000,0.131179,0.193317,0.027617,0.110467,0.000000,113.000000,4.000000,16.000000,0.000000,0.000000,0.000000:
0000
0000
0000
0000
,
0000
0000
0000
0000
,
0000
0000
0000
0000
,
0000
0000
0000
0000
,
1000
0000
0000
0000
,
1000
0000
0000
0000
,
0001
0000
0000
0000
,
0001
0000
0000
0000
,
0100
0000
0000
0000
,
0100
0000
0000
0000
,
0010
0000
0000
0000
,
0010
0000
0000
0000
,
1000
1000
1000
0000
,
1000
1000
1000
0000
,
1000
0000
0001
0000
,
1001
0000
0000
0000
,
0001
0001
0001
0000
,
0001
0001
0001
0000
,
0001
0000
1000
0000
,
1001
0000
0000
0000
,
1000
1000
1000
0000
,
0001
0000
1000
0000
,
0001
0000
1000
0000
,
0001
0000
1000
0000
,
0010
0000
0100
0000
,
0010
0000
0100
0000
,
0010
0000
0100
0000
,
0010
0000
0100
0000
,
0001
0000
0000
0000
,
0001
0000
0000
0000
,
1000
0000
0000
0000
,
1000
0000
0000
0000
,
0010
0000
0000
0000
,
0010
0000
0000
0000
,
0100
0000
0000
0000
,
0100
0000
0000
0000
,
0001
0001
0001
0000
,
0001
0001
0001
0000
,
0001
0000
1000
0000
,
1001
0000
0000
0000
,
1000
1000
1000
0000
,
1000
1000
1000
0000
,
1000
0000
0001
0000
,
1001
0000
0000
0000
,
0001
0001
0001
0000
,
1000
0000
0001
0000
,
1000
0000
0001
0000
,
1000
0000
0001
0000
,
0100
0000
0010
0000
,
0100
0000
0010
0000
,
0100
0000
0010
0000
,
0100
0000
0010
0000
,
1000
0000
0000
0000
,
0100
0000
0000
0000
,
0001
0000
0000
0000
,
0010
0000
0000
0000
,
1000
0000
0000
0000
,
0001
0000
0000
2000
,
3000
2000
3000
2000
,
3000
2000
3000
0002
,
0003
0002
0003
0002
,
0003
0002
0003
0200
,
0300
0200
0300
0200
,
0300
0200
0300
0020
,
0030
0020
0030
0020
,
0030
0020
0030
0000
,
1000
0000
0000
0000
,
0010
0000
0000
0000
,
0001
0000
0000
0000
,
0100
0000
0000
0000
,
1000
0000
0000
0000
;

//---------------dance-single - ----------------
#NOTES:
     dance-single:
     :
     Easy:
     3:
     0.203180,0.241646,0.069042,0.165700,0.000000,172.000000,10.000000,24.000000,0.000000,0.000000,0.000000,0.203180,0.241646,0.069042,0.165700,0.000000,172.000000,10.000000,24.000000,0.000000,0.000000,0.000000:
0000
0000
0000
0000
,
0000
0000
0000
0000
,
0000
0000
0000
0000
,
0000
0000
0000
0000
,
1000
0000
0001
0000
,
1000
0100
1000
0000
,
0001
0000
1000
0000
,
0001
0100
0001
0000
,
1000
0000
0001
0000
,
1000
0010
1000
0000
,
0001
0000
1000
0000
,
0001
0010
0001
0000
,
1000
1000
1000
0000
,
0001
0001
0001
0000
,
1000
0001
1000
0001
,
1001
0000
0000
0000
,
0001
0100
0010
1000
,
1000
0010
0100
0001
,
0000
0000
0000
0001
0000
0010
0000
0100
,
0000
1000
0000
0000
0000
0000
0000
0000
,
2001
0000
0001
0000
3001
0000
0000
0001
,
0000
0010
0000
0100
0000
0000
0000
1000
,
0000
0100
0000
0010
0000
0000
0000
0001
,
0000
1000
0000
0001
0000
0000
0000
0000
,
1002
0000
1000
0000
1003
0000
0000
1000
,
0000
0010
0000
0100
0000
0000
0000
0001
,
0000
0100
0000
0010
0000
0000
0000
1000
,
0000
0001
0000
1000
0000
0000
0000
0000
,
0010
0000
0100
0000
,
0010
1000
0010
0000
,
0100
0000
0010
0000
,
0100
0001
0100
0000
,
0010
0000
0100
0000
,
0010
0001
0010
0000
,
0100
0000
0010
0000
,
0100
1000
0100
0000
,
0010
0010
0010
0000
,
0100
0100
0100
0000
,
0010
0100
0010
0100
,
0110
0000
0000
0000
,
0010
1000
0001
0100
,
0100
0001
1000
0010
,
0000
0000
0000
0010
0000
0100
0000
0001
,
0000
0010
0000
0000
0000
0000
0000
0000
,
0120
0000
0100
0000
0130
0000
0000
0010
,
0000
0001
0000
0100
0000
0000
0000
0010
,
0000
1000
0000
0100
0000
0000
0000
0010
,
0000
0100
0000
0010
0000
0000
0000
0000
,
0210
0000
0010
0000
0310
0000
0000
0100
,
0000
1000
0000
0010
0000
0000
0000
0100
,
0000
0001
0000
0010
0000
0000
0000
0100
,
0000
0010
0000
0100
0000
0000
0000
0000
,
1000
0000
0100
0000
,
1000
0000
0001
0000
,
0100
0000
0001
0000
,
1000
0000
0010
0000
,
1000
0000
0000
0000
0001
0000
0000
0010
,
0000
0001
0000
1000
0000
0000
2000
0000
,
3000
0200
0300
0020
,
0030
0022
0033
0002
,
0003
0200
0300
0020
,
0030
2020
3030
2000
,
3000
0002
0003
0200
,
0300
0220
0330
0020
,
0030
0200
0300
0002
,
0003
2002
3003
0000
,
1000
0000
0100
0000
,
0001
0000
0010
0000
,
1000
0000
0010
0000
,
0001
0000
0100
0000
,
1000
0000
0000
0000
;

//---------------dance-single - ----------------
#NOTES:
     dance-single:
     :
     Medium:
     5:
     0.298852,0.314140,0.144988,0.172604,0.000000,257.000000,21.000000,25.000000,0.000000,0.000000,0.000000,0.298852,0.314140,0.144988,0.172604,0.000000,257.000000,21.000000,25.000000,0.000000,0.000000,0.000000:
0000
0000
0000
0000
,
0000
0000
0000
0000
,
0000
0000
0000
0000
,
0000
0000
0000
0000
,
1000
0001
0100
0000
,
0001
1000
0100
0000
,
1000
0010
0100
0001
,
0010
0100
1000
0000
,
0001
1000
0010
0000
,
1000
0001
0010
0000
,
0001
0100
0010
1000
,
0100
0010
0001
0000
,
0000
1000
0000
0100
0000
0001
0000
0001
,
0000
0100
0000
1000
0000
0000
0000
0000
,
1000
1100
0001
0101
,
1000
0001
1000
0001
,
1000
0010
0100
0001
,
0010
0100
1000
0001
,
0000
0000
0000
0001
0000
0011
0000
1000
,
0000
1010
0000
0000
0000
1000
0001
1000
,
0002
0000
1000
0003
1000
0001
0000
0101
,
0000
0001
1000
0001
0000
1000
0000
1010
,
0000
1000
0001
1000
0000
0001
0000
1001
,
0000
1000
0001
2000
0000
3001
0000
0000
,
2000
0001
0000
0001
3000
0001
0000
0011
,
0000
0010
0100
1000
0000
0001
0000
0101
,
0000
0100
0010
1000
0000
0001
0000
1001
,
0000
1000
0001
2000
0000
3001
0000
0000
,
0100
0001
0010
0000
,
0010
0001
0100
0000
,
0100
0010
1000
0100
,
0010
0001
1000
0000
,
0010
1000
0100
0000
,
0100
1000
0010
0000
,
0010
0100
0001
0010
,
0100
1000
0001
0000
,
0000
0001
0000
0010
0000
1000
0000
1000
,
0000
0010
0000
0001
0000
0000
0000
0000
,
0010
0011
0100
1100
,
0010
0100
0010
0100
,
0010
1000
0100
0010
,
0001
1000
0010
0100
,
0000
0000
0000
0100
0000
0101
0000
0010
,
0000
1010
0000
0000
0000
0010
0100
0010
,
0200
0000
0010
0300
0010
0100
0000
0101
,
0000
0001
1000
0001
0000
0010
0000
0011
,
0000
0001
0100
0001
0000
0100
0000
0110
,
0000
0010
0100
0020
0000
0130
0000
0000
,
0020
0100
0000
0130
0000
0010
0000
1010
,
0000
1000
0100
0010
0000
0100
0000
1100
,
0000
0100
1000
0010
0000
0100
0000
0110
,
0000
0100
0010
0200
0000
0310
0000
0000
,
0010
1000
0010
0100
,
0001
0100
0010
1000
,
0100
0010
0001
1000
,
0010
1000
0001
0010
,
0001
0000
1000
0000
0100
0000
1000
0001
,
0000
0100
0000
0001
0000
0000
0002
1000
,
0003
0000
2000
0010
3000
0000
0020
0100
,
0030
0000
0200
0001
0300
0000
0002
0010
,
0003
0000
0020
0100
0030
0000
0200
1000
,
0300
0000
2000
0001
3000
0000
0002
0100
,
0003
0000
2000
0100
3000
0000
0002
0010
,
0003
0000
2000
0010
3000
0000
2000
0001
,
3000
0000
2000
0100
3000
0000
2000
0001
,
3000
2002
3003
0000
,
1000
0100
0001
0100
,
1000
0010
0001
0010
,
1000
0100
0010
0100
,
1000
0010
0100
0010
,
1000
0000
0000
0000
;

//---------------dance-single - ----------------
#NOTES:
     dance-single:
     :
     Hard:
     7:
     0.404387,0.386634,0.434963,0.131179,0.000000,328.000000,63.000000,19.000000,0.000000,0.000000,0.000000,0.404387,0.386634,0.434963,0.131179,0.000000,328.000000,63.000000,19.000000,0.000000,0.000000,0.000000:
0000
0000
0000
0000
,
0000
0000
0000
0000
,
0000
0000
0000
0000
,
0000
0000
0000
0000
,
1000
0100
0010
0001
,
0001
0010
0100
1000
,
1000
1100
0001
0101
,
1100
0101
2002
3003
,
0001
0010
0100
1000
,
1000
0100
0010
0001
,
0001
0011
1000
1010
,
0011
1010
2002
3003
,
1001
1000
0001
1000
0001
0000
0000
0102
,
0000
1000
0000
0010
0000
1000
0003
0000
,
1001
1010
1100
0011
,
0001
0100
0001
0020
0001
0000
0031
0000
,
0001
0100
0010
1000
0002
0000
1003
0000
,
1000
0010
0100
0001
2000
0000
3001
0000
,
1000
0000
0001
0001
0000
1000
0000
1100
,
0000
0101
0000
0000
0000
1000
0100
0010
,
0011
0000
0001
0100
0010
1000
0000
1010
,
0000
0010
0100
0001
0000
0010
0100
1000
,
0000
0001
0100
0010
0000
1000
0100
0010
,
0000
0001
1000
0010
0000
0110
0000
0000
,
0000
0001
1000
0001
0000
0011
0000
0110
,
0000
0100
1000
0010
0000
0100
0001
0010
,
0000
0100
1000
0001
0000
0010
0001
1000
,
0000
0010
0100
0001
0000
1001
0000
0000
,
1000
0100
1000
0001
,
0001
1000
0010
1000
,
0100
1100
1000
1010
,
0110
0101
2002
3003
,
0001
0100
0010
1000
,
1000
0010
0100
0001
,
0010
0011
0001
0101
,
0110
1010
2200
3300
,
0110
0010
0100
0010
0100
0000
0000
0210
,
0000
0001
0000
1000
0000
0301
0000
0000
,
0101
0011
1100
1010
,
0010
0100
0001
2000
0010
0000
3010
0000
,
1000
0001
0010
0100
2000
0000
3001
0000
,
0001
1000
0100
0010
0002
0000
1003
0000
,
0010
0000
0100
0100
0000
0010
0000
1010
,
0000
1100
0000
0000
0000
0100
1000
0010
,
1010
0000
1000
0010
0100
0001
0000
0101
,
0000
0001
0010
1000
0000
1000
0010
0001
,
0000
0001
0100
1000
0000
1000
0100
0001
,
0000
0001
1000
0001
0000
0101
0000
0000
,
0000
0001
1000
0010
0000
1010
0000
1100
,
0000
0100
1000
0010
0000
0100
0001
0010
,
0000
0100
1000
0001
0000
0100
0010
1000
,
0000
0100
0010
0001
0000
0011
0000
0000
,
0000
0001
0010
0001
1000
0000
0001
0000
,
0100
0000
0010
2000
0010
0000
0010
3000
,
0100
2000
0001
3000
0001
1000
0000
1001
,
0000
0001
0010
0100
0010
0001
1000
0010
,
0110
0000
1001
0000
1000
0001
2000
0010
,
0000
0100
0000
0001
3000
0000
1000
1000
,
0001
0000
0001
0001
0100
0000
0100
0100
,
0010
0000
0010
0010
1000
0000
1000
1000
,
0100
0000
0010
0010
0001
0000
1000
1000
,
0010
0000
0100
0100
0001
0000
0010
0100
,
1100
0000
1000
0010
1010
0000
0010
0100
,
0101
0000
0100
0001
1001
0000
1000
0100
,
1100
0000
0010
0001
0011
0000
0100
0001
,
0101
0000
0010
1000
1010
0000
0000
0000
,
1000
0000
1100
0000
0100
0000
0010
0001
,
0000
0011
0000
0010
0001
0100
0010
1000
,
0001
0000
0101
0000
0100
0000
0010
1000
,
0000
1100
0000
0100
1000
0010
0100
0001
,
1000
0000
0000
0000
;

//---------------dance-single - ----------------
#NOTES:
     dance-single:
     :
     Challenge:
     10:
     0.541484,0.459127,0.407346,0.172604,0.407346,465.000000,59.000000,25.000000,0.000000,0.000000,0.000000,0.541484,0.459127,0.407346,0.172604,0.407346,465.000000,59.000000,25.000000,0.000000,0.000000,0.000000:
// measure 0
0000
0000
0000
0000
,  // measure 1
0000
0000
0000
0000
,  // measure 2
0000
0000
0000
0000
,  // measure 3
0000
0000
0000
0000
,  // measure 4
1000
0001
0000
0100
0000
0001
0000
2000
0000
0000
0000
0000
3001
0000
0100
0000
,  // measure 5
0201
0000
0010
0010
0301
0000
0101
0001
,  // measure 6
1000
0100
0000
0010
0000
0100
0000
2000
0000
0000
0001
3000
0010
0000
0001
0000
,  // measure 7
0100
0000
0010
1000
0010
0000
0100
0000
0001
0000
1000
0000
1001
0000
0001
0000
,  // measure 8
0010
0000
0200
1000
0000
1000
0000
2300
0000
0000
0000
0000
3001
0000
0010
0000
,  // measure 9
0001
0000
0200
0010
0000
0010
0000
0320
0000
0000
0000
0000
1030
0000
0000
1000
,  // measure 10
0001
1000
0000
0010
0000
0100
0000
0001
0000
0010
0000
0100
0000
1000
0000
0100
,  // measure 11
0000
0010
0000
0001
0000
1000
0000
0020
0000
0000
1000
0000
1030
0000
0010
0000
,  // measure 12
1000
0000
0001
0000
1000
0000
0100
0000
1000
0000
0000
0010
0000
0000
0100
0000
,  // measure 13
0001
0010
0001
1000
0010
0100
0101
0001
,  // measure 14
1001
0000
0000
1000
0001
0000
0000
0001
0100
0000
0000
0100
0010
0000
0010
0000
,  // measure 15
1000
0100
0010
0001
1000
0001
0011
0000
,  // measure 16
0001
0010
0000
0100
0000
0010
0000
0002
0000
0000
1003
0000
1001
0000
0001
0000
,  // measure 17
0010
1000
0010
0001
0100
1000
0100
0001
,  // measure 18
1000
0001
1000
1100
0100
1000
0001
0101
,  // measure 19
0100
0001
1000
0000
0000
1000
1010
0001
,  // measure 20
0011
0000
0000
0000
0110
0000
0000
0000
1200
0000
0000
1000
0000
0000
1000
0000
,  // measure 21
0300
0000
1000
0000
0000
0010
0000
0100
0001
0000
0010
0000
0100
0000
1000
0000
,  // measure 22
1001
0000
0000
0000
1020
0000
0000
0000
0100
0000
0000
0100
0000
0000
0100
0000
,  // measure 23
0030
0000
0100
0000
0000
0001
0000
0010
0100
0000
1000
0000
0100
0000
0010
0000
,  // measure 24
0011
0000
0000
0000
0101
0000
0000
0000
2010
0000
0000
0010
0000
0000
0010
0000
,  // measure 25
3000
0000
0010
0000
0000
0100
0000
0001
0010
0000
0001
0000
0100
0000
0010
0000
,  // measure 26
1010
0000
0000
0000
0210
0000
0000
0000
0001
0000
0000
0001
0000
0000
0001
0000
,  // measure 27
0300
0000
0001
0000
0000
0010
0000
0001
1000
0000
0010
0000
1000
0000
0001
0010
,  // measure 28
0001
0010
0000
0100
0000
0010
0000
0002
0000
0000
1000
0000
1003
0000
0100
0000
,  // measure 29
1100
0000
0000
0100
1000
0000
0000
1000
0001
0000
0100
0000
0110
0000
0010
0000
,  // measure 30
0100
0001
0000
1000
0000
0010
0000
1000
0000
0001
0000
0010
0000
0001
0000
0100
,  // measure 31
0000
0010
0000
1000
0000
0100
0000
0020
0000
0000
0031
0000
0011
0000
0001
0000
,  // measure 32
1000
0010
0000
0100
0000
0001
0000
0200
0000
0000
0000
0000
0310
0000
0100
0000
,  // measure 33
0001
0010
0000
0100
0000
1000
0000
0020
0000
0000
0100
0000
0130
0000
0010
0100
,  // measure 34
0010
1000
0000
0001
0000
0010
0000
0001
0000
0100
0000
0010
0000
1000
0000
0100
,  // measure 35
0000
1000
0000
0010
0000
0100
0000
0002
0000
0000
1000
0000
1003
0000
0001
0000
,  // measure 36
1001
0000
1000
0000
0010
0000
0100
0000
0001
0000
0000
0010
0000
0000
0001
0000
,  // measure 37
0100
0010
1000
0100
0010
0001
0010
0100
,  // measure 38
1100
0000
0000
0100
1000
0000
0000
1000
0010
0000
0000
0010
0100
0000
0001
0000
,  // measure 39
0100
0000
0010
0000
1000
0000
0100
0000
0010
0000
0001
0000
1001
0000
0000
1000
,  // measure 40
0100
1000
0000
0001
0000
0100
0000
0002
0000
0000
1003
0000
1100
0000
0001
0000
,  // measure 41
1000
0000
0000
0001
1000
0000
0000
0010
1000
0000
0000
0100
1000
0000
0000
0000
,  // measure 42
1100
0100
1000
0010
0100
0001
0010
0100
,  // measure 43
1000
0001
1000
0010
0100
0001
0001
1000
,  // measure 44
1100
0000
0000
0000
0110
0000
0000
0000
0021
0000
0000
0001
0000
0000
0001
0000
,  // measure 45
0030
0000
0001
0000
0000
0100
0000
0010
1000
0000
0100
0000
1000
0000
0001
0000
,  // measure 46
0101
0000
0000
0000
0120
0000
0000
0000
1000
0000
0000
0100
0000
0000
1000
0000
,  // measure 47
0030
0000
0100
0000
0000
0001
0000
0010
0100
0000
1000
0000
0100
0000
0010
0000
,  // measure 48
0011
0000
0000
0000
1001
0000
0000
0000
0201
0000
0000
0010
0000
0000
0001
0000
,  // measure 49
0300
0000
0010
0000
0000
1000
0000
0100
0010
0000
0001
0000
1000
0000
0001
0000
,  // measure 50
0101
0000
0000
0000
2010
0000
0000
0000
0100
0000
0000
0001
0000
0000
0010
0000
,  // measure 51
3000
0000
0001
0000
0000
1000
0000
0010
0100
0000
0001
0000
0010
0000
0100
0000
,  // measure 52
1000
0010
1000
0001
0010
0001
0100
0010
,  // measure 53
1000
0100
1000
0010
0100
0001
0010
0100
,  // measure 54
1000
0001
0100
0010
1000
0100
0010
0001
,  // measure 55
0010
0100
0010
0001
1000
0010
0100
0010
,  // measure 56
1000
0001
0100
0010
0100
0001
0010
0011
,  // measure 57
0001
1001
1000
1100
0100
1000
0001
0100
,  // measure 58
0101
0000
0100
0010
1010
0000
1000
0100
,  // measure 59
1100
0000
0100
0010
0110
0000
0010
0001
,  // measure 60
1001
0000
0001
0100
0110
0000
0010
1000
,  // measure 61
1001
0000
1000
0100
0110
0000
0010
0011
,  // measure 62
0001
0000
0100
0110
0010
0000
1000
1100
,  // measure 63
0100
0000
0010
0011
0001
0000
0101
0100
,  // measure 64
0010
0000
1010
1000
0100
0000
1100
1000
,  // measure 65
0001
0000
1001
0001
0100
0010
1000
0100
,  // measure 66
0021
0000
0000
0000
0100
0000
0000
0000
1000
0000
0000
0100
0000
0000
0001
0000
,  // measure 67
0030
0000
0010
0000
0000
0001
0000
0100
0010
0000
1000
0000
0100
0000
0010
0000
,  // measure 68
0002
0000
0000
0000
0010
0000
0000
0000
0100
0000
0000
1000
0000
0000
0100
0000
,  // measure 69
0003
0000
0010
0000
0000
0001
0000
0100
0010
0000
1000
0000
0100
0000
0010
0000
,  // measure 70
0011
0000
0000
0000
;
