#TITLE:EternuS;
#SUBTITLE:;
#ARTIST:Sanxion7;
#TITLETRANSLIT:;
#SUBTITLETRANSLIT:;
#ARTISTTRANSLIT:;
#CREDIT:;
#BANNER:EternuS.png;
#BACKGROUND:EternuS-bg.png;
#LYRICSPATH:;
#CDTITLE:;
#MUSIC:EternuS.ogg;
#OFFSET:-0.480;
#SAMPLESTART:77.670;
#SAMPLELENGTH:14.520;
#SELECTABLE:YES;
#BPMS:0.000=140.000,112.000=70.000,130.000=140.000;
#STOPS:;
#BGCHANGES:;

//---------------dance-single - ----------------
#NOTES:
     dance-single:
     :
     Hard:
     10:
     0.569,0.865,0.291,0.246,0.731: // measure 1
0000
0000
0000
0000
,  // measure 2
0000
0000
0000
0000
,  // measure 3
0000
0000
0000
0000
,  // measure 4
0000
0000
0000
0000
,  // measure 5
1001
0000
0001
0100
0010
0000
1000
0100
,  // measure 6
0010
0000
0000
0000
0000
0000
0100
0000
0000
1000
0000
0000
0001
0000
0000
0000
0100
0000
0010
0000
0000
0000
1000
0000
,  // measure 7
0001
0000
0010
0100
1000
0000
0010
0100
,  // measure 8
0001
0000
0000
0000
0000
0000
0010
0000
0000
1000
0000
0000
0010
0000
0000
0000
0001
0000
0100
0000
0000
0000
0010
0000
,  // measure 9
1000
0000
0010
1000
0001
0000
0100
0010
,  // measure 10
1000
0000
0000
0000
0000
0000
0100
0000
0000
0010
0000
0000
0001
0000
0000
0000
0100
0000
0010
0000
0000
0000
0010
0000
,  // measure 11
1000
0100
1000
0010
0100
0010
0100
0001
0100
1000
0100
0010
,  // measure 12
1000
0100
0010
0001
0100
0010
1000
0100
1000
0001
0010
0001
,  // measure 13
0100
0000
0010
0100
0000
0100
0001
0000
0010
0100
1000
0100
,  // measure 14
0010
0000
0100
1000
0010
0100
0001
0000
0010
0001
1000
0001
,  // measure 15
0010
0000
0100
1000
0100
0010
0001
0000
0100
0001
0010
0100
,  // measure 16
1000
0000
0010
0100
0001
0010
0100
0000
0100
1000
0100
1000
,  // measure 17
0010
0000
0100
0001
0000
0001
0010
0000
0100
1000
0001
0100
,  // measure 18
0010
0000
1000
0010
0001
0010
1000
0000
0001
0100
1000
0100
,  // measure 19
0001
0000
0010
0100
1000
0001
0010
0000
0010
1000
0010
0001
,  // measure 20
0010
0000
0010
1000
0100
0010
0001
0000
0100
0010
1000
0001
,  // measure 21
0010
0000
0010
0100
0000
0100
1000
0000
0001
1000
0100
0010
,  // measure 22
0001
0000
0100
0001
0010
0100
1000
0000
0100
1000
0010
1000
,  // measure 23
0100
0000
0010
0100
1000
0100
0010
0000
0100
0010
0001
0010
,  // measure 24
0100
0000
1000
0001
0100
0010
1000
0000
0100
0001
0100
1000
,  // measure 25
0010
0000
1000
0100
1000
0100
1000
0000
0001
0100
0001
0100
,  // measure 26
0001
0000
0010
0100
0010
0100
0010
0000
0001
0100
0000
0100
,  // measure 27
0001
0000
0010
1000
0000
1000
0010
0000
0100
1000
0000
1000
,  // measure 28
0100
0000
0010
0001
0000
0001
1000
0000
0010
0100
0010
0100
,  // measure 29
1001
0000
0000
0000
2000
3002
0203
0320
,  // measure 30
2030
0000
0000
3200
0000
0000
0320
0000
0000
0032
0000
0010
0203
0000
0000
0320
0000
0000
0032
0000
0000
2003
0000
0000
,  // measure 31
3020
0000
0000
0230
0000
0000
0320
0000
0000
1030
0100
0010
0002
0000
0000
0203
0000
0000
0320
0000
0000
0130
1000
0100
,  // measure 32
0020
0000
0000
2030
0000
0000
3200
0000
0000
0320
0000
0100
2030
0000
0000
3020
0000
0000
0230
0000
0000
2300
0000
0000
,  // measure 33
3100
0010
0100
0010
1000
0001
1000
0001
0010
0100
0010
0100
1000
0000
0000
0000
0000
0000
1100
0000
0000
0000
0000
0000
,  // measure 34
1010
1001
0101
0011
,  // measure 35
0110
0000
0000
1100
0000
1000
1010
0000
0000
0110
0000
0000
,  // measure 36
1010
1100
0011
0101
,  // measure 37
0011
0000
0100
1000
0010
0110
0000
0000
0000
1010
0000
0000
,  // measure 38
0101
0000
0100
0001
1000
0110
0000
0000
0000
1100
0000
0000
,  // measure 39
0011
0000
0000
0110
0000
0010
1010
0000
0000
0101
0000
0000
,  // measure 40
0110
0000
0000
0101
0000
0000
1010
0100
0001
0101
0010
0100
,  // measure 41
0110
0100
1000
1100
1000
0001
2001
0000
0000
0010
0000
0000
,  // measure 42
0100
0001
3200
0010
,  // measure 43
0001
1000
2300
0010
,  // measure 44
0100
0001
3020
0100
,  // measure 45
0001
0100
0032
0010
,  // measure 46
0010
0010
0023
0100
,  // measure 47
1000
0100
2030
0100
,  // measure 48
0001
0000
0000
0010
0000
0000
3001
0100
0010
1000
0100
1000
,  // measure 49
0010
0100
1010
0001
1000
0100
0010
0000
0100
0010
0000
0100
,  // measure 50
1000
0000
0100
1000
0100
0010
0011
0000
0010
0001
0100
1000
,  // measure 51
1100
0000
0100
0010
1000
0010
1010
0000
0100
0010
0100
1000
,  // measure 52
1001
0000
0100
1000
0100
0010
0001
0000
1000
0010
0100
1000
,  // measure 53
0110
0000
0100
0001
0010
0001
0010
0000
0010
0100
1000
0010
,  // measure 54
0100
0000
0100
0001
0010
0100
0010
0000
0100
1000
0010
0100
,  // measure 55
0001
0000
0001
0100
0000
0100
0010
0000
0010
1000
0100
1000
,  // measure 56
0010
0000
0100
0001
0010
0001
0100
0000
0100
0010
1000
0100
,  // measure 57
0001
0000
0100
1000
0010
0100
0001
0000
0000
0010
0000
0000
,  // measure 58
0010
0100
1000
0010
,  // measure 59
0100
0001
0001
0010
,  // measure 60
0100
1000
0010
0100
,  // measure 61
0010
0000
0100
0001
1000
0000
0100
0000
,  // measure 62
1000
1000
0001
0100
,  // measure 63
0010
0000
0100
0001
1000
0000
0100
0000
,  // measure 64
0100
0010
0010
0001
,  // measure 65
0001
0000
0000
0010
0000
1010
0000
0000
0000
0000
0000
0000
;

//---------------dance-single - ----------------
#NOTES:
     dance-single:
     :
     Medium:
     8:
     0.411,0.457,0.291,0.022,0.463:
0000
0000
0000
0000
,
0000
0000
0000
0000
,
0000
0000
0000
0000
,
0000
0000
0000
0000
,
1000
1100
0100
0001
,
0100
0110
0010
0001
,
1000
0101
0100
0010
,
0100
0011
0001
0010
,
0100
1100
1000
0010
,
0100
0101
0001
0010
,
0100
0000
1000
0100
0000
0100
0010
0000
0010
0001
0000
0001
,
0100
0000
0100
1000
0000
1000
0100
0000
0100
0001
0000
0010
,
0100
0000
0010
0000
0000
0001
0000
0000
0010
0000
0100
0000
,
1010
0000
0100
0000
0001
0000
0101
0000
0010
0000
0100
0000
,
0110
0000
0100
0000
0001
0000
0011
0000
0001
0000
1000
0000
,
1001
0000
1000
0000
0100
0000
1100
0000
0010
0000
1000
0000
,
0101
0000
0100
0010
0000
0100
0010
0000
1000
0000
0100
0000
,
1100
0000
0100
0000
1000
0000
0101
0000
0001
0000
1000
0000
,
1001
0000
0100
0000
0010
0000
0110
0000
1000
0000
0100
0000
,
1010
0000
0010
0000
1000
0000
0101
0000
1000
0000
0001
0000
,
0110
0000
1000
0001
0000
1000
0001
0000
1000
0000
0010
0000
,
0110
0000
0010
0000
0100
0000
0101
0000
0001
0000
1000
0000
,
1001
0000
0100
0000
0001
0000
0101
0000
0010
0000
0100
0000
,
0110
0000
1000
0000
0010
0000
0110
0000
0001
0000
0100
0000
,
0110
0000
0001
0000
0010
0000
0011
0000
0010
0000
0100
0000
,
0110
0000
0100
0000
1000
0000
1010
0000
0100
0000
0001
0000
,
0011
0000
0100
0000
1000
0000
0110
0000
0100
0000
0001
0000
,
1001
0000
0100
0000
0001
0000
0101
0000
1000
0100
0010
0001
,
2000
0000
0000
0000
3001
0010
0100
1000
,
0100
0001
0100
1000
0010
0001
0010
1000
,
0001
0000
0000
0100
0000
0000
0010
0000
0000
1000
0000
1000
0100
0000
0000
0001
0000
0000
0100
0000
0000
1000
0000
0010
,
0100
0001
0010
0001
0100
0010
0100
0001
,
1000
0001
0100
0010
0100
0000
0010
0000
,
1000
0000
0000
0001
0000
0100
0001
0000
0000
1000
0000
0000
,
0010
0000
0000
0100
0000
0001
1000
0000
0000
0100
0000
0000
,
1000
0010
0100
0001
,
0100
0010
0110
0001
,
0100
0010
0011
0010
,
0100
0001
0110
0100
,
1000
0010
2002
0000
,
0000
0000
0000
0003
3100
0000
0001
0000
,
1000
0000
0000
0100
0000
0000
0010
0000
0010
0001
0000
1000
,
0000
0010
1000
0100
,
1000
0000
1000
0100
0000
0100
0000
0000
1000
0000
0000
0010
,
0000
0000
0100
0000
0000
0010
1000
0000
0000
0100
0000
0000
,
0010
0000
0001
1000
0000
0000
0010
0000
0000
1000
0000
0000
,
0001
0000
0000
0100
0000
0010
1000
0000
0000
0100
0000
0000
,
1000
0000
0000
0001
0000
0000
1000
0000
0100
1000
0000
0010
,
1000
0000
0001
1000
0000
1000
0001
0000
0100
0010
0000
0010
,
0100
0000
0001
1000
0000
1000
0001
0000
0010
1000
0000
1000
,
0010
0000
0100
0010
0000
0010
0100
0000
0001
0100
0000
0100
,
0001
0000
0100
0010
0000
0010
0100
0000
0010
1000
0000
1000
,
0010
0000
0100
0001
0000
0001
0100
0000
0100
0010
0000
0010
,
1000
0000
1000
0001
0000
0001
1000
0000
0100
0010
0000
0010
,
0100
0000
1000
0010
0000
0010
1000
0000
0100
0001
0000
0001
,
0100
0000
0010
1000
0000
1000
0010
0000
0100
0001
0000
0001
,
0100
0000
0100
0010
0000
0010
0100
0000
0000
1000
0000
0000
,
0001
0100
0001
1000
,
0010
0100
0010
1000
,
0100
0010
0001
0100
,
0010
0100
0001
0100
,
0010
1000
0100
1000
,
0001
0100
0010
0100
,
0001
1000
0001
0100
,
0010
0000
0000
1000
0000
1010
0000
0000
0000
0000
0000
0000
;

//---------------dance-single - ----------------
#NOTES:
     dance-single:
     :
     Easy:
     4:
     0.246,0.313,0.157,0.000,0.258:
0000
0000
0000
0000
,
0000
0000
0000
0000
,
0000
0000
0000
0000
,
0000
0000
0000
0000
,
1000
0100
0000
0100
,
0000
0010
0000
0010
,
0001
1000
0000
1000
,
0000
0001
0000
0001
,
0100
0010
0000
0010
,
0000
0100
0000
0100
,
0001
1000
0100
1000
,
0001
0100
0010
0100
,
0001
0000
0100
0000
0000
0010
0000
0000
1000
0000
0000
0100
,
0000
0000
1000
0000
0000
0010
0000
0000
0100
0000
0000
0001
,
0000
0000
0010
0000
0000
0100
0000
0000
0001
0000
0000
0100
,
0000
0000
1000
0000
0000
0010
0000
0000
0100
0000
0000
0010
,
0000
0000
1000
0000
0000
0001
0000
0000
0100
0000
0000
0010
,
0000
0000
1000
0000
0000
0100
0000
0000
0010
0000
0000
0001
,
0000
0000
1000
0000
0000
0010
0000
0000
0100
0000
0000
0010
,
0000
0000
1000
0000
0000
0010
0000
0000
1000
0000
0000
0001
,
0000
0000
0010
0000
0000
0100
0000
0000
1000
0000
0000
0001
,
0000
0000
0100
0000
0000
0010
0000
0000
0001
0000
0000
0010
,
0000
0000
0001
0000
0000
1000
0000
0000
0100
0000
0000
0010
,
0000
0000
0001
0000
0000
0100
0000
0000
1000
0000
0000
0100
,
0000
0000
0001
0000
0000
1000
0000
0000
0100
0000
0000
0001
,
0000
0000
0100
0000
0000
1000
0000
0000
0001
0000
0000
0010
,
0000
0000
1000
0000
0000
0010
0000
0000
0001
0000
0000
1000
,
0000
0000
0010
0000
0000
0001
0000
0000
0010
0000
0000
1000
,
0010
0000
1000
1000
,
0010
0010
0001
0001
,
0010
0010
1000
1000
,
0100
0100
1000
1000
,
0100
0100
0010
0000
,
0000
0000
1001
0000
,
0000
0000
0000
1000
0000
0010
1000
0000
0000
0000
0000
0000
,
0000
0000
0110
0000
,
0000
0000
0000
0010
0000
0100
0001
0000
0000
0000
0000
0000
,
0000
0000
0000
0100
0000
0010
1000
0000
0000
0000
0000
0000
,
0000
0000
0000
0001
0000
1000
0001
0000
0000
0000
0000
0000
,
0000
0000
1001
0000
,
0000
0000
1000
0000
,
0100
0100
1000
0010
,
0100
0100
0001
0010
,
0010
0001
1000
1000
,
0010
0100
0100
0001
,
0010
0010
0100
1000
,
1000
0100
0001
0001
,
0100
1000
1001
0000
,
0000
0000
1001
1000
,
0100
1100
1000
1010
,
0010
0110
0100
0101
,
0001
0011
0010
0110
,
0100
1100
1000
1001
,
1000
1100
0100
0110
,
0010
0011
0001
1001
,
1000
1010
0010
0110
,
0100
0101
0001
0000
,
1000
0010
0100
0000
,
0001
0010
0100
0000
,
0100
1000
0010
1000
,
0100
1000
0001
0000
,
0100
0010
1000
0000
,
0100
0000
0010
0100
0010
0000
0000
0000
,
0000
0000
0000
0000
0001
0010
0001
0100
,
0001
0000
0000
1000
0000
0000
0001
0000
0000
0000
1001
0000
0000
0000
0000
0000
0000
0000
0000
0000
0000
0000
0000
0000
;
