#TITLE:DotA;
#SUBTITLE:;
#ARTIST:Nightcore;
#TITLETRANSLIT:;
#SUBTITLETRANSLIT:;
#ARTISTTRANSLIT:;
#CREDIT:;
#BANNER:Dota.png;
#BACKGROUND:Dota-bg.png;
#LYRICSPATH:;
#CDTITLE:;
#MUSIC:Dota.mp3;
#OFFSET:-2.299;
#SAMPLESTART:42.120;
#SAMPLELENGTH:12.000;
#SELECTABLE:YES;
#BPMS:0.000=177.800;
#STOPS:;
#BGCHANGES:;

//---------------dance-single - ----------------
#NOTES:
     dance-single:
     :
     Beginner:
     2:
     0.167,0.213,0.057,0.036,0.000:
0000
0000
0000
0000
,
0000
0000
0000
0000
,
0000
0000
0000
0000
,
0000
0000
1000
0000
,
0000
0000
0010
0000
,
0000
0000
0001
0000
,
0000
0000
1000
0000
,
0000
0000
0000
0000
,
0000
0000
0100
0000
,
0100
0000
0100
0000
,
0010
0000
0010
0000
,
0010
0000
0010
0000
,
0001
0000
0001
0000
,
0001
0000
0001
0000
,
1000
0000
1000
0000
,
1000
0000
0100
0000
,
0010
0000
0001
0000
,
1000
0000
1000
0000
,
0100
0000
0010
0000
,
0001
0000
0001
0000
,
0100
0000
0010
0000
,
0100
0000
0010
0000
,
0100
0000
0100
0000
,
0010
0000
0010
0000
,
2000
0000
3000
0000
,
0000
0000
0002
0000
,
0000
0003
0000
0000
0100
0000
0000
0000
,
0100
0000
0100
0000
,
0000
0000
0000
0000
,
0000
0000
1000
0000
,
1000
0000
0100
0000
,
0100
0000
0010
0000
,
0010
0000
0001
0000
,
0001
0000
1000
0000
,
0001
0000
1000
0000
,
0001
0000
1000
0000
,
1000
0000
1000
0000
,
0000
0000
0100
0000
,
0100
0000
0010
0000
,
0010
0000
0100
0000
,
0100
0000
0010
0000
,
0010
0000
0100
0000
,
0010
0000
0100
0000
,
0010
0000
0100
0000
,
1000
0000
1000
0000
,
0001
0000
2000
0000
,
0000
3000
0100
0000
,
0000
0000
0010
0000
,
0000
0000
0001
0000
,
0000
0000
1000
0000
,
0000
0000
0100
0000
,
0000
0000
0010
0000
,
0000
0000
0001
0000
,
0000
0000
1000
0000
,
0000
0000
0100
0000
,
0000
0000
0001
0000
,
0001
0000
0001
0000
,
0010
0000
0010
0000
,
0010
0000
0010
0000
,
0100
0000
0100
0000
,
0100
0000
0100
0000
,
1000
0000
1000
0000
,
1000
0000
1000
0000
,
0100
0000
0100
0000
,
0100
0000
0100
0000
,
0010
0000
0010
0000
,
0010
0000
0010
0000
,
0001
0000
0001
0000
,
0001
0000
0001
0000
,
1000
0000
1000
0000
,
1000
0000
1000
0000
,
0100
0000
0010
0000
,
0100
0000
0010
0000
,
0000
0000
0001
0000
,
1000
0000
0001
0000
,
1000
0000
0000
0000
,
0000
0000
1001
0000
,
0000
0000
0110
0000
,
0000
0000
1001
0000
,
0000
0000
1100
0000
,
0000
0000
1100
0000
,
0000
0000
0011
0000
,
0000
0000
0011
0000
,
0000
0000
0100
0000
,
0000
0000
0001
0000
,
0000
0000
0100
0000
,
0000
0000
0001
0000
,
0000
0000
0010
0000
,
0000
0000
1000
0000
,
0000
0000
0010
0000
,
0000
0000
1000
0000
,
0000
0000
0100
0000
,
0100
0000
0100
0000
,
0100
0000
0100
0000
,
0100
0000
0100
0000
,
0010
0000
0010
0000
,
0010
0000
0010
0000
,
0010
0000
0010
0000
,
0010
0000
0010
0000
,
2002
0000
3003
0000
;

//---------------dance-single - ----------------
#NOTES:
     dance-single:
     :
     Easy:
     5:
     0.414,0.638,0.470,0.007,0.000:
0000
0000
0000
0000
,
0000
0000
0000
0000
,
0000
0000
0000
0000
,
0000
0000
0010
1000
,
0001
0100
0010
1000
,
0001
0100
1000
0001
,
0100
0010
1000
0001
,
1000
1000
1000
0000
,
0000
0000
0100
0010
,
0100
0010
0100
0001
,
0100
0001
0100
0001
,
0100
0010
0100
0010
,
0100
0010
0100
1000
,
0100
1000
0100
1000
,
0100
0010
0100
0010
,
0100
0010
0100
0010
,
0100
0001
1000
0001
,
1000
0010
1000
0010
,
1000
0010
1000
0100
,
1000
0100
1000
0100
,
1000
0100
1000
0001
,
1000
0001
1000
0001
,
1000
0010
1000
0010
,
1000
0010
1000
0100
,
1000
0100
1000
0000
,
0010
0000
0101
0000
,
0010
0000
1010
0000
,
0010
0000
0101
0000
,
0010
0000
1010
0000
,
0000
0000
0001
1000
,
0001
1000
0001
1000
,
0010
1000
0010
1000
,
0010
1000
0010
1000
,
0010
1000
0010
0100
,
0010
0100
0010
0100
,
0010
0100
0010
0100
,
0010
0100
0010
0100
,
0001
0100
0001
0100
,
0010
0100
0001
0100
,
0001
0100
0010
0100
,
0001
0100
0001
0100
,
0010
0100
0001
1000
,
0001
1000
0001
1000
,
0001
1000
0001
1000
,
0001
0100
0001
0100
,
0001
0010
0002
0000
,
0000
0003
1000
0000
,
1000
0000
0100
0000
,
0100
0000
0010
0000
,
0010
0000
0010
0000
,
0001
0000
0001
0000
,
0001
0000
0010
0000
,
0001
0000
0001
0000
,
1000
0000
0001
0000
,
1000
0000
1000
0000
,
0000
0000
0100
0010
,
0100
0010
0100
0010
,
0100
0001
0100
0001
,
0100
0001
0100
0001
,
0100
0001
0010
1000
,
0010
1000
0010
1000
,
0010
1000
0010
0100
,
0010
0100
0010
0100
,
0010
0010
0010
0010
,
1000
1000
1000
1000
,
0100
0100
0100
0100
,
0100
0100
0001
0001
,
0001
0001
0100
0100
,
0100
0100
1000
1000
,
1000
1000
0010
0010
,
0010
0010
0001
0001
,
0001
0001
1000
0000
,
1000
0000
0100
0000
,
0100
0000
0010
0000
,
0010
0000
0001
0000
,
0001
0000
0000
0100
,
0010
0100
0010
0100
,
0010
0100
0001
0100
,
0001
0100
0001
0100
,
0001
0100
0001
1000
,
0001
1000
0001
1000
,
0001
1000
0001
0010
,
0001
0010
0001
0010
,
1001
1001
0110
0110
,
0110
0110
0110
0110
,
0110
0110
1001
1001
,
1001
1001
1001
1001
,
1001
1001
1010
1010
,
1010
1010
1010
1010
,
1010
1010
0110
0110
,
0110
0110
0110
0110
,
0001
1000
0101
0101
,
0101
0101
0101
0101
,
0110
0110
0110
0110
,
0110
0110
0110
0110
,
0110
0110
1010
1010
,
1010
1010
1010
1010
,
1010
1010
1001
1001
,
1001
1001
0100
0010
,
0100
1001
1001
0000
;

//---------------dance-single - Copied from----------------
#NOTES:
     dance-single:
     Copied from:
     Medium:
     7:
     0.441,0.606,0.278,0.036,0.000:
0000
0000
0000
0000
,
0000
0000
0000
0000
,
0000
0000
0000
0000
,
0000
0000
1000
0010
,
1000
0000
0001
0000
1000
0010
0000
0000
,
0100
0001
1000
0010
,
0100
1000
0001
1000
,
0010
0100
0100
0000
,
0000
0000
1000
0010
,
1000
0000
0001
0000
1000
0010
1000
0000
,
0001
0100
0001
0100
,
0001
0100
0001
0100
,
0001
0010
0100
1000
,
0010
0000
1000
0000
0010
1000
0001
0000
,
0100
0001
1000
0001
,
0100
0001
1000
0001
,
0100
0100
0010
0100
,
0010
0000
0100
0000
0001
0100
0001
0000
,
0100
0010
0100
0010
,
0100
0010
0100
0010
,
0100
0010
0100
1000
,
0010
0000
1000
0000
0010
1000
0010
0000
,
0100
0010
1000
0010
,
0100
0010
1000
0010
,
0010
0010
0100
0100
,
0100
0000
0100
0100
0100
0000
0100
0000
,
0100
0000
0100
0100
0100
0000
0010
0000
,
0100
0010
0100
0010
,
0100
0010
2002
0000
,
3003
0000
0010
1010
,
0010
1010
0010
1010
,
0010
1010
0010
1010
,
0010
1010
0010
1010
,
0100
0100
0101
0001
,
0101
0001
0101
0001
,
0101
0001
0101
0001
,
0101
0001
0101
0001
,
1001
0010
0010
0010
,
0010
1000
0010
0000
0010
0000
0010
0000
,
0010
1000
0010
0000
0010
0000
0010
0000
,
0010
0100
0010
0000
0010
0000
0010
0000
,
0010
0000
0010
0001
0010
0000
0010
0000
,
0010
0000
0010
0100
0010
0000
0010
0000
,
0010
1000
0010
0000
0010
0000
0010
0000
,
0010
0100
0010
0000
0010
0000
0010
0000
,
1000
0001
1000
0002
0000
0000
0000
0000
,
0000
0003
1000
0000
,
0001
1000
0001
0000
,
0100
0010
0100
0000
,
0001
1000
0010
0000
,
1000
0100
0010
0000
,
1000
0100
0010
0000
,
0001
0100
0001
0000
,
1000
0010
1000
0000
,
0001
0000
1001
0000
,
0010
0010
1000
0001
,
1000
0000
0010
0000
1000
0010
0000
0000
,
0100
0001
1000
0001
,
0100
0001
1000
0001
,
0100
0001
0100
0010
,
1000
0000
0010
0000
0100
0001
0000
0000
,
0010
1000
0010
0100
,
0010
0100
0010
1000
,
0010
0100
0001
0100
,
0010
0000
0000
0000
1000
0001
0000
0000
,
0100
0010
0100
0010
,
1000
0010
0100
0010
,
1000
0010
0100
0010
,
0001
0000
0010
0000
0100
0001
0000
0000
,
1000
0010
0100
0010
,
1000
0010
0100
0001
,
1001
1001
0110
0000
,
0001
0001
1001
0000
,
0010
0010
1010
0000
,
1000
1000
1000
1000
,
0100
0000
0001
0001
,
0001
0000
0001
0100
0001
0000
0001
0000
,
0001
0000
0001
0100
0001
0000
0001
0000
,
0001
0000
0001
0100
0001
0000
0001
0000
,
0001
0000
0001
1000
0001
0000
0001
0000
,
0001
0000
0001
1000
0001
0000
0001
0000
,
0001
0000
0001
1000
0001
0000
0001
0000
,
0001
0000
0001
1000
0001
0000
0001
0000
,
0001
0001
1000
1000
,
1000
0010
1000
0000
1000
0000
1000
0000
,
1000
0001
1000
0000
1000
0000
1000
0000
,
1000
0010
1000
0000
1000
0000
1000
0000
,
1000
0001
1000
0000
0010
0000
0010
0000
,
0010
1000
0010
0000
0010
0000
0010
0000
,
0010
0100
0010
0000
0010
0000
0010
0000
,
0010
0100
0010
0000
0010
0000
0010
0000
,
1000
0001
1001
1001
,
0110
0110
1001
1001
,
0110
0110
1001
1001
,
0010
0100
0010
0100
,
0010
0010
1001
1001
,
0010
0010
1001
1001
,
0100
0100
1001
1001
,
0001
1000
0001
1000
,
0001
1000
2002
0000
,
0000
3003
0000
0000
0000
0000
0000
0000
;

//---------------dance-single - Copied from----------------
#NOTES:
     dance-single:
     Copied from:
     Hard:
     9:
     0.514,0.610,0.164,0.085,0.153:
0000
0000
0000
0000
,
0000
0000
0000
0000
,
0000
0000
0000
0000
,
1000
0010
1000
0010
,
0100
0010
0100
0001
1000
0001
0000
0000
,
1000
0010
1000
0010
1000
0000
0001
0000
,
0100
0001
0100
0001
0100
0000
0010
0000
,
0010
0010
1001
0000
,
0000
0000
0000
0000
0010
1000
0010
0000
,
1000
0010
1000
0000
0010
1000
0010
0000
,
1000
0010
1000
0000
0010
1000
0010
0000
,
1000
0010
1000
0000
0010
1000
0010
0000
,
0100
0001
0100
0000
0001
0100
0001
0000
,
0100
0001
0100
0000
0001
0100
0001
0000
,
0100
0001
0100
0000
0001
0100
0001
0000
,
0100
0001
0100
0000
0001
0100
0001
0000
,
0010
0100
0010
0000
0100
0010
0100
0000
,
0010
0100
0010
0000
0100
0010
0100
0000
,
0010
0100
0010
0000
0100
0010
0100
0000
,
0010
0100
0010
0000
0100
0010
0100
0000
,
1000
0001
1000
0000
0001
1000
0001
0000
,
1000
0001
1000
0000
0001
1000
0001
0000
,
1000
0001
1000
0000
0001
1000
0001
0000
,
1000
0001
1000
0001
0100
0000
0010
0000
,
1000
0001
1000
0001
1000
0000
0001
0000
,
0001
0001
1000
1000
,
1000
1000
0010
0010
,
0100
0100
0001
1000
,
0001
0000
1000
0000
2002
0000
0000
3003
,
0000
0010
2000
0001
,
0010
0100
0010
0100
,
0001
0100
0010
0100
,
0001
0100
0001
0100
,
0010
0000
0100
3000
0002
0000
0100
0000
,
0010
0100
1000
0010
,
0100
1000
0010
0100
,
1000
0010
0100
0100
,
1000
1003
2000
0010
,
0100
0001
0100
0010
,
0100
0001
0100
0010
,
0100
0001
0100
0010
,
0010
3100
0020
0100
,
1000
0001
0100
1000
,
0001
0100
1000
0100
,
0001
1000
0001
0100
,
1000
0130
2002
0000
,
3003
0000
0010
0010
,
1000
0010
0010
0010
,
1000
0010
1000
0010
,
1000
0001
1000
0001
,
0100
1000
0100
0010
,
0001
0010
0100
1000
,
0010
0100
0010
1000
,
0100
1000
0010
0100
,
0001
0100
0100
0000
,
0000
0000
2000
0010
,
0100
0001
0010
0010
,
0100
0001
0010
0100
,
0010
0001
0010
0100
,
0001
0000
0001
3000
0002
0000
0100
0000
,
0100
0010
0010
0010
,
1000
0100
0010
1000
,
0100
0010
1000
0100
,
0010
1003
1000
0010
,
0100
0010
0100
0000
0001
1000
0001
0000
,
0100
0010
0100
0000
1000
0001
1000
0000
,
0010
0100
0010
0000
1000
0001
1000
0000
,
0010
0000
0100
0000
1000
0100
1000
0000
,
0100
1000
0100
0000
1000
0100
1000
0000
,
0010
0100
0010
0000
0100
0010
0100
0000
,
0010
0100
0010
0000
0001
0010
0001
0000
,
1000
1000
0010
0100
,
0100
0001
0001
0010
,
1000
1000
0010
0100
,
0001
1000
0001
1000
,
1001
0000
0010
1000
,
0010
0000
0000
0100
0010
0000
0000
0000
1000
0000
0000
0000
0001
0000
0000
0000
,
1000
0000
0000
0010
0100
0000
0000
0000
0001
0000
0000
0000
1000
0000
0000
0000
,
0001
0000
0000
0100
0010
0000
0000
0000
1000
0000
0000
0000
0001
0000
0000
0000
,
1000
0000
0000
0010
0100
0000
0000
0000
0001
0000
0000
0000
1000
0000
0000
0000
,
0010
0000
0000
0100
0010
0000
0000
0000
1000
0000
0000
0000
0001
0000
0000
0000
,
0100
0000
0000
0010
0100
0000
0000
0000
0001
0000
0000
0000
1000
0000
0000
0000
,
0010
0000
0000
0100
0010
0000
0000
0000
1000
0000
0000
0000
0001
0000
0000
0000
,
0100
0000
0000
0000
0010
0000
0000
0000
1000
0000
0000
0000
0010
0000
0000
1000
,
0010
0000
0000
1000
0010
0000
0000
1000
0010
0000
0000
1000
0010
0000
0000
1000
,
0010
0000
0000
0100
0010
0000
0000
0100
0010
0000
0000
0100
0010
0000
0000
0100
,
0010
0000
0000
0100
0010
0000
0000
0100
0010
0000
0000
0100
0010
0000
0000
0100
,
0001
0000
0000
0100
0001
0000
0000
0100
0001
0000
0000
0100
0001
0000
0000
0100
,
0001
0000
0000
0100
0010
0000
0000
0100
0010
0000
0000
0100
0010
0000
0000
1000
,
0001
0000
0000
1000
0001
0000
0000
0100
0010
0000
0000
0100
0010
0000
0000
1000
,
0010
0000
0000
1000
0010
0000
0000
0100
0010
0000
0000
0100
0010
0000
0000
0100
,
0010
0000
0000
0100
0010
0000
0000
0000
1001
0000
0000
0000
1001
0000
0000
0000
,
0010
0000
0000
0100
0010
0000
0000
0000
1001
0000
0000
0000
1001
0000
0000
0000
,
0010
0000
0000
0100
0010
0000
0000
0000
1001
0000
0000
0000
1001
0000
0000
0000
,
0010
0000
0000
0100
0010
0000
0000
0000
1001
0000
0000
0000
1001
0000
0000
0000
,
0010
0100
0110
0110
,
1000
0000
0000
0001
1000
0000
0000
0000
0110
0000
0000
0000
0110
0000
0000
0000
,
0001
0000
0000
1000
0001
0000
0000
0000
0110
0000
0000
0000
0110
0000
0000
0000
,
0001
0000
0000
1000
0001
0000
0000
0000
0110
0000
0000
0000
0110
0000
0000
0000
,
1001
1001
0220
0000
,
0000
0000
0000
0000
0000
0000
0000
0000
0000
0000
0000
0330
0000
0000
0000
0000
;
