#TITLE:ドラえもんのうた;
#SUBTITLE:(1992 ver.);
#ARTIST:山野 さと子;
#TITLETRANSLIT:Doraemon no Uta;
#SUBTITLETRANSLIT:(1992 ver.);
#ARTISTTRANSLIT:Satoko Yamano;
#GENRE:;
#CREDIT:vincentw;
#BANNER:[Nostalgia Is Lost] - Doraemon no Uta (1992 ver.).png;
#BACKGROUND:[Nostalgia Is Lost] - Doraemon no Uta (1992 ver.)-bg.png;
#LYRICSPATH:;
#CDTITLE:cdtitle.png;
#MUSIC:[Nostalgia Is Lost] - Doraemon no Uta (1992 ver.).ogg;
#OFFSET:-1.107000;
#SAMPLESTART:17.001040;
#SAMPLELENGTH:19.867548;
#SELECTABLE:YES;
#BPMS:0.000000=120.800003
;
#STOPS:
;
#BGCHANGES:0.000=[Nostalgia Is Lost] - Doraemon no Uta (1992 ver.)-bg.png=1.000=0=0=1=====,
99999=-nosongbg-=1.000=0=0=0 // don't automatically add -songbackground-
;
#KEYSOUNDS:;
#ATTACKS:;

//---------------dance-single - ----------------
#NOTES:
     dance-single:
     :
     Beginner:
     1:
     0.117938,0.191847,0.007863,0.055038,0.000000,97.000000,1.000000,7.000000,0.000000,0.000000,0.000000,0.117938,0.191847,0.007863,0.055038,0.000000,97.000000,1.000000,7.000000,0.000000,0.000000,0.000000:
// measure 0
0000
0000
0000
0000
,  // measure 1
0000
0000
0000
0000
,  // measure 2
0000
0000
0000
0000
,  // measure 3
0000
0000
0000
0000
,  // measure 4
0000
0000
0000
0000
,  // measure 5
0000
0000
0000
0000
,  // measure 6
0000
0000
0000
0000
,  // measure 7
0000
0000
0000
0000
,  // measure 8
1000
0000
0000
0000
,  // measure 9
0001
0000
0000
0000
,  // measure 10
1000
0000
0001
0000
,  // measure 11
1000
0000
0001
0000
,  // measure 12
2000
0000
0000
3000
,  // measure 13
0010
0000
0000
0000
,  // measure 14
0100
0000
0000
0000
,  // measure 15
0010
0000
0100
0000
,  // measure 16
0010
0000
0100
0000
,  // measure 17
0020
0000
0000
0030
,  // measure 18
1000
0000
0001
0000
,  // measure 19
1000
1000
1000
0000
,  // measure 20
0000
0000
0000
0000
,  // measure 21
0000
0000
0000
0000
,  // measure 22
0001
0001
0001
0000
,  // measure 23
0100
0000
0010
0000
,  // measure 24
0000
1000
1000
0000
,  // measure 25
0001
0000
0000
0000
,  // measure 26
0100
0000
0010
0000
,  // measure 27
0100
0000
0010
0000
,  // measure 28
1000
0000
0001
0000
,  // measure 29
1000
0000
0000
0000
,  // measure 30
0010
0000
0100
0000
,  // measure 31
0001
0000
1000
0000
,  // measure 32
0010
0000
0100
0000
,  // measure 33
0001
0000
0000
0000
,  // measure 34
1000
0000
0001
0000
,  // measure 35
1000
0000
0001
0000
,  // measure 36
1000
0000
0100
0000
,  // measure 37
0010
0000
0001
0000
,  // measure 38
2000
0000
0000
3000
,  // measure 39
0001
0000
1000
0000
,  // measure 40
0001
0000
1000
0000
,  // measure 41
0001
0000
0010
0000
,  // measure 42
0100
0000
1000
0000
,  // measure 43
0002
0000
0000
0003
,  // measure 44
0100
0100
0100
0000
,  // measure 45
0010
0010
0010
0000
,  // measure 46
1000
0000
0100
0000
,  // measure 47
0010
0000
0001
0000
,  // measure 48
1000
1000
1000
0000
,  // measure 49
0100
0000
0010
0000
,  // measure 50
0000
0001
0001
0000
,  // measure 51
0010
0000
0100
0000
,  // measure 52
1000
1000
1000
0000
,  // measure 53
0010
0000
0100
0000
,  // measure 54
0000
0001
0001
0000
,  // measure 55
0100
0000
0010
0000
,  // measure 56
0100
0100
0100
0000
,  // measure 57
0001
0001
0001
0000
,  // measure 58
0010
0000
0000
0010
0000
0000
0020
0000
0000
0000
0000
0030
,  // measure 59
0000
0000
2002
0000
,  // measure 60
0000
0000
0000
0000
,  // measure 61
3003
0000
0000
0000
;

//---------------dance-single - ----------------
#NOTES:
     dance-single:
     :
     Easy:
     3:
     0.184209,0.215827,0.007863,0.055038,0.015725,156.000000,1.000000,7.000000,0.000000,0.000000,0.000000,0.184209,0.215827,0.007863,0.055038,0.015725,156.000000,1.000000,7.000000,0.000000,0.000000,0.000000:
0000
0000
0000
0000
,
0000
0000
0000
0000
,
0000
0000
0000
0000
,
0000
0000
0000
0000
,
0000
0000
0000
0000
,
0000
0000
0000
0000
,
0000
0000
0000
0000
,
0000
0000
0000
0000
,
1000
0000
1000
0000
,
0001
0000
0001
0000
,
1000
0001
1000
0000
,
0001
1000
0001
0000
,
0200
0000
0000
0300
,
0010
0000
0010
0000
,
0100
0000
0100
0000
,
0010
0100
0010
0000
,
0100
0010
0100
0000
,
0002
0000
0000
0003
,
1000
0000
0010
0000
,
1000
0010
2000
3000
,
0001
0000
0100
0000
,
0001
0100
0001
0000
,
1000
0100
0010
0000
,
0001
0010
0100
1000
,
0000
0000
0000
0010
0000
0000
0100
0000
0000
0000
0000
0010
,
0000
1000
0100
0010
,
0001
0001
0010
0010
,
0100
0100
1000
0000
,
1000
1000
0010
0010
,
0100
0100
0001
0000
,
1000
0001
1000
0001
,
0100
0010
0100
0000
,
0010
0100
0010
0100
,
0001
1000
0001
0000
,
1000
0100
0010
0000
,
0001
0010
0100
0000
,
1000
0001
1000
0001
,
0100
0010
0100
0010
,
0200
0000
0000
0300
,
0001
0100
0010
0000
,
1000
0010
0100
0000
,
0001
1000
0001
1000
,
0010
0100
0010
0100
,
0020
0000
0000
0030
,
1000
0001
0010
0001
,
0100
0001
1000
0000
,
0100
0000
0010
0000
,
0001
0100
0010
1000
,
0001
0010
0100
0000
,
1000
0001
0100
0010
,
0000
0000
0000
1000
0000
0000
0001
0000
0000
0000
0000
0010
,
0000
0100
0010
0100
,
1000
0001
0100
0000
,
0001
1000
0010
0100
,
0000
0000
0000
0001
0000
0000
1000
0000
0000
0000
0000
0100
,
0000
0010
0001
0010
,
0001
0100
0001
0100
,
0010
1000
0010
1000
,
0001
0000
0000
0010
0000
0000
0100
0000
0000
1000
0000
1000
,
0000
0000
2002
0000
,
0000
0000
0000
0000
,
3003
0000
0000
0000
;

//---------------dance-single - ----------------
#NOTES:
     dance-single:
     :
     Medium:
     5:
     0.278559,0.311751,0.055038,0.094351,0.231946,229.000000,7.000000,12.000000,0.000000,0.000000,0.000000,0.278559,0.311751,0.055038,0.094351,0.231946,229.000000,7.000000,12.000000,0.000000,0.000000,0.000000:
0000
0000
0000
0000
,
0000
0000
0000
0000
,
0000
0000
0000
0000
,
0000
0000
0000
0000
,
0000
0000
0000
0000
,
0000
0000
0000
0000
,
0000
0000
0000
0000
,
0000
0000
0000
0000
,
1000
0100
0010
0001
,
1000
0010
0100
0001
,
1000
0100
1000
0001
,
0010
0001
0100
0010
,
0220
0000
0000
0330
,
0001
1000
0010
0100
,
0001
1000
0100
0010
,
0001
0100
0001
1000
,
0010
1000
0010
0100
,
0220
0000
0000
0330
,
0001
0000
0000
0100
0000
0000
0010
0000
0010
1000
0000
0000
,
0010
0000
0000
0100
0000
0100
0001
0000
0000
0000
0000
0000
,
1000
0100
0001
0100
,
1000
0000
0001
0100
0000
0000
0010
0000
0010
1000
0000
0000
,
0001
1000
0001
0000
,
0100
0000
0000
0010
0000
0000
0100
0000
0000
0010
0000
0010
,
0000
0000
0000
0100
0000
0010
0200
0000
0000
0000
0000
0310
,
0000
0000
0000
1000
0000
0000
0100
0000
0010
0001
0000
0000
,
1000
0000
1000
0100
0000
0000
0010
0000
0010
0001
0000
0000
,
0100
0000
0100
0010
0000
0010
1000
0000
0000
0000
0000
0000
,
0001
0000
0001
0010
0000
0000
0100
0000
0100
1000
0000
0000
,
0010
0000
0010
0100
0000
0100
0001
0000
0000
0000
0000
0000
,
0010
0000
0010
0001
0000
0000
0100
0000
0100
0001
0000
0000
,
0010
0000
0010
1000
0000
1000
0010
0000
0000
0000
0000
0000
,
0001
0000
0100
0001
0000
1000
0010
0000
1000
0001
0000
0000
,
0020
0000
0030
0000
,
0100
0000
0000
1000
0000
0000
0010
0000
1000
0100
0000
0000
,
0010
0000
0000
0001
0000
0000
0100
0000
0001
0010
0000
0000
,
0100
0000
1000
0001
0000
0000
0010
0000
0001
1000
0000
0000
,
0010
0000
0000
0100
0000
0000
0001
0000
0010
0000
0000
0000
,
0200
0000
0000
0300
,
0010
0000
0000
0001
0000
0000
0010
0000
0001
0010
0000
0000
,
0100
0000
0000
1000
0000
0000
0100
0000
1000
0100
0000
0000
,
1000
0000
0001
1000
0000
0000
0001
0000
1000
0001
0000
0000
,
0010
0001
0100
1000
,
0020
0000
0000
0030
,
0001
0000
0000
0001
0000
0000
1000
0000
0010
1000
0000
0000
,
0001
0000
0100
0001
0000
1000
0001
0000
0000
0000
0000
0000
,
1000
0000
1000
0100
0000
0000
0010
0000
0010
0001
0000
0000
,
1000
0000
1000
0010
0000
0010
0100
0000
0100
0001
0000
0000
,
1000
0001
1001
0000
,
0100
0000
0000
0010
0000
0000
1000
0000
0010
0100
0000
0001
,
0000
0000
0000
1000
0000
0100
2000
0000
0000
0000
0000
3001
,
0000
0000
0000
0100
0000
0000
0001
0000
0001
0010
0000
0000
,
0100
0010
0110
0000
,
0001
0000
0000
1000
0000
0000
0010
0000
1000
0001
0000
0100
,
0000
0000
0000
0001
0000
0010
0002
0000
0000
0000
0000
1003
,
0000
0000
0000
0001
1000
0001
1000
0000
0000
0001
0000
0000
,
1000
0000
1000
0100
0000
1000
0100
0000
0010
0000
0000
0000
,
0001
0000
0001
0010
0000
0001
0010
0000
0100
0000
0000
0000
,
0110
0000
0000
0110
0000
0000
0001
0000
1000
0010
0000
0100
,
0000
0000
0220
0000
,
0000
0000
0000
0000
,
0330
0000
0000
0000
;

//---------------dance-single - ----------------
#NOTES:
     dance-single:
     :
     Hard:
     8:
     0.447043,0.455635,0.157251,0.133664,0.644730,361.000000,20.000000,17.000000,0.000000,0.000000,0.000000,0.447043,0.455635,0.157251,0.133664,0.644730,361.000000,20.000000,17.000000,0.000000,0.000000,0.000000:
0000
0000
0000
0000
,
0000
0000
0000
0000
,
0000
0000
0000
0000
,
0000
0000
0000
0000
,
0000
0000
0000
0000
,
0000
0000
0000
0000
,
0000
0000
0000
0000
,
0000
0000
0000
0000
,
1000
0000
0001
0010
0000
0001
1000
0000
0010
0100
0000
0000
,
0001
0000
1000
0010
0000
1000
0001
0000
0100
0010
0000
0000
,
1000
0000
0010
0100
0000
0010
0001
0000
0010
0100
0000
0010
,
1000
0000
0000
1001
0000
0001
0010
0000
0100
0000
0000
0010
,
0002
0010
1000
0103
,
0001
0000
1000
0100
0000
1000
0001
0000
0100
0010
0000
0000
,
1000
0000
0001
0100
0000
0001
1000
0000
0010
0100
0000
0000
,
0001
0000
0100
0010
0000
0100
1000
0000
0000
0100
0000
0010
,
1000
0000
0001
1000
0000
0001
0100
0000
0000
0010
0000
0000
,
2000
0100
0001
3010
,
1000
0000
0000
1010
0000
0010
0100
0001
0100
0001
0000
0000
,
1000
0000
0100
0010
0000
0001
1000
0000
0001
0100
0000
0000
,
0010
0000
1000
1000
0000
0000
0001
0000
0100
0100
0000
0001
,
0010
0000
0100
1000
0000
0001
0100
0000
0010
1000
0000
0000
,
1001
0110
1001
0110
,
1000
0000
0000
0001
0000
0100
0010
0000
0100
0010
0000
1000
,
0001
0000
0000
0100
0000
0010
2000
0000
0000
0000
0000
3001
,
1000
0100
0010
0001
0100
0010
1000
0001
0010
0100
0000
0000
,
0010
0000
0010
0001
0000
0001
0100
0000
0100
1000
0000
1000
,
0100
0000
0100
0001
0000
0001
0010
0000
0000
0001
1000
0001
,
0010
0000
0100
0100
0000
0000
0010
0000
0100
0100
0000
0000
,
1000
0000
0001
0100
0000
0010
1000
0001
1000
0100
0001
1000
,
0010
0000
0010
0001
0000
0001
0100
0000
0100
1000
0100
0010
,
1000
0000
0100
1000
0001
1000
0020
0000
0000
0130
0000
0001
,
0010
0000
0100
0010
0000
0001
1000
0000
0001
0100
0000
0000
,
0001
0100
0010
1000
0010
0100
0001
0000
1000
0100
0000
0010
,
0001
0000
0001
1000
0000
1000
0010
0000
0010
0100
0000
0000
,
0001
0000
0001
0100
0000
0100
0010
0000
0010
1000
0000
0000
,
0001
0000
0001
0010
0000
0010
1000
0000
1000
0010
0000
0010
,
0001
0000
0000
0100
0000
1000
0100
0000
0001
0010
0000
0100
,
1000
0100
1000
0010
0001
0010
1000
0100
1000
0001
0000
0000
,
1000
0000
0010
0010
0000
0100
0001
0000
0100
1000
0000
0000
,
0100
0000
0001
0100
0000
0010
1000
0000
0010
0001
0000
0000
,
0010
0000
1000
1000
0000
0001
0200
0000
0000
0310
0000
1000
,
0001
0000
0001
1000
0000
0100
0010
0001
1000
0100
0000
1000
,
0010
0000
0100
0001
0000
1000
0010
0000
1000
0001
0010
0100
,
1000
0000
0000
1100
0000
0001
0010
0001
0100
0001
0000
0000
,
1000
0000
0010
1000
0000
0100
1000
0000
0001
0010
0000
0000
,
0001
0000
0010
0010
0000
0000
1000
0000
0010
0001
0000
1000
,
0010
0000
0100
0001
0000
0010
0100
0000
1000
0001
0000
0000
,
0011
1010
1100
0101
,
0010
0000
0000
0001
0000
1000
0100
0000
0220
0330
0000
0002
,
1003
0000
0000
1001
0000
0010
0200
0000
0000
0000
0000
0301
,
1000
0000
0001
0100
0000
1000
0100
0000
0001
0010
0000
1000
,
0010
0000
0000
0011
0000
0000
0101
0000
0100
0001
1000
0001
,
0100
0000
0000
0001
0000
1000
0010
0000
2020
3030
0000
0002
,
0103
0000
0000
0110
0000
0001
2000
0000
0000
0000
0000
3010
,
0100
0000
0000
0001
0100
0010
1000
0000
1000
0001
0000
0010
,
0100
0010
0100
0010
0000
0100
0010
0000
0002
0000
0000
1003
,
0100
1000
0100
1000
0000
0100
0001
0000
2000
0000
0000
3010
,
0001
0000
0000
0011
0000
0000
0010
0000
0100
1000
0000
1100
,
0000
0000
2002
0000
,
0000
0000
0000
0000
,
3003
0000
0000
0000
;
