#TITLE:Danca da Manivela;
#SUBTITLE:;
#ARTIST:Axe Bahia;
#TITLETRANSLIT:;
#SUBTITLETRANSLIT:;
#ARTISTTRANSLIT:;
#GENRE:;
#CREDIT:;
#BANNER:Danca da Manivela-Banner.png;
#BACKGROUND:Danca da Manivela-BG.png;
#LYRICSPATH:;
#CDTITLE:;
#MUSIC:Dança da Manivela.ogg;
#OFFSET:0.020000;
#SAMPLESTART:12.019966;
#SAMPLELENGTH:12.000000;
#SELECTABLE:YES;
#BPMS:0.000000=128.330002
;
#STOPS:
;
#BGCHANGES:;
#KEYSOUNDS:;
#ATTACKS:;

//---------------dance-single - ----------------
#NOTES:
     dance-single:
     :
     Hard:
     7:
     0.489005,0.462676,0.030203,0.161084,0.317134,321.000000,3.000000,16.000000,0.000000,0.000000,0.000000,0.489005,0.462676,0.030203,0.161084,0.317134,321.000000,3.000000,16.000000,0.000000,0.000000,0.000000:
0000
0000
0000
0000
,
0000
0000
0000
0000
,
0000
0000
0000
0000
,
0000
0000
0000
0000
,
0000
0000
0000
0000
,
0000
0000
0000
0000
,
0000
0000
0000
0000
0001
0100
1000
0100
,
0001
0010
0100
0000
0010
0100
1000
0000
,
0001
1000
0001
0000
1000
0100
0001
0100
,
1000
0010
0100
0000
0010
0100
0001
0000
,
1000
0000
0001
0000
1000
0000
0000
0000
1001
0000
0000
0001
0100
0000
0000
0100
,
0001
0000
0000
0010
0000
0010
0000
0100
1000
0000
0000
1000
0001
0000
0000
0001
,
1000
0000
0000
0010
0000
0001
0000
0010
1000
0000
0000
1000
0100
0000
0000
0100
,
1000
0000
0000
0010
0000
0010
0000
0100
0002
0000
0000
0000
0023
0000
0000
0000
,
2030
0000
3200
0000
0301
0000
1000
0100
,
0001
0000
0001
0100
1000
0000
0010
0100
,
0010
0000
0100
0010
0100
0000
0001
0010
,
1000
0000
1000
0010
0002
0000
0203
0000
,
2300
0000
0000
0000
3020
0000
0000
0000
0031
0000
0000
0001
0100
0000
1000
0000
,
0100
0000
0000
0001
0010
0000
1000
0000
0010
0000
0000
0001
0100
0000
1000
0000
,
0100
0000
0001
0000
0010
0000
0100
0000
1000
0000
0000
1000
0010
0000
0100
0000
,
0001
0000
0000
0001
0100
0000
0010
0000
1000
0000
0000
1000
0010
0000
0100
0000
,
0001
0000
0010
0000
1000
0000
0010
0000
0001
0000
0000
0001
0100
0000
0010
0000
,
1000
0000
0000
1000
0010
0000
0100
0000
0001
0000
0000
0001
0100
0000
0010
0000
,
1000
0000
0100
0000
0001
0000
0100
0000
1000
0000
0000
1000
0010
0000
0001
0000
,
0010
0000
0000
1000
0100
0000
0001
0000
0100
0000
0000
1000
0010
0000
0001
0000
,
0010
1000
0100
0010
0001
0100
1000
0000
,
0001
0010
1000
0000
1000
0100
0001
0000
,
0001
0010
1000
0000
1000
0100
0001
0000
,
1000
0010
0001
0000
0001
0100
1000
0000
,
1000
0010
0001
0000
0001
0100
0010
0100
,
0001
0010
0100
0000
0010
0100
1000
0010
,
0100
0010
0100
0000
0001
0100
0010
1000
,
0100
0001
0100
0000
1000
0010
1000
0010
,
0100
0001
0100
0001
1000
0100
0001
0100
,
1000
0010
0100
0000
0010
0100
0001
0010
,
0100
0010
0100
0000
1000
0100
0010
0001
,
0100
1000
0100
0000
0001
0010
0001
0010
,
0100
0000
1000
0000
0100
0000
1000
0000
0001
0000
0100
0010
0100
0000
0001
0010
,
0000
0010
0000
0100
1000
0000
0100
0000
1000
0000
0000
1000
0010
0000
0100
0000
,
0001
0000
0000
0001
1000
0000
0001
0000
1000
0000
0100
0010
0100
0000
1000
0010
,
0000
0010
0000
0100
0001
0000
0100
0000
0001
0000
0000
0001
0010
0000
0100
0000
,
1000
0000
0000
1000
0001
0000
1000
0000
1001
0000
0000
1000
0100
0000
0000
0100
,
1000
0000
0000
0010
0000
0010
0000
0100
0001
0000
0000
0001
1000
0000
0000
1000
,
0001
0000
0000
0010
0000
1000
0000
0010
0001
0000
0000
0001
0100
0000
0000
0100
,
0001
0000
0000
0010
0000
0010
0000
0100
2000
0000
0000
0000
3020
0000
0000
0000
,
0032
0000
0000
0000
0203
0000
0000
0000
1300
0000
0000
1000
0001
0000
0100
0000
,
1000
0000
0000
0100
0001
0000
0010
0000
1000
0000
0000
0010
0001
0000
0010
0000
,
0001
0000
0000
0001
1000
0000
0100
0000
0001
0000
0000
0100
1000
0000
0010
0000
,
0001
0000
0000
0010
1000
0000
0010
0000
2000
0000
0000
0000
3200
0000
0000
0000
,
0302
0000
0000
0000
0023
0000
0000
0000
1030
0000
0001
1000
0001
0000
1000
0001
,
0000
1001
0000
0000
0000
0000
0000
0000
0000
0000
0000
0000
0000
0000
0000
0000
;

//---------------dance-single - ----------------
#NOTES:
     dance-single:
     :
     Medium:
     5:
     0.348057,0.411268,0.392642,0.322168,0.010068,171.000000,39.000000,32.000000,0.000000,0.000000,0.000000,0.348057,0.411268,0.392642,0.322168,0.010068,171.000000,39.000000,32.000000,0.000000,0.000000,0.000000:
0000
0000
0000
0000
,
0000
0000
0000
0000
,
0000
0000
0000
0000
,
0000
0000
0000
0000
,
0000
0000
0000
0000
,
0000
0000
0000
0000
,
0000
0000
0011
0000
,
0000
0000
0000
0000
,
0000
0000
1100
0000
,
0000
0000
0000
0000
,
0000
0000
0000
2010
,
3200
0320
0031
0102
,
0023
0230
1300
2010
,
3200
0320
0032
0203
,
2300
0000
3020
0000
0031
0000
0001
0100
,
1000
0000
0100
0000
0110
0000
0100
0001
,
0010
0000
0001
0000
1001
0000
1000
0100
,
0001
0100
2000
3020
,
0032
0203
1300
0001
,
0100
0010
1000
0001
,
0020
0230
2300
3001
,
0100
0010
1000
0001
,
0010
0000
0100
1000
0100
0000
1000
0000
,
0010
0100
0001
1000
,
0200
0320
0032
1003
,
0010
0100
0001
1000
,
0100
0000
0010
0001
0010
0000
0011
0000
,
0001
0101
0001
1001
,
0001
0101
0001
1001
,
1000
1100
1000
1010
,
1000
0000
1001
0000
1100
0000
1000
0100
,
0000
1000
0100
0000
0110
0000
0010
0001
,
0100
0010
1010
0000
0101
0000
0001
0100
,
0000
0001
0100
0000
0101
0000
1100
0000
,
1010
0000
0011
0000
0101
0000
0001
0100
,
0000
0001
0100
0000
0110
0000
0010
1000
,
0100
0010
0011
0000
0101
0000
0001
0100
,
0000
0001
0100
0000
0101
0000
1100
0000
,
1010
0011
0101
0000
,
0000
0000
0000
0000
,
0000
0000
1010
0000
,
0000
0000
0000
0000
,
0000
0000
0000
1100
,
1010
0000
1000
0100
0010
0000
0011
0000
,
0101
0000
0001
0100
0010
0000
1010
0000
,
1100
0000
1000
0100
0002
0000
0023
0000
,
2030
0000
3002
0000
1003
0000
1000
0100
,
0001
0000
0001
0100
1000
0000
0010
0100
,
0010
0000
0100
0010
0100
0000
0001
0010
,
1000
0000
1000
0010
0002
0000
0203
0000
,
2300
0000
0000
0000
3020
0000
0000
0000
0032
0000
0000
0000
0000
0000
0000
1000
,
0000
1003
0000
0000
0000
0000
0000
0000
0000
0000
0000
0000
0000
0000
0000
0000
;

//---------------dance-single - ----------------
#NOTES:
     dance-single:
     :
     Easy:
     2:
     0.126566,0.205634,0.000000,0.010068,0.010068,87.000000,0.000000,1.000000,0.000000,0.000000,0.000000,0.126566,0.205634,0.000000,0.010068,0.010068,87.000000,0.000000,1.000000,0.000000,0.000000,0.000000:
// measure 0
0000
0000
0000
0000
,  // measure 1
0000
0000
0000
0000
,  // measure 2
0000
0000
0000
0000
,  // measure 3
0000
0000
0000
0000
,  // measure 4
0000
0000
0000
0000
,  // measure 5
0000
0000
0000
0000
,  // measure 6
0000
0000
1000
0000
,  // measure 7
0000
0000
0000
0000
,  // measure 8
0000
0000
0001
0000
,  // measure 9
0000
0000
0000
0000
,  // measure 10
0000
0000
0000
1000
,  // measure 11
0000
0000
0000
1000
,  // measure 12
0000
0000
0000
0010
,  // measure 13
0000
0000
0001
0000
,  // measure 14
0100
0000
1000
0000
,  // measure 15
0000
0000
0000
1000
,  // measure 16
0000
0000
0000
0010
,  // measure 17
0000
0000
0001
0100
,  // measure 18
1000
0001
1000
0000
,  // measure 19
0100
0000
0001
0000
,  // measure 20
0100
0010
0100
0000
,  // measure 21
1000
0000
0010
0000
,  // measure 22
0100
0100
0001
0000
,  // measure 23
0100
0000
1000
0000
,  // measure 24
0100
0010
0100
0000
,  // measure 25
0001
0000
0010
0000
,  // measure 26
0100
0100
1000
0100
,  // measure 27
1000
0010
1000
0100
,  // measure 28
1000
0010
1000
0100
,  // measure 29
1000
0010
1000
0100
,  // measure 30
1000
0010
0100
0000
,  // measure 31
0000
0000
0001
0001
,  // measure 32
0001
0000
0010
0000
,  // measure 33
0000
0000
0001
0100
,  // measure 34
1000
0010
0001
0000
,  // measure 35
0000
0000
0100
0100
,  // measure 36
0100
0000
0010
0000
,  // measure 37
0000
0000
1000
0100
,  // measure 38
0001
0010
1000
0000
,  // measure 39
0000
0000
0000
0000
,  // measure 40
0000
0000
0001
0000
,  // measure 41
0000
0000
0000
0000
,  // measure 42
0000
0000
1000
0000
,  // measure 43
0000
0000
1000
0000
,  // measure 44
0000
0000
0010
0000
,  // measure 45
0000
0000
0100
0001
,  // measure 46
0010
1000
0100
0000
,  // measure 47
0000
0000
0001
0000
,  // measure 48
0000
0000
0010
0000
,  // measure 49
0000
0000
0100
1000
,  // measure 50
0010
0000
0000
0000
0001
0000
0000
0000
0200
0000
0000
0000
0000
0000
0000
1000
,  // measure 51
0000
1300
0000
0000
0000
0000
0000
0000
0000
0000
0000
0000
0000
0000
0000
0000
;
