#TITLE:Chemical Plant Zone;
#SUBTITLE:;
#ARTIST:Masato Nakamura;
#TITLETRANSLIT:;
#SUBTITLETRANSLIT:;
#ARTISTTRANSLIT:;
#GENRE:;
#CREDIT:;
#BANNER:[Nostalgia Is Lost] - Chemical Plant Zone-bn.png;
#BACKGROUND:[Nostalgia Is Lost] - Chemical Plant Zone-bg.png;
#LYRICSPATH:;
#CDTITLE:;
#MUSIC:[Nostalgia Is Lost] - Chemical Plant Zone.mp3;
#OFFSET:-0.240000;
#SAMPLESTART:62.079990;
#SAMPLELENGTH:12.000000;
#SELECTABLE:YES;
#BPMS:0.000000=139.259995
;
#STOPS:
;
#BGCHANGES:;
#KEYSOUNDS:;
#ATTACKS:;

//---------------dance-single - ----------------
#NOTES:
     dance-single:
     :
     Hard:
     8:
     0.539770,0.512782,0.202414,0.312055,0.379526,387.000000,24.000000,37.000000,0.000000,0.000000,0.000000,0.539770,0.512782,0.202414,0.312055,0.379526,387.000000,24.000000,37.000000,0.000000,0.000000,0.000000:
0000
0000
0000
0000
,
0000
0000
0000
0000
,
0000
0000
0000
0000
,
0000
0000
0000
0000
,
0001
0000
0000
0000
0001
0000
0000
0001
0000
0000
1000
0000
0100
0000
0010
0000
,
0000
0010
0000
0002
1000
0000
1003
0000
,
0010
0000
0000
0000
0010
0000
0000
0010
0000
0000
1000
0000
0100
0000
0000
0000
,
0010
0000
0010
0000
0001
0000
0001
1000
,
0100
0000
1000
0000
0001
0020
0000
0130
0000
0000
1000
0000
0001
0000
1000
0000
,
0001
0000
0100
0000
0001
0020
0000
0130
0000
0010
0000
0100
0000
2000
0000
0000
,
3010
0000
0000
0000
0010
0000
0000
0010
0000
0000
1000
0000
0100
0000
0000
0000
,
1000
0100
1000
0000
0001
0010
0001
1000
,
0001
0000
0100
0000
0010
2000
0000
3001
0000
0000
0100
0000
0010
0000
1000
0000
,
0001
0000
0010
0000
0100
2000
0000
3001
0000
1000
0000
0001
0000
0200
0000
0000
,
0310
0000
0000
0000
0010
0000
0000
0010
0000
0000
1000
0000
0001
0000
0000
0000
,
1000
0010
1000
0000
0001
0100
0001
0000
,
1000
0000
0001
0000
1000
0000
0001
0100
0000
0010
0000
1000
0010
0000
1000
0000
,
0001
0010
0000
0100
0000
0000
0000
0000
1000
0000
1000
0000
1000
0000
0000
0000
,
0001
0000
1000
0000
0001
0000
1000
0010
0000
0100
0000
0001
0100
0000
0001
0000
,
0020
0200
0000
0330
2000
0200
0000
3300
,
1000
0000
0001
0000
1000
0000
0001
0010
0000
0001
0000
1000
0100
0000
0010
0000
,
0001
1000
0000
0010
0000
0000
0000
0000
0100
0000
0100
0000
0100
0000
0000
0000
,
0001
0000
1000
0000
0001
0000
1000
0010
0000
0100
0000
0010
1000
0000
0100
0000
,
0020
0002
0000
0033
2000
0002
0000
3003
,
0011
0000
0101
0000
1010
0000
0000
0010
,
1000
0000
0010
0000
1000
0100
0000
2000
0000
0000
3100
0000
1000
0100
0000
0000
,
1100
0000
1010
0000
0101
0000
0000
0100
,
0001
0000
0100
0000
0001
1000
0000
0001
0000
1000
0100
0000
0010
0000
0010
0000
,
0011
0000
0110
0000
1100
0000
0000
0100
,
1000
0000
0100
0000
1000
0001
0000
2000
0000
0000
3001
0000
1000
0001
0000
0000
,
1001
0000
0110
0000
1001
0000
0000
1000
,
0100
0010
0002
0000
2003
0000
3001
0000
,
0001
0000
0010
0000
0100
0000
0000
1000
0000
0000
0001
0000
0010
0000
0000
0000
,
0100
0000
0010
0000
0001
0000
0000
1000
0000
0000
0100
0000
0010
0000
0000
0000
,
0100
0000
0010
0000
0001
0000
0000
1000
0000
0000
0100
0000
0010
0000
0000
0000
,
0010
0100
0010
0100
1000
0001
1000
0001
,
1000
0000
0010
0000
0100
0002
0000
1003
0000
0000
0010
0000
0100
0000
0010
0000
,
1000
0000
0001
0000
0100
0020
0000
1030
0000
0001
0000
1000
0000
0002
0000
0000
,
1003
0000
0000
0000
0010
0000
0000
0010
0000
0000
0100
0000
0001
0000
0000
0000
,
1000
0010
1000
0000
0001
0100
0001
0010
,
0100
0000
1000
0000
0001
0020
0000
0130
0000
0000
1000
0000
0001
0000
0010
0000
,
0100
0000
1000
0000
0001
0020
0000
0130
0000
0010
0000
0100
0000
2000
0000
0000
,
3001
0000
0000
0000
0001
0000
0000
0001
0000
0000
0010
0000
0100
0000
0000
0000
,
0010
0001
0010
0000
0100
1000
0100
0000
,
1000
0000
0010
0000
0100
0000
0010
1000
0000
0001
0000
0010
0001
0000
0010
0000
,
0001
0010
0000
0100
0000
0000
0000
0000
1000
0000
1000
0000
1000
0000
0000
0000
,
0001
0000
0100
0000
0010
0000
0100
0001
0000
1000
0000
0100
1000
0000
0100
0000
,
2000
0002
0000
3003
0200
0002
0000
0303
,
0001
0000
0010
0000
0100
0000
0010
0001
0000
1000
0000
0010
1000
0000
0010
0000
,
1000
0100
0000
0010
0000
0000
0000
0000
0001
0000
0001
0000
0001
0000
0000
0000
,
1000
0000
0100
0000
0010
0000
0100
1000
0000
0001
0000
0100
0001
0000
0100
0000
,
0002
2000
0000
3003
0020
2000
0000
3030
,
0101
0000
1001
0000
1010
0000
0000
0010
,
1000
0000
0010
0000
1000
0001
0000
2000
0000
0000
3001
0000
1000
0001
0000
0000
,
0110
0000
1100
0000
0011
0000
0000
0010
,
0001
0000
0010
0000
0001
0100
0000
0001
0000
0100
0001
0000
1000
0000
1000
0000
,
1100
0000
1010
0000
0101
0000
0000
0001
,
0100
0000
0001
0000
1000
0001
0000
2000
0000
0000
3100
0000
1000
0100
0000
0000
,
0011
0000
1001
0000
0110
0000
0000
1000
,
0100
0010
0002
0000
2003
0000
3001
0000
,
0001
0000
0010
0000
0100
0000
0000
1000
0000
0000
0001
0000
0010
0000
0000
0000
,
0100
0000
0010
0000
0001
0000
0000
1000
0000
0000
0100
0000
0010
0000
0000
0000
,
0100
0000
0010
0000
0001
0000
0000
1000
0000
0000
0100
0000
0010
0000
0000
0000
,
0010
0100
0010
0100
1000
0001
1000
0001
,
1000
0000
0000
0000
;

//---------------dance-single - ----------------
#NOTES:
     dance-single:
     :
     Medium:
     7:
     0.424105,0.377839,0.244583,0.160244,0.084339,304.000000,29.000000,19.000000,0.000000,0.000000,0.000000,0.424105,0.377839,0.244583,0.160244,0.084339,304.000000,29.000000,19.000000,0.000000,0.000000,0.000000:
0000
0000
0000
0000
,
0000
0000
0000
0000
,
0000
0000
0000
0000
,
0000
0000
0000
0000
,
0010
0000
0000
0000
0020
0000
0000
0030
0000
0000
1000
0000
0100
0000
0010
0000
,
0000
0010
0000
0002
0000
0000
0003
0000
,
1000
0000
0000
0000
2000
0000
0000
3000
0000
0000
0001
0000
0001
0000
0000
0000
,
1000
1000
0010
0010
,
1000
0000
0010
0000
1000
0010
0000
0000
0100
0000
0100
0000
0100
0000
0000
0000
,
0001
0000
0100
0000
0001
0000
0100
0000
0000
0001
0000
0000
0100
0000
0010
0000
,
0010
0000
0000
0000
0100
0000
0000
0100
0000
0000
0010
0000
1000
0000
0000
0000
,
0010
1000
0010
0000
0100
0001
0100
0000
,
0001
0000
0010
0000
0001
0010
0000
0000
0100
0000
0100
0000
0100
0000
0000
0000
,
0010
0000
0100
0000
0010
0000
0100
0000
0000
0100
0000
0000
1000
0000
0001
0000
,
0001
0000
0000
0000
0010
0000
0000
0010
0000
0000
0100
0000
1000
0000
0000
0000
,
0001
1000
0001
0000
1000
0010
1000
0000
,
0010
0100
0010
0000
0010
1000
0100
0010
,
0001
0000
1010
0000
0010
0010
0010
0000
,
0100
0010
0100
0000
0010
0100
0001
1000
,
0002
0003
0020
0030
,
0010
0100
0010
0000
0001
0010
0100
1000
,
0001
0000
0101
0000
1000
1000
1000
0000
,
0100
0010
0100
0000
1000
0010
0100
0001
,
2000
3000
0002
0003
,
0101
0101
0101
0000
,
0001
0000
0100
0000
0001
0000
0000
0002
0000
0000
0103
0000
0001
0000
0000
0000
,
1010
1010
1010
0000
,
0010
0000
1000
0000
0010
0000
0000
0010
0000
0000
1000
0000
0001
0000
0000
0000
,
1001
1001
1001
0000
,
1000
0000
0001
0000
1000
0000
0000
2000
0000
0000
3001
0000
1000
0000
0000
0000
,
0110
0110
0110
0000
,
0100
0010
0100
0000
0010
0000
0200
0000
,
0000
0001
0000
0301
,
2000
0010
0000
3010
,
1000
0000
0001
0000
0100
0000
0000
0001
0000
0000
1000
0000
0001
0000
0000
0000
,
0001
1000
0001
0000
1000
0001
1000
0000
,
0001
0000
0100
0000
0001
0100
0000
0000
0010
0000
0010
0000
0010
0000
0000
0000
,
1000
0000
0010
0000
1000
0000
0010
0000
0000
1000
0000
0000
0100
0000
0010
0000
,
0010
0000
0000
0000
0100
0000
0000
0100
0000
0000
1000
0000
0001
0000
0000
0000
,
0100
0001
0100
0000
0001
1000
0001
0000
,
1000
0000
0001
0000
1000
0001
0000
0000
0010
0000
0010
0000
0010
0000
0000
0000
,
0001
0000
0100
0000
0001
0000
0100
0000
0000
0010
0000
0000
1000
0000
0100
0000
,
0100
0000
0000
0000
1000
0000
0000
1000
0000
0000
0001
0000
1000
0000
0000
0000
,
0001
1000
0001
0000
0100
0001
0100
0000
,
0001
1000
0001
0000
0001
0010
1000
0010
,
0001
0000
1001
0000
0010
0010
0010
0000
,
1000
0100
1000
0000
0010
1000
0100
1000
,
0020
0030
2000
3000
,
0001
0010
0001
0000
0001
0100
1000
0100
,
0001
0000
1001
0000
0100
0100
0100
0000
,
0010
1000
0010
0000
0010
1000
0100
1000
,
0020
0030
2000
3000
,
1010
1010
1010
0000
,
0010
0000
1000
0000
0010
0000
0000
0020
0000
0000
1030
0000
0010
0000
0000
0000
,
0101
0101
0101
0000
,
0001
0000
0100
0000
0001
0000
0000
0001
0000
0000
1000
0000
0100
0000
0000
0000
,
1100
1100
1100
0000
,
1000
0000
0100
0000
1000
0000
0000
2000
0000
0000
3100
0000
1000
0000
0000
0000
,
0011
0011
0011
0000
,
0001
0010
0001
0000
0010
0000
0200
0000
,
0000
1000
0000
1300
,
0020
0100
0000
0130
,
0010
0000
0100
0000
0001
0000
0000
1000
0000
0000
0010
0000
0100
0000
0000
0000
,
0001
1000
0001
0000
1000
0001
1000
0000
,
1001
0000
0000
0000
;

//---------------dance-single - ----------------
#NOTES:
     dance-single:
     :
     Easy:
     4:
     0.212053,0.215065,0.101207,0.101207,0.000000,152.000000,12.000000,12.000000,0.000000,0.000000,0.000000,0.212053,0.215065,0.101207,0.101207,0.000000,152.000000,12.000000,12.000000,0.000000,0.000000,0.000000:
0000
0000
0000
0000
,
0000
0000
0000
0000
,
0000
0000
0000
0000
,
0000
0000
0000
0000
,
0001
0001
0000
1000
,
0000
0001
0000
1000
,
0010
0010
0000
0010
,
1000
1000
0010
0010
,
1000
0000
1000
0000
,
0001
0000
0001
0000
,
0100
0100
0000
0010
,
0100
0100
0010
0010
,
1000
0000
1000
0000
,
0010
0000
0010
0000
,
0100
0100
0000
0010
,
1000
1000
0001
0001
,
1000
0001
1000
0001
,
1000
0000
1001
0000
,
0010
0100
0010
0100
,
0020
0030
2000
3000
,
0001
0100
0001
0100
,
0001
0000
0101
0000
,
0010
1000
0010
1000
,
0020
0030
0200
0300
,
0100
0100
0101
0000
,
0001
0000
0001
0000
,
1000
1000
1010
0000
,
0010
0000
0010
0000
,
0100
0100
0110
0000
,
0010
0000
0010
0000
,
1000
1000
1010
0000
,
0100
0000
0100
0200
,
0000
0000
0000
0000
,
0000
0300
0010
0010
,
0020
0000
0000
0000
,
0000
0000
0000
0030
,
0010
0000
0010
0000
,
0100
0000
0100
0000
,
0010
0010
0000
1000
,
0001
0001
1000
1000
,
0010
0000
0010
0000
,
1000
0000
1000
0000
,
0001
0001
0000
0001
,
0010
0010
0100
0100
,
0010
0100
0010
0100
,
0010
0000
0110
0000
,
0001
1000
0001
1000
,
0002
0003
0020
0030
,
0100
1000
0100
1000
,
0100
0000
1100
0000
,
0001
0010
0001
0010
,
0002
0003
2000
3000
,
0010
1000
1010
0000
,
0010
0000
0010
0000
,
0100
0001
0101
0000
,
0001
0000
0001
0000
,
0001
0100
0101
0000
,
0100
0000
0100
0000
,
0010
1000
1010
0000
,
0010
0000
1000
2000
,
0000
0000
0000
0000
,
0000
3000
0001
0001
,
0002
0000
0000
0000
,
0000
0000
0000
0003
;

//---------------dance-single - ----------------
#NOTES:
     dance-single:
     :
     Beginner:
     2:
     0.128918,0.188182,0.101207,0.033736,0.000000,91.000000,12.000000,4.000000,0.000000,0.000000,0.000000,0.128918,0.188182,0.101207,0.033736,0.000000,91.000000,12.000000,4.000000,0.000000,0.000000,0.000000:
// measure 0
0000
0000
0000
0000
,  // measure 1
0000
0000
0000
0000
,  // measure 2
0000
0000
0000
0000
,  // measure 3
0000
0000
0000
0000
,  // measure 4
0001
0000
0000
0000
,  // measure 5
0001
0000
1000
0000
,  // measure 6
0010
0010
0000
0000
,  // measure 7
1000
0000
0010
0000
,  // measure 8
1000
0000
0000
0000
,  // measure 9
0001
0000
0001
0000
,  // measure 10
0100
0100
0000
0000
,  // measure 11
0100
0000
0010
0000
,  // measure 12
1000
0000
0000
0000
,  // measure 13
0010
0000
0010
0000
,  // measure 14
0100
0100
0000
0000
,  // measure 15
1000
0000
0001
0000
,  // measure 16
1000
0000
0000
0000
,  // measure 17
1000
0000
1001
0000
,  // measure 18
0001
0000
0000
0000
,  // measure 19
0010
0000
0010
0000
,  // measure 20
0100
0000
0000
0000
,  // measure 21
0100
0000
0110
0000
,  // measure 22
0010
0000
0000
0000
,  // measure 23
1000
0000
1000
0000
,  // measure 24
1000
0000
1100
0000
,  // measure 25
0001
0000
0000
0000
,  // measure 26
1000
0000
1010
0000
,  // measure 27
0001
0000
0000
0000
,  // measure 28
1000
0000
1100
0000
,  // measure 29
0001
0000
0000
0000
,  // measure 30
1000
0000
1010
0000
,  // measure 31
0100
0000
0100
0200
,  // measure 32
0000
0000
0000
0000
,  // measure 33
0000
0300
0010
0000
,  // measure 34
0020
0000
0000
0000
,  // measure 35
0000
0000
0000
0030
,  // measure 36
0010
0000
0000
0000
,  // measure 37
0100
0000
0100
0000
,  // measure 38
0010
0010
0000
0000
,  // measure 39
0001
0000
1000
0000
,  // measure 40
0010
0000
0000
0000
,  // measure 41
1000
0000
1000
0000
,  // measure 42
0001
0001
0000
0000
,  // measure 43
0010
0000
0100
0000
,  // measure 44
0010
0000
0000
0000
,  // measure 45
0010
0000
0110
0000
,  // measure 46
0100
0000
0000
0000
,  // measure 47
0100
0000
0100
0000
,  // measure 48
0001
0000
0000
0000
,  // measure 49
0001
0000
0011
0000
,  // measure 50
0010
0000
0000
0000
,  // measure 51
0010
0000
0010
0000
,  // measure 52
0100
0000
0110
0000
,  // measure 53
0010
0000
0000
0000
,  // measure 54
0100
0000
0110
0000
,  // measure 55
0001
0000
0000
0000
,  // measure 56
0100
0000
0110
0000
,  // measure 57
0010
0000
0000
0000
,  // measure 58
0100
0000
0110
0000
,  // measure 59
0001
0000
0001
0002
,  // measure 60
0000
0000
0000
0000
,  // measure 61
0000
0003
0001
0000
,  // measure 62
0002
0000
0000
0000
,  // measure 63
0000
0000
0000
0003
;
