#TITLE:Bye Bye Bye;
#SUBTITLE:;
#ARTIST:★NSYNC;
#TITLETRANSLIT:;
#SUBTITLETRANSLIT:;
#ARTISTTRANSLIT:*NSYNC;
#GENRE:;
#CREDIT:;
#BANNER:Bye Bye Bye.png;
#BACKGROUND:Bye Bye Bye-bg.png;
#LYRICSPATH:;
#CDTITLE:;
#MUSIC:Bye Bye Bye.ogg;
#OFFSET:-0.474000;
#SAMPLESTART:54.713043;
#SAMPLELENGTH:14.634008;
#SELECTABLE:YES;
#DISPLAYBPM:86.000000;
#BPMS:0.000000=21.566999
,3.000000=86.269997
;
#STOPS:3.000000=2.080000
;
#BGCHANGES:;
#KEYSOUNDS:;
#ATTACKS:;

//---------------dance-single - ----------------
#NOTES:
     dance-single:
     :
     Hard:
     6:
     0.324858,0.292778,0.418896,0.047874,0.000000,151.000000,35.000000,4.000000,0.000000,0.000000,0.000000,0.324858,0.292778,0.418896,0.047874,0.000000,151.000000,35.000000,4.000000,0.000000,0.000000,0.000000:
0000
0000
0000
1001
,
1000
1000
0100
0000
0010
0001
0010
0000
,
0001
0001
0100
0000
0010
0000
0010
0000
,
0100
0100
0010
0000
1000
0100
1000
0000
,
0010
0010
0100
0000
0001
0000
0011
0000
,
1001
0000
0110
0000
0010
1000
0100
0010
,
0001
0001
1001
0000
0010
0010
0100
0100
,
0110
0000
1001
0000
0010
0001
0100
0100
,
0020
0000
2030
0000
3001
0001
0100
0100
,
0110
0000
0011
0000
0010
0100
1000
1000
,
1100
0000
0010
0000
0001
0100
0010
1000
,
0101
0000
1010
0000
0100
1000
0010
0001
,
0100
0000
1000
0000
0010
1000
0010
0010
,
0110
0000
0101
0000
0010
0001
0100
1000
,
0100
0001
0010
0001
0100
1000
0100
0001
,
0011
0000
1010
0000
0100
0001
0010
0001
,
1001
1001
1001
0000
0110
0110
0110
0000
,
1000
0100
1000
0010
0100
0100
0100
0000
,
0001
0010
0001
0100
0010
0010
0010
0000
,
1000
1000
1000
0000
0001
0001
0001
0000
,
0011
0011
0011
0000
1100
1100
1100
0000
,
0010
1000
0100
0010
0001
0001
0001
0000
,
0100
0001
0010
0100
1000
1000
1000
0000
,
0010
0010
0010
0000
0100
0100
0100
0000
,
1010
1010
1010
0000
0101
0101
0101
0000
,
2002
0000
0000
3003
;

//---------------dance-single - ----------------
#NOTES:
     dance-single:
     :
     Challenge:
     8:
     0.485577,0.431463,0.502675,0.059842,0.293227,237.000000,42.000000,5.000000,0.000000,0.000000,0.000000,0.485577,0.431463,0.502675,0.059842,0.293227,237.000000,42.000000,5.000000,0.000000,0.000000,0.000000:
0000
0000
0000
1001
,
0010
1000
0100
0000
0010
0001
0100
0000
0010
0000
0010
0000
0100
0000
0100
0000
,
0001
0010
0100
0000
1000
0010
0100
0000
0001
0000
0001
0000
1000
0000
1000
0000
,
0001
0100
0010
0000
1000
0100
0010
0000
0100
0000
0100
0000
0010
0000
0010
0000
,
0001
0100
0010
0000
1000
0010
1000
0000
0002
0000
0000
0000
1003
0000
0000
0000
,
1001
0000
1001
0000
0010
1000
0100
0000
0010
0100
0010
0000
0001
0100
0001
0000
,
0110
0000
0110
0000
0010
1000
0010
0000
0100
0001
0100
0000
0001
1000
0001
0000
,
0101
0000
0101
0000
1000
0010
1000
0000
0010
0100
0010
0000
1000
0000
0001
0000
,
1000
2000
0100
0100
0010
0010
3001
0001
,
1001
0000
1001
0000
0100
0010
0100
0000
0001
0010
0001
0000
1000
0100
1000
0000
,
0101
0000
0101
0000
0010
1000
0010
0000
1000
0100
1000
0000
0001
0010
0001
0000
,
0110
0000
0110
0000
1000
0100
1000
0000
0100
0010
0100
0000
0010
0001
0010
0000
,
0001
0002
0010
0010
0100
0100
1003
1000
,
1001
0001
0001
0000
0100
0100
0100
0000
,
0001
0100
1000
0100
0001
0000
1000
0000
0001
0100
1000
0100
0001
0000
1000
0000
,
1010
0010
0010
0001
0100
1000
0010
0001
,
1010
0000
0101
0000
1010
0000
1000
0100
0011
0000
1100
0000
0011
0000
1001
0000
,
1001
0000
0100
0010
1000
0000
0100
0010
0001
0000
0100
0010
0100
0000
0100
0000
,
0001
0010
0001
0000
0100
0000
0100
0000
0010
1000
0010
0000
0100
0000
0100
0000
,
0011
0000
0011
0000
0001
0100
0010
1000
0100
0010
0001
0000
0100
0010
0100
0000
,
1001
0000
0110
0000
1001
0000
0010
0100
1001
0000
0110
0000
1001
0000
0110
0000
,
0110
0000
0010
0100
0001
0000
0010
0100
1000
0000
0010
0100
0010
0000
0010
0000
,
1000
0100
1000
0000
0010
0000
0010
0000
0100
0001
0100
0000
0010
0000
0010
0000
,
1100
0000
1100
0000
1000
0010
0100
0001
0010
0100
1000
0000
0010
0100
0010
0000
,
0011
0011
0011
0000
1100
1100
1100
0000
,
2002
0000
0000
3003
;

//---------------dance-single - ----------------
#NOTES:
     dance-single:
     :
     Medium:
     4:
     0.212013,0.184913,0.107716,0.047874,0.000000,111.000000,9.000000,4.000000,0.000000,0.000000,0.000000,0.212013,0.184913,0.107716,0.047874,0.000000,111.000000,9.000000,4.000000,0.000000,0.000000,0.000000:
0000
0000
0000
1001
,
1000
1000
0001
0001
,
1000
0000
1000
0000
0001
0000
0001
0001
,
0101
0100
0010
0010
,
0100
0100
0010
0110
,
1001
1000
0100
1000
,
0010
0000
0100
0000
0001
0001
0001
0000
,
1000
1000
0010
1000
,
0100
0000
0010
0000
0001
0000
1000
1000
,
1001
0000
0001
0000
0100
0000
0010
0010
,
0010
0000
1000
0000
0100
0000
1000
1000
,
1000
0010
0100
0001
,
0020
0000
0200
0330
,
1000
1000
0001
0001
,
1000
0001
1000
0001
,
0010
0010
0100
0100
,
0010
0010
0010
0000
0100
0100
0100
0000
,
1000
0010
0100
0100
,
0001
0010
0001
0001
,
1000
1000
1000
0000
0001
0001
0001
0000
,
1000
0010
0100
0000
0001
0010
0001
0000
,
1001
0010
1000
1000
,
0100
0010
0001
0001
,
1000
1000
1000
0000
0001
0001
0001
0000
,
0010
0010
0011
0000
0100
0100
1100
0000
,
2002
0000
0000
3003
;

//---------------dance-single - ----------------
#NOTES:
     dance-single:
     :
     Easy:
     3:
     0.152170,0.138684,0.179527,0.023937,0.000000,72.000000,15.000000,2.000000,0.000000,0.000000,0.000000,0.152170,0.138684,0.179527,0.023937,0.000000,72.000000,15.000000,2.000000,0.000000,0.000000,0.000000:
0000
0000
0000
1001
,
1000
1000
0001
0001
,
1000
1000
0001
0001
,
0010
0010
0100
0100
,
0010
0010
0100
0000
,
1000
0000
0001
1000
,
0010
0000
0100
0001
,
0010
0000
0001
0001
,
1001
0000
0110
0000
,
1010
0000
1000
0100
,
0010
0000
0001
0100
,
0010
0000
1000
0100
,
0011
0000
0101
0000
,
1001
0000
1000
0000
,
0010
0010
0100
0100
,
0011
0000
0100
0000
,
1001
0000
0110
0000
,
1001
0001
0001
0000
,
1000
1000
1000
0000
,
0100
0000
0010
0000
,
0100
0000
0100
0000
,
0110
0010
0001
0000
,
1000
0001
0100
0000
,
0010
0010
0100
0100
,
0011
0000
1100
0010
,
2002
0000
0000
3003
;

//---------------dance-single - ----------------
#NOTES:
     dance-single:
     :
     Beginner:
     1:
     0.064972,0.059842,0.047874,0.000000,0.000000,34.000000,4.000000,0.000000,0.000000,0.000000,0.000000,0.064972,0.059842,0.047874,0.000000,0.000000,34.000000,4.000000,0.000000,0.000000,0.000000,0.000000:
// measure 0
0000
0000
0000
0000
,  // measure 1
1000
0000
0000
0000
,  // measure 2
1000
0000
0000
0000
,  // measure 3
0001
0000
0000
0000
,  // measure 4
0001
0000
0000
0000
,  // measure 5
1000
0000
0000
0000
,  // measure 6
0001
0000
0000
0000
,  // measure 7
1000
0000
0000
0000
,  // measure 8
0001
0000
0100
0000
,  // measure 9
0010
0000
0000
0000
,  // measure 10
1000
0000
0000
0000
,  // measure 11
0001
0000
0000
0000
,  // measure 12
0010
0000
0010
0010
,  // measure 13
0010
0000
0000
0000
,  // measure 14
0100
0000
0000
0000
,  // measure 15
0001
0000
0000
0000
,  // measure 16
1001
0000
0000
0000
,  // measure 17
1001
0000
0000
0000
,  // measure 18
0010
0000
0000
0000
,  // measure 19
0100
0100
0100
0000
,  // measure 20
1000
0000
0001
0000
,  // measure 21
1001
0000
0000
0000
,  // measure 22
1000
0000
0000
0000
,  // measure 23
0001
0001
0001
0000
,  // measure 24
0100
0000
0010
0000
,  // measure 25
0110
0000
0000
0000
;
