#TITLE:Breathless;
#SUBTITLE:;
#ARTIST:The Corrs;
#TITLETRANSLIT:;
#SUBTITLETRANSLIT:;
#ARTISTTRANSLIT:;
#GENRE:;
#CREDIT:;
#BANNER:Breathless - The Corrsbn.png;
#BACKGROUND:Breathless - The Corrsbg.png;
#LYRICSPATH:Breathless - The Corrs.lrc;
#CDTITLE:encorerebirth.png;
#MUSIC:Breathless - The Corrs.ogg;
#OFFSET:0.005;
#SAMPLESTART:45.254;
#SAMPLELENGTH:16.988;
#SELECTABLE:YES;
#BPMS:0.000=127.000
;
#STOPS:
;
#BGCHANGES:;
#KEYSOUNDS:;
#ATTACKS:;

//---------------dance-single - Spork!----------------
#NOTES:
     dance-single:
     :
     Beginner:
     1:
     0.100,0.125,0.085,0.009,0.000,64.000,9.000,1.000,0.000,0.000,0.000,0.100,0.125,0.085,0.009,0.000,64.000,9.000,1.000,0.000,0.000,0.000:
0000
0000
0000
0000
,
0000
0000
0000
0000
,
0000
0000
0000
0000
,
0000
0000
0000
0000
,
1000
0000
0000
0000
,
1000
0000
0000
0000
,
0001
0000
0000
0000
,
0001
0000
0000
0000
,
0100
0000
0000
0000
,
0010
0000
0000
0000
,
1000
0000
0000
0000
,
0001
0000
0000
0000
,
0010
0000
0000
0000
,
0100
0000
0000
0000
,
1000
0000
0000
0000
,
0001
0000
0000
0000
,
1001
0000
0100
0000
,
0100
0000
0000
0000
,
1001
0000
0010
0000
,
0010
0000
0000
0000
,
1000
0000
0100
0000
,
0010
0000
0000
0000
,
0110
0000
0000
0000
,
1001
0000
0000
0000
,
0001
0001
0000
0001
,
0001
0000
0000
0000
,
0000
0000
0000
0000
,
1000
1000
0000
1000
,
1000
0000
0000
0000
,
0000
0000
0000
0000
,
0001
0001
0000
0001
,
0001
0000
0000
0000
,
0110
0000
0000
0000
,
1000
1000
0000
1000
,
1000
0000
0000
0000
,
0001
0000
0000
0000
,
1000
0000
0000
0000
,
1000
0000
0000
0000
,
0001
0000
1000
0000
,
0001
0000
0000
0000
,
0001
0000
0000
0000
,
1000
0000
0000
0000
,
1000
0000
0001
0000
,
1000
0000
0000
0000
,
2000
0000
0000
0000
,
3001
0000
0000
0000
,
1001
0000
0010
0000
,
0010
0000
0000
0000
,
1001
0000
0100
0000
,
0100
0000
0000
0000
,
0001
0000
0010
0000
,
0100
0000
0000
0000
,
0110
0000
0000
0000
,
1001
0000
0000
0000
;

//---------------dance-single - Spork!----------------
#NOTES:
     dance-single:
     :
     Easy:
     2:
     0.153,0.156,0.047,0.057,0.000,102.000,5.000,6.000,0.000,0.000,0.000,0.153,0.156,0.047,0.057,0.000,102.000,5.000,6.000,0.000,0.000,0.000:
0000
0000
0000
0000
,
0000
0000
0000
0000
,
0000
0000
0000
0000
,
0000
0000
0000
0000
,
0010
0000
1000
0000
,
0001
0000
0020
0000
,
0130
0000
1000
0000
,
0010
0000
0100
0000
,
0100
0000
0100
0000
,
0001
0000
1000
0000
,
0100
0000
0100
0000
,
0010
0000
0001
0000
,
0010
0000
0010
0000
,
0001
0000
1000
0000
,
0010
0000
0010
0000
,
0100
0000
0001
0000
,
1001
0000
0100
0000
,
0010
0000
0000
0010
,
1001
0000
0010
0000
,
0100
0000
0000
0000
,
1000
0000
0001
0000
,
0100
0000
0000
0000
0000
0010
0000
0010
,
0000
0010
0000
0000
0000
0100
0000
0100
,
0000
0100
0000
0000
0000
0000
0000
0000
,
0001
0001
0000
1000
,
1000
0000
0100
0000
,
0020
0000
0130
0000
,
1000
1000
0000
0001
,
0001
0000
0100
0000
,
0020
0000
0130
0000
,
0001
0010
0000
0100
,
1000
0000
0001
0000
,
0200
0000
0310
0000
,
1000
0100
0000
0010
,
0001
0000
1000
0000
,
1000
0000
0000
0000
,
0001
0000
0000
0000
,
0001
0000
0000
0000
,
1000
0000
0100
0000
,
0010
0000
0010
0000
,
0001
0000
1000
0000
,
0010
0000
1000
0000
,
0001
0000
0010
0000
,
0100
0000
0100
0000
,
1000
0000
0001
0000
,
0100
0000
0001
0000
,
1001
0000
1000
0000
,
0100
0000
0000
0100
,
1001
0000
0001
0000
,
0010
0000
0000
0000
,
0001
0000
1000
0000
,
0100
0000
0000
0000
0000
0010
0000
0010
,
0000
0010
0000
0000
0000
0100
0000
0100
,
0000
0100
0000
0000
0000
0000
0000
0000
,
2002
0000
0000
0000
0000
0003
0000
3000
;

//---------------dance-single - Spork!----------------
#NOTES:
     dance-single:
     :
     Medium:
     5:
     0.290,0.363,0.246,0.189,0.000,169.000,26.000,20.000,0.000,0.000,0.000,0.290,0.363,0.246,0.189,0.000,169.000,26.000,20.000,0.000,0.000,0.000:
0000
0000
0000
0000
,
0000
0000
0000
0000
,
0000
0000
0000
0000
,
0000
0000
0000
0000
,
0100
0000
0000
0100
0000
0001
0000
1000
,
0000
0000
2000
0000
,
3010
0000
0000
0010
0000
1000
0000
0001
,
0000
0000
0000
0010
0000
0000
0001
0000
,
0200
0000
0010
0000
,
1000
0000
0301
1000
,
0200
0000
0010
0000
,
0001
0000
1300
1000
,
0020
0000
0100
0000
,
0001
0000
1030
0001
,
0020
0000
0100
0000
,
1000
0000
0031
1000
,
1001
2002
3003
0100
,
0011
0022
0033
0100
,
1010
2020
3030
0001
,
0110
0110
1000
0001
,
0100
0100
0010
1000
,
0001
0000
1000
0000
0100
0010
0000
0010
,
0000
0110
0000
0000
0000
0100
0000
0100
,
0000
0110
0000
0000
0000
0000
0001
0000
,
1000
0100
1000
0000
0000
1000
0001
1000
,
0000
0000
0010
1000
,
1100
0100
0101
0100
,
0001
0010
0001
0000
0000
0001
1000
0001
,
0000
0000
0100
0001
,
0011
0010
1010
0010
,
1000
1000
1000
0000
0000
0001
1000
0001
,
0000
0000
0010
0001
,
0101
0100
1100
0100
,
1000
0001
1000
0000
0000
0010
0100
0010
,
0000
0000
0020
0000
,
0130
0000
0000
0000
,
0001
0000
0000
0001
0000
0001
0000
0000
,
1000
0000
0000
1000
0000
1000
0000
0000
,
0010
0000
0000
0010
0000
1000
0000
0100
,
0000
0000
0100
0010
,
0010
0000
0000
0010
0000
0001
0000
0100
,
0000
0000
0001
0000
1000
0000
0010
0010
,
0000
0000
0000
0010
0000
0100
0000
0002
,
0000
0000
0003
0010
0000
0100
0000
2000
,
0001
3000
0001
0100
,
0010
0000
1000
0000
0100
0010
0100
0000
,
1001
2002
3003
0010
,
1100
2200
3300
0010
,
0101
0202
0303
1000
,
0110
0110
0001
1000
,
0100
1000
0010
0100
,
0001
0000
0010
0000
0100
1000
0000
1000
,
0000
1010
0000
0000
0000
0001
0000
0001
,
0000
0011
0000
0000
0000
0000
0010
0000
,
0001
0100
0001
0000
0000
0001
1000
0001
;

//---------------dance-single - Spork!----------------
#NOTES:
     dance-single:
     :
     Hard:
     7:
     0.408,0.389,0.387,0.132,0.000,247.000,41.000,14.000,0.000,0.000,0.000,0.408,0.389,0.387,0.132,0.000,247.000,41.000,14.000,0.000,0.000,0.000:
0000
0000
0000
0000
,
0000
0000
0000
0000
,
0000
0000
0000
0000
,
0000
0000
0000
0000
,
0020
0000
0000
1000
0000
0001
0000
0100
,
0030
0100
0001
0010
,
0020
0000
0000
0001
0000
1000
0000
0100
,
0030
0000
0100
1000
0000
0000
1000
0001
,
0100
0010
1000
0100
,
0010
0000
0001
0000
1000
0000
0010
1000
,
0100
1000
0010
0100
,
0110
0010
1010
1000
,
1001
0100
0001
0010
,
0100
0000
1000
0000
0001
0000
0100
0001
,
0010
0001
0100
0010
,
0110
0100
0101
0001
,
1001
0000
1000
0010
1000
0100
0000
0010
,
0000
0000
0110
0000
0000
0010
0010
0001
,
0000
0100
0100
0010
0000
1000
0000
0001
,
1000
0010
1000
1100
0000
1001
0000
0011
,
0000
0001
0001
0100
0000
0010
0010
1000
,
0000
0000
1001
0000
0000
0001
0001
0001
,
0000
1010
1000
0000
0001
1000
1000
1000
,
0000
0011
0000
1000
0000
2002
0000
3003
,
0010
0001
0100
0001
0010
0100
1000
0010
,
0100
0000
0100
0001
0100
0010
1000
0001
,
1002
0000
0010
1000
0000
0100
0003
0100
,
0010
1000
0100
1000
0010
0100
0001
0010
,
0100
0000
0100
1000
0100
0010
0001
1000
,
2001
0000
0010
0001
0000
0100
3000
0100
,
0010
0001
0100
1000
0100
0001
0010
0100
,
1000
0000
0010
1000
0100
0001
0100
1000
,
2001
0000
0100
0001
0000
0010
3000
0010
,
0100
0001
0010
0001
0100
0010
1000
0100
,
0010
0010
0011
0010
,
0220
0000
0330
0000
,
1000
0000
0000
1010
0000
0101
0000
0000
,
0001
0000
0000
0011
0000
1100
0000
0000
,
0200
0000
0000
1000
0000
0001
0000
0310
,
0000
0010
0001
0010
0100
1000
0001
0000
,
0101
0000
0000
0011
0000
1001
0000
1100
,
0000
0000
1000
0010
0000
0000
0100
0010
,
0200
0000
0000
0001
0000
1000
0000
0010
,
0320
0000
0000
1000
0000
0001
0000
0100
,
0130
0000
0000
1010
0000
1001
0000
0101
,
0000
0000
0001
0010
0000
0000
0100
0010
,
0001
0000
0001
0100
0001
0010
0000
0100
,
0000
0000
1100
0000
0000
1000
1000
0010
,
0000
0100
0100
0001
0000
1000
0000
0010
,
1000
0100
0010
0011
0000
1001
0000
1010
,
0000
1000
1000
0001
0000
0100
0100
0010
,
0000
0000
1001
0000
0000
0100
0100
0100
,
0000
0011
0001
0000
1000
0010
0010
0010
,
0000
1001
0000
0100
0000
0110
0000
0000
,
2000
0000
3002
0000
0003
1100
0101
1100
;

//---------------dance-single - Spork!----------------
#NOTES:
     dance-single:
     :
     Challenge:
     9:
     0.659,0.596,0.425,0.435,0.165,397.000,45.000,46.000,62.000,0.000,0.000,0.659,0.596,0.425,0.435,0.165,397.000,45.000,46.000,62.000,0.000,0.000:
M000
0000
0000
00M0
0000
0M00
0000
0000
,
000M
0000
0000
0M00
0000
00M0
0000
0000
,
M000
0000
0000
0M00
0000
00M0
0000
0000
,
000M
0000
0000
00M0
0000
0M00
0000
0000
,
M001
0010
0100
100M
0100
M010
0001
10M0
,
0100
0000
1000
0000
0010
0000
0100
0000
0001
0000
0010
0000
0001
0000
1000
0001
,
1M00
0010
0100
M001
0100
001M
1000
00M1
,
0100
0001
M010
010M
1000
1010
1M01
00M1
,
2000
0000
3010
1000
0100
0010
0001
0100
,
0020
0000
0130
0001
0010
1000
0010
0001
,
2000
0000
3010
1000
0001
0100
0001
0010
,
0200
0010
2300
0010
3002
0010
0203
0010
,
0302
0000
0103
0001
0010
0100
1000
0010
,
0200
0000
0310
1000
0100
0001
0100
1000
,
0002
0000
0013
0001
1000
0010
1000
0100
,
0020
0100
0032
0100
2003
0100
3100
0100
,
1100
0000
0101
0100
0010
1000
0100
0010
,
0011
0000
0101
0001
0010
1000
0000
0010
,
0011
0000
1010
0010
0100
0001
0010
0100
,
1100
0000
0000
0000
1010
0000
1001
0000
0000
0000
0101
0000
0000
0000
0100
0010
,
0100
0001
0010
1000
0010
0001
1000
0100
,
0001
0100
1000
0001
0100
0110
1010
2000
,
0000
3001
0010
0001
0100
0110
0101
0002
,
0000
0000
1003
0000
0010
0000
1000
0000
0100
0010
0100
0010
0100
0010
0100
0010
,
0001
0000
0100
0001
1000
0000
0100
000M
0100
0000
0010
1000
0001
0000
0010
M000
,
0020
0000
1030
0100
0001
0100
1000
0001
,
0101
0100
1010
1001
0010
0110
1000
0100
,
0010
0000
0100
1000
0001
0000
0100
000M
0100
0000
0010
0001
0100
0000
0010
M000
,
0020
0000
0031
0010
1000
0010
0001
1000
,
1100
0000
0100
0000
0011
0000
1001
0000
0010
0000
0110
0000
0001
0000
0100
0010
,
0100
0000
0010
1000
0001
0000
0100
M000
0100
0000
0010
0001
1000
0000
0010
000M
,
0020
0100
0130
1000
0100
0010
0001
0100
,
0101
0010
1010
0110
1000
1010
0001
1000
,
0001
0000
0010
0001
1000
0000
0100
000M
0100
0000
0010
1000
0001
0000
0010
M000
,
0020
0100
0030
0000
0001
0010
0010
0010
,
0200
0001
0010
1300
,
M001
0100
0001
0100
0001
0000
M010
0000
0100
0000
10M0
0000
0001
0000
0001
0000
,
1M00
0010
1000
0000
1000
0000
00M1
0000
0100
0010
M000
0010
0100
0000
0100
0001
,
20M0
3100
0010
M001
0010
010M
1000
00M1
,
0100
0002
0023
2030
3020
0032
2003
3001
,
M200
0310
1000
010M
0010
0M01
0010
M200
,
0301
0000
0100
0000
100M
0000
001M
0000
0100
0000
0000
0100
20M0
0000
32M0
0000
,
M301
0020
0230
230M
3100
M010
0001
2M00
,
3010
1000
0100
0002
0103
2000
3001
2000
,
301M
0100
0001
M010
0100
10M0
0100
002M
,
1030
0020
M031
M200
0310
2000
3M01
0M00
,
1010
0000
0011
0010
0001
0100
0010
1000
,
1100
0000
1010
1000
0100
0001
0000
0100
,
1100
0000
0101
0100
0010
1000
0001
0010
,
0011
0000
0000
0000
0101
0000
1001
0000
0000
0000
1100
0000
0000
0000
0100
0010
,
0100
1000
0010
0001
0010
1000
0001
0100
,
1000
0100
0001
1000
0010
0110
0101
0002
,
0000
1003
0010
1000
0100
0110
1100
2000
,
0000
0000
3001
0000
0010
0000
0001
0000
0100
0010
0100
0010
0100
0010
0100
0010
,
2000
0000
3002
0000
0003
1100
0101
1100
;

//---------------dance-double - Spork!----------------
#NOTES:
     dance-double:
     :
     Easy:
     3:
     0.216,0.233,0.274,0.104,0.000,120.000,29.000,11.000,0.000,0.000,0.000,0.216,0.233,0.274,0.104,0.000,120.000,29.000,11.000,0.000,0.000,0.000:
00000000
00000000
00000000
00000000
,
00000000
00000000
00000000
00000000
,
00000000
00000000
00000000
00000000
,
00000000
00000000
00000000
00000000
,
00100000
00000000
10000000
00000000
,
01000000
00000000
00100000
00001000
,
00010000
00000000
00000010
00000000
,
00001000
00000000
00000100
00000000
,
00020000
00000000
00030010
00000000
,
00000020
00000000
00010030
00001000
,
02000000
00000000
03001000
00000000
,
00002000
00000000
00013000
00001000
,
00200000
00000000
01300000
00000000
,
00200000
00000000
00301000
00010000
,
00000200
00000000
00000310
00000000
,
00000200
00000000
00010300
00001000
,
00011000
00011000
00000000
00000000
,
00001001
00001001
00000000
00000000
,
00011000
00011000
00000000
00000000
,
01100000
00100000
00001000
00010000
,
00011000
00000000
00001000
00000000
,
10010000
00000000
10010000
00000000
00000000
00100000
00000000
10000000
,
00000000
01100000
00000000
00000000
00000000
01000000
00000000
00010000
,
00000000
01100000
00000000
00000000
00000000
00000000
00000000
00000000
,
10000000
01000000
00000000
01000000
,
00100000
00000000
00001000
00000000
,
00011000
00000000
01001000
00000000
,
00010000
00000100
00000000
00000100
,
00000010
00000000
00000001
00000000
,
00001001
00000000
00001010
00000000
,
00000001
00000100
00000000
00000100
,
00000010
00000000
00010000
00000000
,
00011000
00000000
00010100
00000000
,
00001000
01000000
00000000
01000000
,
00100000
00000000
10000000
00000000
,
20000000
00000000
00000000
30000000
,
00010000
00000000
00000000
00000000
,
00010000
00000000
00000000
00000000
,
10000000
00000000
01000000
10000000
,
00010000
00000000
00100000
00000000
,
00001000
00000000
00010000
00000010
,
00001000
00000000
00000100
00001000
,
00000001
00000000
00000010
00000001
,
00001000
00000000
00000010
00000000
,
00010000
00000000
00001000
00100000
,
00010000
00000000
01000000
00010000
,
10010000
10010000
00000000
00000000
,
00011000
00011000
00000000
00000000
,
00001001
00001001
00000000
00000000
,
00011000
00010000
00000100
00000010
,
00000110
00000000
00000001
00000000
,
00001000
00000000
00000000
00000000
00000000
00000010
00000000
00001000
,
00000000
00000110
00000000
00000000
00000000
00000100
00000000
00000001
,
00000000
00000110
00000000
00000000
00000000
00000000
00000000
00000000
,
00002002
00000000
00000000
00000000
00000000
00003000
00000000
00000003
;

//---------------dance-double - Spork!----------------
#NOTES:
     dance-double:
     :
     Medium:
     4:
     0.246,0.260,0.302,0.095,0.000,140.000,32.000,10.000,0.000,0.000,0.000,0.246,0.260,0.302,0.095,0.000,140.000,32.000,10.000,0.000,0.000,0.000:
00000000
00000000
00000000
00000000
,
00000000
00000000
00000000
00000000
,
00000000
00000000
00000000
00000000
,
00000000
00000000
00000000
00000000
,
00011000
00000000
00001000
00000010
,
00000100
00000000
00010000
00000000
,
00011000
00000000
00010000
01000000
,
00100000
00000000
10000000
01000000
,
00200000
00000000
01000000
00000000
,
00010000
00000000
00301000
00000000
,
00001000
00000000
00010000
00000000
,
00000100
00000000
00001000
00000000
,
00000020
00000000
00000100
00000000
,
00001000
00000000
00010030
00000000
,
00010000
00000000
00001000
00000000
,
00100000
00000000
00010000
00000000
,
10010000
01100000
00000000
00000000
,
00101000
00011000
00000000
00000000
,
00011000
00010010
00000000
00000000
,
00000110
00000010
00001000
00000001
,
00001001
00000100
00010000
00001000
,
01000000
00010000
00100000
01000000
,
01100000
00000000
00000000
00000000
,
00000110
00000000
00000000
00000000
,
00010000
00001000
00100000
00010000
,
01000000
00000000
00001000
00010000
,
00011000
00010000
00010100
00010000
,
00001000
00010000
00000010
00001000
,
00000100
00000000
00010000
00001000
,
00011000
00001000
00101000
00001000
,
01000000
00010000
00100000
01000000
,
10000000
00000000
00010000
01000000
,
01001000
00001000
00011000
00010000
,
00000010
00001000
00000100
00000010
,
00000001
00000000
00001000
00000000
,
00002000
00000000
00000000
00003000
,
00000001
00000000
00000000
00000110
00000000
00000110
00000000
00000000
,
00001000
00000000
00000000
00000110
00000000
00000110
00000000
00000000
,
00020000
00000000
00000000
00031000
00000000
01000000
00000000
00200000
,
00000000
00000000
10300000
00000000
,
00020000
00000000
00000000
00130000
00000000
00001000
00000000
00010000
,
00000000
00000000
00010000
00000100
00000000
00000000
00010000
00000000
,
00002000
00000000
00000000
00013000
00000000
00000010
00000000
00000200
,
00000000
00000000
00000300
00000001
00000000
00001000
00000000
00000020
,
00000000
00000000
00000030
00000000
00000000
00000000
00000000
00000100
,
00000000
00000001
00000000
00001000
00000000
00000100
00000000
00000000
,
00000110
00001001
00000000
00000000
,
00010100
00011000
00000000
00000000
,
00011000
01001000
00000000
00000000
,
01100000
01000000
00010000
10000000
,
10010000
00100000
00001000
00010000
,
00000010
00001000
00000100
00000010
,
00000110
00000000
00000000
00000000
,
01100000
00000000
00000000
00000000
,
00001000
00000000
00002000
00000000
00000000
00010000
00000000
00010000
,
00003000
00000000
00000000
00000000
;

//---------------dance-double - Spork!----------------
#NOTES:
     dance-double:
     :
     Hard:
     7:
     0.413,0.415,0.340,0.123,0.000,257.000,36.000,13.000,0.000,0.000,0.000,0.413,0.415,0.340,0.123,0.000,257.000,36.000,13.000,0.000,0.000,0.000:
00000000
00000000
00000000
00000000
,
00000000
00000000
00000000
00000000
,
00000000
00000000
00000000
00000000
,
00000000
00000000
00000000
00000000
,
00020000
00000000
00000000
00032000
00000000
02003000
00000000
03200000
,
00000000
10300000
00010000
10000000
,
02000000
00000000
00000000
03200000
00000000
00302000
00000000
00023000
,
00000000
00030000
00000010
00000020
00000000
00000000
00000130
00000100
,
00000001
00000010
00000100
00010000
,
00001000
00000000
00000010
00000000
00000010
00000100
00010000
00001000
,
01000000
00100000
01000000
00001000
,
00010000
00100000
10000000
00010000
,
10000000
01000000
00100000
00001000
,
00010000
00000000
01000000
00000000
01000000
00100000
00001000
00010000
,
00000010
00000100
00000010
00010000
,
00001000
00000000
00000100
00000000
00000001
00000001
00001000
00001000
,
00001001
00011000
00001000
00010000
,
00000110
00011000
00001000
00100000
,
01100000
00011000
00010000
00001000
,
00011000
00000000
10010000
11000000
00000000
01010000
00000000
00010000
,
10000000
01000000
00010000
00001000
,
00011000
00000000
00011000
00000000
00010000
00000010
00000010
00000000
,
00001000
00000000
00000100
00000000
00010000
00001000
00001000
00000000
,
00001000
00000000
01000000
00000000
00010000
00100000
00001000
00010000
,
00011000
00100100
00001000
01000010
,
00011000
00000000
00010000
00000000
00000100
00001000
00000100
00000010
,
00000001
00000000
00000001
00000100
00000000
00001000
00000000
00001000
,
00011000
01000010
00010000
00100100
,
00011000
00000000
00001000
00000000
01000000
00010000
01000000
00100000
,
10000000
00000000
10000000
01000000
00000000
00010000
00000000
00010000
,
00001000
00100000
01000000
10000000
01000000
00100000
00001000
00010000
,
00000010
00001000
00000010
00000100
00000001
00000010
00000100
00001000
,
00000001
00000000
00000001
00000010
00000000
00001000
00000000
00001000
,
00011000
00000000
00100100
00000000
00010000
01000010
00000000
00011000
,
00001000
00010000
00000000
00000000
00000100
00000000
00000000
00000000
,
00000200
00000000
00000000
00000300
,
00020000
00000000
00000000
00000010
00000000
00000001
00030000
00000000
,
00002000
00000000
00000000
00100000
00000000
10000000
00003000
00000000
,
00001000
00010000
01000000
10000000
01000000
00100000
00010000
01000000
,
00000000
00001000
00010000
00010000
00001000
00010000
00000100
00000000
,
00010000
00001000
00000100
00000010
00001000
00000100
00000010
00000100
,
00000000
00010000
00001000
01000000
00000000
00001000
00010000
00000100
,
00010000
00001000
00000010
00000001
00000010
00000100
00001000
00000010
,
00010000
00001000
01000000
00100000
10000000
00100000
01000000
00010000
,
10000000
01000000
00100000
00010000
00001000
00000100
00000010
00000001
,
00000100
00000010
00001000
00010000
01000000
00100000
00100000
00000000
,
10010000
00011000
00010000
00001000
,
01100000
00011000
00010000
00000010
,
00000110
00011000
00001000
00010000
,
00011000
00000000
00001001
00000101
00000000
00001100
00000000
00001000
,
00000001
00000010
00001000
00010000
,
00011000
00000000
00011000
00000000
00001000
01000000
01000000
00000000
,
00010000
00000000
00100000
00000000
00001000
00010000
00010000
00000000
,
00000010
00000000
00001000
00000000
00000100
00000010
00000001
00001000
,
00000010
00000000
00000020
00000000
00000000
00000100
00000100
00000130
;

//---------------dance-double - Spork!----------------
#NOTES:
     dance-double:
     :
     Challenge:
     9:
     0.548,0.519,0.425,0.236,0.090,336.000,45.000,25.000,51.000,8.000,0.000,0.548,0.519,0.425,0.236,0.090,336.000,45.000,25.000,51.000,8.000,0.000: // measure 0
00M00000
00000000
00000000
M0000000
00000000
000M0000
00000000
00000000
,  // measure 1
000000M0
00000000
00000000
0000000M
00000000
0000M000
00000000
00000000
,  // measure 2
0M000000
00000000
00000000
M0000000
00000000
00M00000
00000000
00000000
,  // measure 3
00000M00
00000000
00000000
0000000M
00000000
000000M0
00000000
00000000
,  // measure 4
0M000001
00000010
00000100
M0000010
00000001
000M0010
00000100
0M001000
,  // measure 5
00000001
00000000
00000100
00000000
00001000
00000000
00010000
00000000
01000000
00000000
00010000
00000000
00001000
00000000
00010000
00001000
,  // measure 6
100000M0
01000000
00100000
0100M000
10000000
0100000M
00100000
000100M0
,  // measure 7
10000000
00100000
00010M00
00001M00
00000010
00001000
00M01000
00M10000
,  // measure 8
00000002
00000000
00000103
00000001
00000010
00001000
00010000
00100000
,  // measure 9
20000000
00000000
30100000
10000000
01000000
00010000
00001000
00000100
,  // measure 10
00000002
00000000
00001003
00000001
00000010
00001000
00010000
00100000
,  // measure 11
01000000
00000100
00000010
01000000
00100000
00000010
00000100
00001000
,  // measure 12
02000000
00000000
03100000
10000000
01000000
00010000
00001000
00000100
,  // measure 13
00000020
00000000
00000130
00000001
00000010
00001000
00010000
00100000
,  // measure 14
00200000
00000000
01300000
00010000
00100000
00001000
00010000
00000010
,  // measure 15
00000100
00100000
01000000
00000100
00000010
01000000
01000000
01000000
,  // measure 16
02200000
10010000
03300000
00100000
,  // measure 17
00022000
00100010
00033000
00001000
,  // measure 18
00000220
00001001
00000330
00000100
,  // measure 19
00001001
00000000
00000000
00000000
00000101
00000000
00001100
00000000
00000000
00000000
01010000
00000000
00000000
00000000
10000000
01000000
,  // measure 20
10000000
00010000
01000000
00001000
00010000
01000000
10000000
00100000
,  // measure 21
02200000
00000000
10010000
00000000
03300000
10000000
10000000
00010000
,  // measure 22
00000000
00001000
00000000
00000000
00000000
00000001
00000001
00001000
,  // measure 23
00000000
00000000
00010000
00000000
00000000
00000000
00010000
00000000
00000010
00000100
00000010
00000100
00000010
00000100
00000010
00000100
,  // measure 24
00000010
00001000
00000100
00000001
00000100
00010000
01000000
10000000
,  // measure 25
00010000
00000000
10000000
00100000
00010000
00000010
00010000
00000001
,  // measure 26
00001001
00000000
00011000
00010100
00000000
01001000
00000000
00100000
,  // measure 27
01000000
00010000
00100000
10000000
00100000
00001000
00000010
00000001
,  // measure 28
00001000
00000000
00000001
00000100
00001000
01000000
00001000
10000000
,  // measure 29
10010000
00000000
00000000
00000000
00011000
00000000
00101000
00000000
00000000
00000000
00010010
00000000
00000000
00000000
00000010
00001000
,  // measure 30
00000010
00000000
00000100
00000001
00001000
00000000
00000010
00000000
00010000
00000000
00001000
00010000
00000100
00000000
00010000
00000000
,  // measure 31
00001000
00000000
01000000
00001000
00010000
00000000
00001000
00000000
00100000
00000000
00010000
10000000
01000000
00000000
00100000
00000000
,  // measure 32
01100000
00000000
00011000
01001000
00000000
00010100
00001000
00010000
,  // measure 33
00000100
00001000
00000010
00000001
00000010
00010000
00100000
10000000
,  // measure 34
00010000
01000000
00000000
00000000
00001000
00010000
00010000
00010000
,  // measure 35
00000200
00001000
00000010
00000301
,  // measure 36
M0001100
00000000
00000000
00M10100
00000000
0100M100
00000000
00000000
,  // measure 37
0011000M
00000000
00000000
00101M00
00000000
001M0010
00000000
00000000
,  // measure 38
00010M00
00001000
00100000
010000M0
10000000
0100000M
00010000
00001M00
,  // measure 39
00010000
00000000
00000010
00000000
00000010
00000000
00010000
00000000
00000100
00000000
00000100
00000000
00000010
00000000
00000001
00001000
,  // measure 40
00M00001
00000100
00001000
0100000M
00010000
10000M00
00100000
0M010000
,  // measure 41
00000010
00000000
00001000
00000000
00M00100
00000000
00M00100
00000000
00000010
00000000
00000000
00000010
M0001000
00000000
M0100000
00000000
,  // measure 42
0M001000
00010000
00000010
M0000100
00000001
00M00100
00001000
0M010000
,  // measure 43
00001000
00000000
00100000
00000000
00010000
00000000
00100000
00000000
00001000
00000000
01000000
00000000
00010000
00000000
10000000
00010000
,  // measure 44
1000000M
00100000
00010000
M0000010
00001000
00M00001
00000100
000010M0
,  // measure 45
01000000
00010000
00100000
01000M00
10000000
00010000
00010000
00000000
,  // measure 46
20020000
01100000
30030000
00010000
,  // measure 47
00022000
00100010
00033000
00001000
,  // measure 48
00002002
00000110
00003003
00001000
,  // measure 49
00000110
00000000
00000000
00000000
00000011
00000000
00001010
00000000
00000000
00000000
00110000
00000000
00000000
00000000
10000000
00100000
,  // measure 50
10000000
00010000
01000000
00100000
00010000
00001000
00000010
00000100
,  // measure 51
00000220
00000000
00001001
00000000
00000330
00000001
00000001
00001000
,  // measure 52
00000000
00010000
00000000
00000000
00000000
10000000
10000000
00010000
,  // measure 53
00000000
00000000
00001000
00000000
00000000
00000000
00001000
00000000
00100000
01000000
00100000
01000000
00100000
01000000
00100000
01000000
,  // measure 54
20000000
00000000
30020000
00000000
00030000
11000000
01010000
11000000
;
