#TITLE:Boomerang Fighter;
#SUBTITLE:-Bikkuriman 2000 Korean OP-;
#ARTIST:Lee Young-mi, Kim Moon-seon & Jung Jae-yoon;
#TITLETRANSLIT:;
#SUBTITLETRANSLIT:;
#ARTISTTRANSLIT:;
#GENRE:;
#CREDIT:Kimchinim;
#BANNER:Boomerang Fighter - bn.png;
#BACKGROUND:Boomerang Fighter - BG.png;
#LYRICSPATH:;
#CDTITLE:;
#MUSIC:Boomerang Fighter.ogg;
#OFFSET:-0.050000;
#SAMPLESTART:60.973000;
#SAMPLELENGTH:7.435000;
#LASTBEATHINT:205.857162;
#SELECTABLE:YES;
#BPMS:0.000000=130.000000
;
#STOPS:
;
#BGCHANGES:;
#KEYSOUNDS:;
#ATTACKS:;

//---------------dance-single - Kimchinim----------------
#NOTES:
     dance-single:
     Kimchinim:
     Hard:
     8:
     0.534995,0.531238,0.525978,0.000000,0.194612,306.000000,50.000000,0.000000,0.000000,0.000000,0.000000,0.534995,0.531238,0.525978,0.000000,0.194612,306.000000,50.000000,0.000000,0.000000,0.000000,0.000000:
0000
0000
0000
0000
,
0000
0000
0000
0000
,
0000
0000
0000
0000
,
0000
0000
0000
0000
0000
0000
0000
1000
,
0100
1000
0000
1000
0010
1000
0000
1000
,
0001
1000
0000
1000
0010
1000
0100
0010
,
0001
0000
0000
0001
0010
0001
0000
0001
,
0100
0101
0110
1010
,
1000
0000
1100
0000
0100
1000
0001
0100
,
0001
0000
0010
0100
0000
0010
0001
0000
0100
0000
1001
0000
1001
0000
0000
0000
,
0001
0000
0011
0000
0010
0001
1000
0010
,
0100
0000
0010
0100
0000
0001
1000
0000
0001
0000
0110
0000
0110
0000
0000
0000
,
1000
0000
0100
0000
1000
0000
0010
0100
0000
0000
0100
0000
0001
0000
0010
0000
,
0001
0000
0100
0001
0000
0000
1000
0000
0100
0000
0000
0000
1100
0000
0000
0000
,
1000
0000
0000
0100
0000
0000
1000
0000
0000
0000
0010
0000
0100
0000
0000
0000
,
0101
0000
0000
1010
0000
0000
0101
0000
0000
0000
0001
0000
1000
0000
0001
0000
,
0010
0000
0110
0000
1000
0100
1000
0001
,
0100
0000
0001
0010
0000
0000
0001
0000
0100
0000
0101
0000
0101
0000
0000
0000
,
1000
0000
1010
0000
0010
0100
0001
0010
,
0001
0000
0100
0010
0000
0100
0010
0000
0100
0000
1001
0000
1001
0000
0000
0000
,
0001
0000
0100
0000
0001
0000
0010
0100
0000
0000
1000
0000
0100
0000
1000
0000
,
0001
0000
0100
0010
0000
0100
0001
0000
1000
0000
0000
0000
1100
0000
0000
0000
,
0001
0000
0000
0010
0000
0000
0001
0000
0000
0000
0100
0000
0010
0000
0000
0000
,
1010
0000
0000
0101
0000
0000
1010
0000
0000
0000
1000
0000
0100
0000
0010
0000
,
0001
0000
0100
0001
0100
0000
0001
0000
0000
0000
0101
0000
0101
0000
0000
0000
,
0001
0000
1000
0010
0000
0100
0001
0000
0110
0000
0000
0000
0010
1000
0010
1000
,
0010
0000
1010
0000
0100
0001
0100
0001
0100
0000
0001
0000
1000
0000
0100
0000
,
1100
0000
0000
0101
0000
0000
1100
0000
0000
0000
0000
0000
0100
0000
0010
0000
,
0001
0010
0000
0001
0100
0000
0010
0000
1000
0000
0100
0000
1100
0000
0000
0000
,
0010
0100
0001
1000
0010
0100
0000
0001
,
1000
0100
0010
0001
0000
0101
0101
0000
,
0010
0100
0001
1000
0100
0000
0110
0000
,
0001
0000
0000
1000
0000
0000
0010
0000
0000
0100
0000
0000
0001
1000
0001
1000
,
0001
0000
0000
0001
0000
0000
0001
0000
0010
0000
0001
0000
0100
0000
0010
0000
,
1000
0000
0100
1000
0100
0001
0100
0000
,
1100
0000
0010
0100
0010
1000
0010
0001
,
0010
0000
0000
0100
0000
0000
0010
0000
0000
0000
0000
0000
0100
0000
0001
0000
,
1000
0100
1000
0000
0001
0100
0001
0000
,
0110
0000
0000
1001
0000
0000
0110
0000
0000
0000
0000
0000
0010
0000
0100
0000
,
0001
0010
0001
0000
1000
0010
1000
0000
,
0001
0000
0011
0000
0000
0110
0000
0000
1100
0000
0000
0000
1001
0000
0000
0000
,
1000
0100
0001
0100
1000
0100
0001
0100
,
0010
0001
0100
0010
1000
0000
1010
0000
,
0001
0100
1000
0100
0001
0100
1000
0100
,
0010
1000
0100
0010
0001
0000
0011
0000
,
0001
0000
0000
0001
0100
0000
0001
0000
0000
0000
0100
0000
0010
0000
1000
0000
,
0100
0000
0000
0100
1000
0000
0001
0000
0000
0000
0100
0000
0010
0000
0000
0000
,
1010
0000
1100
0000
0100
0001
0100
1000
,
0001
0100
0001
0000
1000
0100
1000
0000
,
0101
0000
1000
0010
0000
0100
0001
0010
,
0001
0000
0101
0000
0000
1100
0000
0000
1001
0000
0000
0000
0000
0000
0000
0000
;

//---------------dance-single - Kimchinim----------------
#NOTES:
     dance-single:
     Kimchinim:
     Medium:
     5:
     0.372693,0.345305,0.273509,0.126235,0.026299,210.000000,26.000000,12.000000,0.000000,0.000000,0.000000,0.372693,0.345305,0.273509,0.126235,0.026299,210.000000,26.000000,12.000000,0.000000,0.000000,0.000000:
0000
0000
0000
0000
,
0000
0000
0000
0000
,
0000
0000
0000
0000
,
0000
0000
0000
0000
,
0100
0000
0100
0000
0100
0010
0000
0010
,
0000
0010
1000
0000
1000
0100
0001
0000
,
0010
0000
0010
0000
0010
0001
0000
0001
,
0000
0001
0001
0000
0101
0000
1100
0000
,
1000
0000
1000
0000
0100
1000
0100
0000
,
1000
0000
0001
0000
1000
0001
0110
0000
,
0001
0000
0001
0000
0010
0001
0010
0000
,
0001
0000
1000
0000
0001
1000
0110
0000
,
0001
0010
0001
0100
,
0001
0000
1000
0000
0010
0100
0001
0000
,
1000
0000
0100
0000
1000
0010
0100
0000
,
0001
0000
1000
0000
0000
0001
0000
0000
1000
0000
0000
0000
1001
0000
0000
0000
,
0010
0000
0010
0000
0100
0001
0100
0000
,
0010
0000
1000
0000
0010
0100
1001
0000
,
0100
0000
0100
0000
0010
1000
0010
0000
,
0100
0000
0001
0000
0100
0010
1001
0000
,
0001
0001
1000
1000
,
0100
0000
1000
0100
0001
0000
0110
0000
,
0001
0000
0100
0000
0001
0010
0001
0000
,
1000
0000
0001
0000
0000
0100
0000
0000
0001
0000
0000
0000
0101
0000
0000
0000
,
2000
0000
3100
0000
0000
1100
1100
0000
,
0010
0000
0100
0000
0001
0000
0100
0001
,
0010
0000
0011
0000
0001
0100
0001
0000
,
1000
0000
0000
0001
0000
0000
0110
0000
0000
0000
0000
0000
0010
0000
0000
0000
,
1000
0000
0100
0000
1000
0100
1000
0000
,
0001
0000
0101
0000
0001
1000
0001
0000
,
0100
0010
1000
1000
,
0010
0100
0010
0100
0010
0000
0000
0000
,
2002
0000
3003
1001
,
0010
0000
0010
0000
0010
1000
0010
0000
,
1000
0100
0010
1001
,
0100
0000
0100
0000
0100
0001
0100
0000
,
0001
0010
0100
1001
,
2000
0100
0010
3010
,
0002
0010
1003
0000
,
0200
1000
0301
0000
,
0000
0000
0110
0000
0000
1001
0000
0000
0110
0000
0000
0000
0000
0000
0000
0000
,
0001
0000
0100
0000
0001
0010
0001
0000
,
1000
0000
0010
0000
1000
0100
1000
0000
,
0001
0000
0100
0000
0001
1000
0100
0000
,
1000
0001
1000
0110
,
1000
0000
0100
0000
1000
0010
0100
0000
,
0001
0010
0001
0101
,
2000
0000
0000
3200
0000
0000
0320
0000
,
0031
0000
0101
0000
1001
0000
0001
0100
,
0002
0000
0000
0023
0000
0000
0230
0000
,
1300
0000
0001
0000
0000
1000
0000
0000
0110
0000
0000
0000
0000
0000
0000
0000
;

//---------------dance-single - Kimchinim----------------
#NOTES:
     dance-single:
     Kimchinim:
     Easy:
     3:
     0.250967,0.239057,0.168313,0.042078,0.010520,147.000000,16.000000,4.000000,0.000000,0.000000,0.000000,0.250967,0.239057,0.168313,0.042078,0.010520,147.000000,16.000000,4.000000,0.000000,0.000000,0.000000:
0000
0000
0000
0000
,
0000
0000
0000
0000
,
0000
0000
0000
0000
,
0000
0000
0000
0000
,
1000
1000
1000
0000
,
0001
0001
0001
0000
,
0100
0100
0100
0000
,
0010
0100
0001
1000
,
0001
0010
0001
0100
,
0001
1000
0100
0000
,
1000
0100
1000
0010
,
1000
0001
0100
0000
,
0011
0000
1010
0000
,
1000
0010
0001
0000
,
0010
0100
0010
0000
,
0100
0000
0000
0010
0000
0000
1000
0000
0000
0000
0000
0000
0000
0000
0000
0000
,
0001
0100
0001
0010
,
0001
0100
0010
0000
,
1000
0010
1000
0100
,
1000
0010
0100
0000
,
1010
0000
0011
0000
,
0001
1000
0010
0000
,
1000
0100
0010
0001
,
1000
0000
0000
0001
0000
0000
0100
0000
0000
0000
0000
0000
0000
0000
0000
0000
,
0001
0010
0001
0011
,
1000
0010
0100
0000
,
0010
1000
0001
1000
,
0100
0100
0100
0000
,
1000
0100
1000
0000
,
1001
0110
1001
0000
,
0001
0100
0001
1000
,
0100
0001
0100
0000
,
0220
0000
0000
0330
,
1000
0100
0010
0100
,
1000
0010
1000
0000
,
0001
0010
0100
0010
,
0001
0100
0010
0000
,
2010
0000
3100
0000
,
0012
0000
0103
0000
,
1000
0100
0001
0100
,
1000
0001
1001
0000
,
0001
0010
0001
0100
,
0001
1000
0100
0000
,
1000
0100
1000
0010
,
1000
0001
0100
0000
,
0010
0100
0001
0000
,
0010
0100
1000
0000
,
1100
0000
0101
0000
,
1000
0100
0001
0000
,
0011
0000
1010
0000
,
0001
0010
1000
0000
;

//---------------dance-single - Kimchinim----------------
#NOTES:
     dance-single:
     Kimchinim:
     Beginner:
     2:
     0.183341,0.212495,0.063117,0.084156,0.000000,108.000000,6.000000,8.000000,0.000000,0.000000,0.000000,0.183341,0.212495,0.063117,0.084156,0.000000,108.000000,6.000000,8.000000,0.000000,0.000000,0.000000:
// measure 0
0000
0000
0000
0000
,  // measure 1
0000
0000
0000
0000
,  // measure 2
0000
0000
0000
0000
,  // measure 3
0000
0000
0000
0000
,  // measure 4
0002
0003
2000
3000
,  // measure 5
0002
0003
0200
0300
,  // measure 6
0020
0030
0002
0003
,  // measure 7
1000
0100
0010
0001
,  // measure 8
0100
0000
0100
0000
,  // measure 9
0010
0100
0010
0000
,  // measure 10
1000
0000
0001
0000
,  // measure 11
0100
0001
0010
0000
,  // measure 12
0001
0000
0001
0000
,  // measure 13
0010
0100
0010
0000
,  // measure 14
1000
0000
1000
0000
,  // measure 15
0100
0010
0100
0000
,  // measure 16
1000
0000
1000
0000
,  // measure 17
0010
0000
1000
0000
,  // measure 18
0001
0000
0001
0000
,  // measure 19
0010
0000
0001
0000
,  // measure 20
1000
0000
0100
0000
,  // measure 21
0001
0010
1000
0000
,  // measure 22
0001
0000
0100
0000
,  // measure 23
1000
0010
0001
0000
,  // measure 24
0011
0000
0101
0000
,  // measure 25
0001
0000
1000
0000
,  // measure 26
1100
0000
1010
0000
,  // measure 27
1000
0000
0001
0000
,  // measure 28
0010
0000
0001
0000
,  // measure 29
0100
0100
0100
0000
,  // measure 30
0001
0000
1000
0000
,  // measure 31
0010
0100
0010
0000
,  // measure 32
2002
0000
0000
3003
,  // measure 33
1000
0000
0100
0000
,  // measure 34
0001
0000
0010
0000
,  // measure 35
1000
0000
0100
0000
,  // measure 36
1000
0001
0100
0000
,  // measure 37
0001
0000
0010
0000
,  // measure 38
1000
0000
0100
0000
,  // measure 39
0001
0000
0010
0000
,  // measure 40
1000
0100
0001
0000
,  // measure 41
1000
0000
0010
0000
,  // measure 42
0100
1000
0100
0000
,  // measure 43
0001
0000
0100
0000
,  // measure 44
0010
0001
0010
0000
,  // measure 45
1000
0000
1000
0000
,  // measure 46
0001
0000
0001
0000
,  // measure 47
0010
0000
0100
0000
,  // measure 48
0010
0000
0110
0000
,  // measure 49
1000
0000
0001
0000
,  // measure 50
0100
0001
0010
0000
;
