#TITLE:검은 고양이 네로;
#SUBTITLE:(Radio Edit feat.Alvin);
#ARTIST:DJ HYO;
#TITLETRANSLIT:Black Cat Nero;
#SUBTITLETRANSLIT:;
#ARTISTTRANSLIT:;
#GENRE:;
#CREDIT:;
#BANNER:[Nostalgia Is Lost] - Black Cat Nero (Radio Edit feat.Alvin).png;
#BACKGROUND:[Nostalgia Is Lost] - Black Cat Nero (Radio Edit feat.Alvin)-bg.png;
#LYRICSPATH:;
#CDTITLE:cdtitle.png;
#MUSIC:[Nostalgia Is Lost] - Black Cat Nero (Radio Edit feat.Alvin).mp3;
#OFFSET:-1.339393;
#SAMPLESTART:59.298046;
#SAMPLELENGTH:12.000000;
#SELECTABLE:YES;
#BPMS:0.000000=140.000000
;
#STOPS:35.750000=0.428572
;
#BGCHANGES:;
#KEYSOUNDS:;
#ATTACKS:;

//---------------dance-single - ----------------
#NOTES:
     dance-single:
     :
     Hard:
     8:
     0.553401,0.600486,0.201000,0.301499,0.073091,369.000000,22.000000,33.000000,0.000000,0.000000,0.000000,0.553401,0.600486,0.201000,0.301499,0.073091,369.000000,22.000000,33.000000,0.000000,0.000000,0.000000:
0000
0000
0000
0000
,
1001
0001
1000
1000
,
0010
0010
0100
0100
,
0001
0001
0010
0010
,
0100
0000
0100
0000
1000
0000
1000
0001
,
0100
0100
0001
0001
,
1000
1000
0010
0010
,
0100
0001
1000
0001
1000
0001
1000
0001
,
0010
0100
0010
0100
0010
0100
0010
0100
0010
0100
0010
0100
0010
0100
0010
0100
,
0000
0000
0100
0100
0100
0000
2001
0000
,
3100
0000
1002
0000
0103
0200
0000
0320
,
0000
0000
1030
0000
1000
0000
1000
0000
0001
0000
0010
0000
0100
0000
0000
0100
,
0000
0010
0001
0100
1000
0100
0002
0000
,
0003
1000
1000
0001
0010
0100
0210
0000
,
1300
0000
2010
0000
3001
0002
0000
0023
,
0000
0000
0031
0000
0001
0000
0001
0000
1000
0000
0010
0000
0100
0000
0000
0100
,
0000
0010
1000
0100
0001
0100
1000
0000
,
2002
0000
3003
0000
0000
0001
0010
0100
,
1000
0100
0020
0000
0031
1000
0010
0100
,
0001
0100
0020
0000
0130
0100
0010
1000
,
0010
0100
0002
0000
0103
0001
0010
0100
,
1000
0100
0010
0000
0000
0001
1000
0010
,
0100
0001
0010
0001
0000
0001
1000
0010
,
1000
0001
0100
0000
0000
0001
0010
0001
,
0100
0010
1000
0100
0010
0001
0010
0000
,
0001
0000
1001
0000
0000
1000
0010
0100
,
0001
1000
0020
0000
1030
0010
0100
0001
,
0010
0100
2000
0000
3100
0100
0010
0100
,
1000
0001
0200
0000
0310
1000
0001
0010
,
1000
0010
0001
0000
1000
0010
0100
0001
,
0011
0000
1000
0100
0110
0000
0001
0100
,
0110
0100
0001
0000
1001
1000
0001
0100
,
0001
1000
0100
1000
0010
0001
0010
0000
,
1000
0000
0000
0000
0001
0000
0000
0001
1000
0000
0000
0000
0000
0000
0000
0001
,
1000
0100
0210
0000
1300
0000
1020
0000
,
0130
0200
0000
0302
0000
0013
0010
0010
,
0001
0000
0010
0000
0100
0000
0000
0100
0000
0000
1000
0000
0010
0000
0001
0000
,
0010
1000
0001
0000
0000
1000
1000
0001
,
0010
0100
0120
0000
0031
0000
0201
0000
,
0310
0020
0000
2030
0000
3100
0100
0100
,
1000
0000
0100
0000
0020
0000
0000
0030
0000
0000
0001
0000
0010
0000
1000
0000
,
0010
0001
2000
0000
3000
0001
0010
0100
,
1000
0010
0100
0000
0010
0000
1001
0000
,
0110
0000
0001
1000
0100
1000
0001
1000
,
0010
1000
0001
0010
0100
0010
0001
0001
,
0100
0010
1000
0001
0010
0001
1000
0001
,
0100
0001
2000
0000
3000
1000
1000
0001
,
0010
0100
1000
0001
0010
0001
1000
0001
,
0100
0000
0001
0000
1000
0000
0100
0000
0010
0000
0001
1000
0001
0000
1000
0000
,
0010
0100
0001
1000
0010
1000
0001
1000
,
0100
1000
0002
0000
0003
0001
0001
0100
,
0010
0110
0100
0000
0101
0000
1000
0000
,
1100
0200
0000
0310
0000
0001
0001
0001
,
1000
0000
0010
0000
0100
0000
0000
0100
0000
0000
0100
0000
0001
0000
0010
0000
,
1000
0010
0002
0000
0003
1000
1000
0001
,
0010
0100
0100
0000
1100
0000
0001
0000
,
0101
0200
0000
0310
0000
1000
1000
1000
,
0001
0000
0100
0000
0010
0000
0000
0010
0000
0000
0100
0000
1000
0000
0100
0000
,
0001
0010
0200
0000
0300
0010
0100
1000
,
0001
0100
1000
0000
0100
0000
0001
0000
;

//---------------dance-single - ----------------
#NOTES:
     dance-single:
     :
     Medium:
     6:
     0.430713,0.409422,0.356317,0.201000,0.018273,269.000000,39.000000,22.000000,0.000000,0.000000,0.000000,0.430713,0.409422,0.356317,0.201000,0.018273,269.000000,39.000000,22.000000,0.000000,0.000000,0.000000:
0000
0000
0000
0000
,
1001
0001
0001
0001
,
1000
1000
1000
1000
,
0010
0010
0010
0010
,
0100
0100
0100
0100
,
0001
0001
0010
0010
,
0100
0100
1000
1000
,
0001
0001
1000
1000
,
0010
0100
0010
0100
0010
0100
0010
0100
,
0000
0000
0000
1001
,
1100
0000
1001
0000
0001
0001
0000
0100
,
0000
0010
0010
0010
1000
0000
1100
0000
,
1001
0101
1001
1000
,
0001
0000
0010
0010
0010
0000
1001
0000
,
0101
0000
1001
0000
1000
1000
0000
0100
,
0000
0010
0010
0010
0001
0000
0101
0000
,
1001
1100
1001
2000
,
0001
0000
0000
0000
3000
0010
0010
0000
,
0100
0002
1003
0001
,
0010
0200
0310
0100
,
1000
0020
0130
0010
,
1000
0000
0001
0000
0000
1000
1000
0000
,
0100
0010
0100
1000
,
0001
0100
0001
0010
,
1000
0010
0001
1000
,
0001
0100
1001
0001
,
1000
0200
1300
0001
,
0100
0020
0130
0100
,
0001
0020
0031
1000
,
0001
0100
0000
0100
,
1001
0100
1001
0010
,
0010
0000
0010
0000
0000
0100
0100
0000
,
0001
0010
1000
0100
,
0001
1000
1001
0000
,
1001
0011
1100
0011
,
1000
1000
0000
0001
0000
0100
0010
0100
,
0010
1000
1100
0001
,
0101
0000
1001
0000
0000
1000
1000
0001
,
1000
1010
0101
1010
,
0001
0001
0000
1000
0000
0100
0010
0100
,
0010
0000
0002
0000
0003
1000
0001
0100
,
0001
1000
0001
0000
0010
0000
0100
0000
,
1000
0001
1000
1001
,
0110
0001
1010
0001
,
1010
1000
0101
1000
,
0101
0000
0000
0000
0001
0000
0000
0001
0000
0000
0001
0000
0100
0000
0010
0000
,
0100
0010
0200
0000
0300
0001
0001
0010
,
0100
1000
0011
1000
,
0011
0001
1100
0001
,
1100
0000
0000
0000
1000
0000
0000
1000
0000
0000
1000
0000
0100
0000
0010
0000
,
0100
0010
0200
0000
0300
1000
1000
0001
,
0100
0001
2000
0000
3200
0000
2300
0000
,
3001
0200
0000
0302
0000
1003
1000
0001
,
1000
0000
0000
0000
0010
0000
0000
0010
0000
0000
0010
0000
0100
0000
0001
0000
,
1000
0001
0200
0000
0300
0001
0001
1000
,
0100
1000
0002
0000
0203
0000
0302
0000
,
1003
0200
0000
2300
0000
3001
0001
1000
,
0100
0000
0000
0000
0010
0000
0000
0010
0000
0000
0010
0000
0001
0000
1000
0000
,
0010
1000
0002
0000
0003
0010
0100
1000
,
0001
0010
0100
0000
1000
0000
0001
0000
;

//---------------dance-single - ----------------
#NOTES:
     dance-single:
     :
     Easy:
     4:
     0.318467,0.382127,0.082227,0.210136,0.000000,212.000000,9.000000,23.000000,0.000000,0.000000,0.000000,0.318467,0.382127,0.082227,0.210136,0.000000,212.000000,9.000000,23.000000,0.000000,0.000000,0.000000:
// measure 0
0000
0000
0000
0000
,  // measure 1
0001
0001
0001
0001
,  // measure 2
1000
1000
1000
1000
,  // measure 3
0010
0010
0010
0010
,  // measure 4
0100
0100
0100
0100
,  // measure 5
0001
0001
1000
1000
,  // measure 6
0100
0100
0010
0010
,  // measure 7
0001
1000
0001
1000
,  // measure 8
0010
0100
0010
0100
,  // measure 9
0000
0000
0000
0001
,  // measure 10
1000
0001
1000
0001
,  // measure 11
0100
1000
0010
0001
,  // measure 12
0001
1000
0001
1000
,  // measure 13
0010
0001
0100
1000
,  // measure 14
0100
1000
0010
0100
,  // measure 15
0001
0100
0010
1000
,  // measure 16
0001
0100
0001
1000
,  // measure 17
0001
0000
0000
1000
,  // measure 18
0010
0200
0300
0001
,  // measure 19
0010
0200
0300
1000
,  // measure 20
0100
0020
0030
0001
,  // measure 21
0100
0010
0000
1000
,  // measure 22
0100
1000
1000
0001
,  // measure 23
0001
0001
0100
0001
,  // measure 24
0010
1000
0010
0001
,  // measure 25
1000
1001
0000
1000
,  // measure 26
1000
0020
0130
0001
,  // measure 27
0001
0020
0130
1000
,  // measure 28
1000
0200
0310
0001
,  // measure 29
1000
0001
0000
0100
,  // measure 30
0010
0100
0010
1000
,  // measure 31
1000
1000
0001
0001
,  // measure 32
1000
0100
0010
0100
,  // measure 33
1000
0001
0000
0100
,  // measure 34
0100
0000
0000
0000
0220
0000
0000
0000
0330
0000
0000
0000
2002
0000
0000
3003
,  // measure 35
0000
2002
0000
3003
0000
0000
1000
0000
,  // measure 36
0001
0100
0100
0001
,  // measure 37
1000
0200
0300
0010
,  // measure 38
0010
0000
0000
0000
0220
0000
0000
0000
0330
0000
0000
0000
2002
0000
0000
3003
,  // measure 39
0000
2002
0000
3003
0000
0000
0001
0000
,  // measure 40
1000
0100
0100
1000
,  // measure 41
0001
0100
0100
0100
,  // measure 42
0100
0001
1000
0001
,  // measure 43
1001
1000
0010
0100
,  // measure 44
0010
0001
0010
1000
,  // measure 45
1000
0001
0010
0100
,  // measure 46
0010
0002
0003
1000
,  // measure 47
1000
0001
0100
0010
,  // measure 48
0100
1000
0100
0001
,  // measure 49
0001
1000
0010
0100
,  // measure 50
0010
0000
2000
0000
3000
0000
0001
0001
,  // measure 51
0001
0100
0001
0010
,  // measure 52
0100
0010
0001
1000
,  // measure 53
1000
0010
0100
1000
,  // measure 54
0100
0020
0030
1000
,  // measure 55
1000
0100
1000
0010
,  // measure 56
0100
0010
1000
0001
,  // measure 57
0001
0010
0100
1000
,  // measure 58
0100
0020
0000
0030
,  // measure 59
0000
1001
1000
0001
;

//---------------dance-single - ----------------
#NOTES:
     dance-single:
     :
     Beginner:
     2:
     0.107026,0.136474,0.027409,0.036545,0.000000,75.000000,3.000000,4.000000,0.000000,0.000000,0.000000,0.107026,0.136474,0.027409,0.036545,0.000000,75.000000,3.000000,4.000000,0.000000,0.000000,0.000000:
// measure 0
0000
0000
0000
0000
,  // measure 1
1001
0000
0000
0000
,  // measure 2
0000
0000
0000
0000
,  // measure 3
0000
0000
0000
0000
,  // measure 4
0000
0000
0000
0000
,  // measure 5
0001
0000
0000
0000
,  // measure 6
1000
0000
0000
0000
,  // measure 7
0001
0000
0000
0000
,  // measure 8
1000
0000
0000
0000
,  // measure 9
0000
0000
0000
0001
,  // measure 10
0000
0000
0000
1000
,  // measure 11
0000
0000
0000
0100
,  // measure 12
0000
0000
0000
0010
,  // measure 13
0000
0000
0000
0001
,  // measure 14
0000
0000
0000
1000
,  // measure 15
0000
0000
0000
0010
,  // measure 16
0000
0000
0000
0100
,  // measure 17
0000
0000
0000
0001
,  // measure 18
0000
0000
0000
0001
,  // measure 19
0000
0000
0000
1000
,  // measure 20
0000
0000
0000
1000
,  // measure 21
0000
0000
0000
0010
,  // measure 22
0000
0000
0000
0010
,  // measure 23
0000
0010
0000
0100
,  // measure 24
0000
0000
0000
0100
,  // measure 25
0000
0100
0000
0001
,  // measure 26
0000
0000
0000
1000
,  // measure 27
0000
0000
0000
0010
,  // measure 28
0000
0000
0000
0100
,  // measure 29
0000
0000
0000
0001
,  // measure 30
0000
0000
0000
0001
,  // measure 31
0000
0001
0000
1000
,  // measure 32
0000
0000
0000
1000
,  // measure 33
0000
1000
0000
0000
,  // measure 34
0000
1001
0000
0000
,  // measure 35
0000
1000
0000
0000
,  // measure 36
0000
0001
0000
0000
,  // measure 37
0000
1000
0000
0000
,  // measure 38
0000
1001
0000
0000
,  // measure 39
0000
0001
0000
0000
,  // measure 40
0000
1000
0000
0000
,  // measure 41
0000
0001
0000
0100
,  // measure 42
0000
0100
0000
0010
,  // measure 43
0000
1000
0000
1000
,  // measure 44
0000
0100
0000
0100
,  // measure 45
0000
0010
0000
0010
,  // measure 46
0000
0002
0003
0000
,  // measure 47
0000
0001
0000
0001
,  // measure 48
0000
0100
0000
0100
,  // measure 49
0000
0010
0000
0010
,  // measure 50
0000
2000
3000
0000
,  // measure 51
0000
0001
0000
1000
,  // measure 52
0000
0001
0000
1000
,  // measure 53
0000
0001
0000
1000
,  // measure 54
0000
0002
0003
0000
,  // measure 55
0000
0100
0000
0010
,  // measure 56
0000
0100
0000
0010
,  // measure 57
0000
0100
0000
0010
,  // measure 58
0000
0200
0300
0000
,  // measure 59
0000
0001
0001
0001
;
