#TITLE:Are You That Somebody;
#SUBTITLE:Monolith Remix;
#ARTIST:Aaliyah;
#CREDIT:crusher189;
#MUSIC:[Nostalgia Is Lost] - Are You That Somebody (Monolith Remix).mp3;
#SELECTABLE:YES;
#BACKGROUND:[Nostalgia Is Lost] - Are You That Somebody (Monolith Remix)-bg.png;
#BANNER:[Nostalgia Is Lost] - Are You That Somebody (Monolith Remix).png;
#CDTITLE:[Nostalgia Is Lost] - Are You That Somebody (Monolith Remix)-jacket.png;
#OFFSET:-0.197007;
#SAMPLESTART:64.917;
#SAMPLELENGTH:17.560;
#BPMS:0=140;
#STOPS:;

//---------------dance-single - ----------------
#NOTES:
     dance-single:
     :
     Easy:
     2:
     0.000,0.000,0.000,0.000,0.000:
0000
0000
0000
0000
,
0000
0000
0000
0000
,
0100
0000
0000
0000
,
1000
0000
0000
0000
,
0010
0000
0000
0000
,
1000
0000
0000
0000
,
0001
0000
0000
0000
,
0100
0000
0000
0000
,
0001
0000
0000
0000
,
1000
0000
0000
0000
,
1000
0000
0000
0000
,
0001
0000
0000
0000
,
0100
0000
0000
0000
,
0010
0000
0000
0000
,
0100
0000
0000
0000
,
0010
0000
0000
0000
,
1000
0000
0000
0000
,
0001
0000
0000
0000
,
1000
0000
0000
0000
,
0001
0000
0000
0000
,
0100
0000
0000
0000
,
0010
0000
0000
0000
,
0100
0000
0000
0000
,
0010
0000
0000
0000
,
0001
0000
0000
0000
,
1000
0000
0000
0000
,
0001
0000
0000
0000
,
0001
0000
0000
0000
,
1000
0000
0000
0000
,
1000
0000
0000
0000
,
1000
0000
0000
0000
,
0001
0000
0000
0000
,
0100
0000
0000
0000
,
1000
0000
0000
0000
,
0001
0000
0000
0000
,
0100
0000
0000
0000
,
0001
0000
0000
0000
,
0100
0000
0000
0000
,
0001
0000
0000
0000
,
1000
0000
0000
0000
,
0100
0000
0100
0000
,
1000
0000
1000
0000
,
0010
0000
0010
0000
,
0001
0000
0001
0000
,
0100
0000
0100
0000
,
0100
0000
0100
0000
,
0100
0000
0100
0000
,
0100
0000
0100
0000
,
0010
0000
0000
0000
,
0001
0000
0000
0000
,
0100
0000
0000
0000
,
0100
0000
0000
0000
,
0100
0000
0000
0000
,
1000
0000
0000
0000
,
0010
0000
0000
0000
,
0010
0000
0000
0000
,
0001
0000
0000
0000
,
0001
0000
0000
0000
,
1000
0000
0000
0000
,
0010
0000
0000
0000
,
1000
0000
0000
0000
,
1000
0000
0000
0000
,
0001
0000
0000
0000
,
1000
0000
0000
0000
,
1000
0000
0000
0000
,
0001
0000
0000
0000
,
1000
0000
0000
0000
,
0010
0000
0000
0000
,
0010
0000
0000
0000
,
0100
0000
0000
0000
,
0001
0000
0000
0000
,
1000
0000
0000
0000
,
0001
0000
0000
0000
,
1000
0000
0000
0000
,
1000
0000
0000
0000
,
0001
0000
0000
0000
,
1000
0000
0000
0000
,
0001
0000
0000
0000
,
0001
0000
0000
0000
,
1000
0000
0000
0000
,
0000
0000
0000
0000
,
0000
0000
0000
0000
,
0000
0000
0000
0000
;

//---------------dance-single - ----------------
#NOTES:
     dance-single:
     :
     Medium:
     4:
     0.000,0.000,0.000,0.000,0.000:
0000
0000
0000
0000
,
0000
0000
0000
0000
,
0100
1000
0010
0010
,
1000
0100
1000
1000
,
0010
0001
0010
0100
,
1000
1000
0010
1000
,
0001
0100
0001
0010
,
0100
0001
1000
0100
,
0001
0100
0010
0001
,
1000
0010
0100
0000
,
1000
0100
0010
0100
,
0001
0010
0001
0001
,
0100
1000
0100
0100
,
0010
1000
0100
0000
,
0100
0010
0000
1000
,
0010
0100
0000
0010
,
1000
0001
0100
1000
,
0001
0100
0010
0000
,
1000
0100
0010
0100
,
0001
0010
0001
0001
,
0100
1000
0100
0100
,
0010
1000
0100
0000
,
0100
0010
0000
1000
,
0010
0100
0001
0100
,
0001
0000
1000
0010
,
1000
0100
0010
0000
,
0001
0010
0100
0100
,
0001
1000
0001
0001
,
1000
1000
0001
0000
,
1000
0000
0100
0000
,
1000
0001
0100
0100
,
0001
0100
0001
0010
,
0100
0000
0010
0000
,
1000
0000
0010
0000
,
0001
1000
0010
0010
,
0100
0010
1000
1000
,
0001
0000
0010
0000
,
0100
0000
0010
0000
,
0001
1000
0010
0000
,
1000
0100
0001
0001
,
0100
0001
1000
0010
,
1000
0010
1000
0000
,
0010
1000
0100
0001
,
0010
0100
1000
0000
,
0100
0100
0100
0100
,
0100
0100
0100
0100
,
0100
0100
0100
0100
,
0100
0000
0100
0010
,
0010
1000
0001
0100
,
0001
0100
0001
0000
,
0100
0001
0010
1000
,
0100
0010
0001
0000
,
0100
0001
1000
0010
,
1000
0000
0010
0000
2000
0000
0000
3000
,
0010
1000
0100
0001
,
0010
0100
1000
0000
,
0001
0010
0001
0100
,
0001
1000
0100
0000
,
0000
0001
0001
1000
,
0000
0001
1000
0010
,
1000
0100
0010
0001
,
1000
0100
1000
0000
,
0000
1000
0001
0001
,
1000
0010
0100
0010
,
1000
0100
1000
0000
,
0001
0100
0100
0000
,
0000
0001
0001
0010
,
0000
1000
0001
0100
,
0010
1000
0100
0010
,
0100
1000
0001
0000
,
0001
1000
0010
0000
,
1000
0100
0001
0000
,
0001
0001
1000
0010
,
1000
1000
0010
0000
,
1000
1000
0100
0010
,
0001
0001
0100
0100
,
1000
1000
0001
0100
,
0001
0001
0100
0000
,
0001
0001
0010
0100
,
1000
1000
0100
0000
,
0000
0000
0000
0000
,
0000
0000
0000
0000
,
0000
0000
0000
0000
;

//---------------dance-single - ----------------
#NOTES:
     dance-single:
     :
     Hard:
     8:
     0.000,0.000,0.000,0.000,0.000:
0000
0000
0000
0000
,
0000
0000
0000
0000
,
0100
0000
1000
0000
0010
1000
0010
0000
,
1000
0000
0100
0000
1000
0010
1000
0000
,
0010
0100
0001
0000
0010
0000
0100
0000
,
1000
0010
1000
0100
0010
0001
1000
0000
,
0001
0000
0100
0000
0001
1000
0010
0000
,
0100
0000
0001
0000
1000
0010
0100
0010
,
1000
0000
0000
0000
0010
0000
0000
0000
0100
0000
0010
0000
1000
0001
1000
0000
,
0001
0000
0010
0000
0100
0000
1000
0000
0010
0000
0000
0000
0000
0000
0100
0001
,
1000
0000
0000
0000
0100
0000
0000
0000
0010
0000
0001
0000
0100
0010
0100
0000
,
0001
0000
0010
0000
0001
0100
0001
1000
,
0100
0000
0000
0000
1000
0000
0000
0000
0100
0000
0010
0000
0100
1000
0001
0000
,
0010
0000
0100
0000
1000
0000
0010
0000
0100
0000
0000
0000
0000
0000
0001
0010
,
0100
0000
0000
0000
0010
0000
0000
0000
0000
0000
0001
0000
1000
0100
1000
0000
,
0010
0000
0100
0000
0000
0001
0010
0100
,
1000
0000
0000
0000
0001
0000
0000
0000
0100
0000
0010
0000
1000
0001
1000
0000
,
0001
0000
0010
0000
0100
0000
1000
0000
0010
0000
0000
0000
0000
0000
0100
0010
,
1000
0000
0000
0000
0100
0000
0000
0000
0010
0000
0001
0000
0100
0010
0100
0000
,
0001
0000
0010
0000
0001
0100
0001
1000
,
0100
0000
0000
0000
1000
0000
0000
0000
0100
0000
0010
0000
0100
1000
0001
0000
,
0010
0000
0100
0000
1000
0000
0010
0000
0100
0000
0000
0000
0000
0000
0001
0010
,
0100
0000
0000
0000
0010
0000
0000
0000
0000
0000
0001
0000
1000
0100
1000
0000
,
0010
0000
0100
0000
0001
1000
0100
0010
,
0002
0000
1000
0000
,
0010
0000
0000
0000
0100
0000
0000
0003
,
0001
0010
0001
0000
0010
0100
0010
0000
0100
0000
0000
0000
0100
0000
0000
0000
,
1000
0001
1000
0000
0001
0100
0001
0000
1000
0000
0000
0000
1000
0000
0000
0000
,
2000
0000
0100
0000
,
0001
0000
0000
0000
0010
0000
0000
3000
,
0001
1000
0001
0000
1000
0100
1000
0000
0010
0000
0000
0000
0010
0000
0000
0000
,
1000
0010
1000
0000
0010
0100
0010
0000
1000
0000
0000
0000
0100
0000
0000
0000
,
0020
0000
0100
0000
,
0001
0000
0000
0000
0100
0000
0000
0030
,
1000
0001
1000
0000
0001
0010
0001
0000
0100
0000
0000
0000
0100
0000
0000
0000
,
0010
0100
0010
0000
0100
0001
0100
0000
0001
0000
0000
0000
0001
0000
0000
0000
,
2000
0000
0100
0000
,
0010
0000
0000
0000
0100
0000
3000
0001
,
1000
0000
0100
0010
0001
0000
0010
0000
0100
0000
1000
0000
0000
0000
0000
0000
,
0001
0010
0001
0000
0010
0000
0100
0000
1000
0000
0010
0000
1000
0000
0010
0100
,
0010
0000
0000
0000
1000
0000
0000
0000
0001
0100
0010
1000
0100
0000
1000
0000
,
0001
0000
0000
0000
0101
0000
0000
0000
0022
0000
0000
0000
0000
0000
0000
0033
,
0100
0000
0000
0000
0001
0000
0000
0000
0010
0001
0100
0010
1000
0000
0100
1000
,
0100
0000
0000
0000
0110
0000
0000
0000
2200
0000
0000
0000
0000
0000
0000
3300
,
0100
1000
0100
1000
0100
0010
0100
0010
,
0100
0001
0100
0001
0100
0010
0100
0010
,
0100
1000
0100
1000
0100
0010
0100
0010
,
0100
0000
1000
0000
0000
0000
1000
0000
0100
0000
0000
0000
0010
0000
0001
0100
,
0010
0000
0000
0000
1000
0000
0000
0000
0001
0100
0010
1000
0100
0000
1000
0000
,
0001
0000
0000
0000
1001
0000
0000
0000
0022
0000
0000
0000
0000
0000
0000
0033
,
0100
0000
0000
0000
0001
0000
0000
0000
0010
0001
0100
0010
1000
0000
0100
0000
,
0010
0000
0000
0000
0110
0000
0000
0000
2002
0000
0000
0000
0000
0000
0000
3003
,
0010
0000
0000
0000
1000
0000
0000
0000
0001
0100
0010
1000
0100
0000
1000
0000
,
0001
0000
0000
0000
0101
0000
0000
0000
2020
0000
0000
0000
0000
0000
0000
3030
,
0100
0000
0000
0000
0001
0000
0000
0000
0010
0001
0100
0010
1000
0000
0100
0000
,
0010
0000
0000
0000
1100
0000
0000
0000
0220
0000
0000
0000
0000
0000
0000
0330
,
0001
0010
0001
0000
,
1000
0000
0100
0000
1000
0000
0100
0000
2200
0000
0000
0000
0000
0000
0000
3300
,
0000
0010
0001
0100
0001
0000
1000
0010
,
0000
0000
0100
0000
0001
0010
0001
0000
1000
0000
0000
0000
0010
0000
0000
0000
,
1000
0100
0010
0000
,
0001
0000
1000
0000
0010
0000
1000
0000
2002
0000
0000
0000
0000
0000
0000
3003
,
0000
0000
0100
0000
0001
0000
1000
0100
1000
0000
0010
0000
1000
0000
0000
0000
,
0001
0010
0100
1000
0010
0000
0100
0000
,
0001
0010
0001
0000
,
1000
0000
0001
0000
0010
0000
0001
0000
0022
0000
0000
0000
0000
0000
0000
0033
,
0000
0100
1000
0010
1000
0010
0100
0001
,
0000
0100
0001
1000
0001
0010
0100
1000
,
0010
1000
0100
0000
,
0100
0000
0010
0000
0001
0000
0100
0000
0202
0000
0000
0000
0000
0303
0001
0000
,
1000
0000
0100
0010
0001
0000
0010
0000
0100
0000
1000
0000
0000
0000
0000
0000
,
0001
0010
0001
0000
0010
0000
0100
0000
1000
0000
0010
0000
0000
0000
0000
0000
,
1000
0000
1000
0000
0001
0100
0100
0000
,
0001
0100
0001
1000
0100
0000
0000
1000
,
0001
0000
0001
0000
0010
0100
0100
0000
,
1000
0001
1000
0001
0010
0100
0010
0100
,
1000
0000
1000
0000
0001
0100
0100
0000
,
0001
0100
0001
1000
0100
0000
0000
1000
,
0001
0000
0001
0000
0010
0100
0100
0000
,
1000
0001
1000
0001
0100
0000
0000
0000
,
0000
0000
0000
0000
,
0000
0000
0000
0000
,
0000
0000
0000
0000
;
