#VERSION:0.81;
#TITLE:Werewolf Boyfriend;
#SUBTITLE:(AKBK 'DJ Command' Remix);
#ARTIST:Fright Ranger;
#TITLETRANSLIT:;
#SUBTITLETRANSLIT:;
#ARTISTTRANSLIT:;
#GENRE:;
#ORIGIN:;
#CREDIT:;
#BANNER:;
#BACKGROUND:[Mythology] - Werewolf Boyfriend (AKBK 'DJ Command' Remix)-bg.png;
#PREVIEWVID:;
#JACKET:[Mythology] - Werewolf Boyfriend (AKBK 'DJ Command' Remix)-jacket.png;
#CDIMAGE:;
#DISCIMAGE:;
#LYRICSPATH:;
#CDTITLE:;
#MUSIC:[Mythology] - Werewolf Boyfriend (AKBK 'DJ Command' Remix).ogg;
#OFFSET:-4.188;
#SAMPLESTART:40.896;
#SAMPLELENGTH:11.350;
#SELECTABLE:YES;
#BPMS:0.000=170.050;
#STOPS:;
#DELAYS:;
#WARPS:;
#TIMESIGNATURES:0.000=4=4;
#TICKCOUNTS:0.000=4;
#COMBOS:0.000=1;
#SPEEDS:0.000=1.000=0.000=0;
#SCROLLS:0.000=1.000;
#FAKES:;
#LABELS:0.000=Song Start;
#BGCHANGES:;
#KEYSOUNDS:;
#ATTACKS:
;

//---------------dance-single - ----------------
#NOTEDATA:;
#CHARTNAME:;
#STEPSTYPE:dance-single;
#DESCRIPTION:;
#CHARTSTYLE:;
#DIFFICULTY:Beginner;
#METER:1;
#RADARVALUES:0.103,0.160,0.040,0.020,0.000,66.000,4.000,2.000,0.000,0.000,0.000,0.000,0.000,0.103,0.160,0.040,0.020,0.000,66.000,4.000,2.000,0.000,0.000,0.000,0.000,0.000;
#CREDIT:;
#NOTES:
// measure 0
0000
0000
0000
0000
,  // measure 1
0000
0000
0000
0000
,  // measure 2
0000
0000
0000
0000
,  // measure 3
0000
0000
0000
0000
,  // measure 4
0000
0000
0000
0000
,  // measure 5
1000
0000
0000
0000
,  // measure 6
1000
0000
0000
0000
,  // measure 7
0001
0000
0000
0000
,  // measure 8
0001
0000
0001
0000
,  // measure 9
0001
0000
0000
0000
,  // measure 10
0001
0000
0000
0000
,  // measure 11
1000
0000
0000
0000
,  // measure 12
1000
0000
1000
0000
,  // measure 13
1001
0000
0000
0000
,  // measure 14
1000
0000
0000
0000
,  // measure 15
1000
0000
0000
0000
,  // measure 16
0001
0000
0000
0000
,  // measure 17
0001
0000
0000
0000
,  // measure 18
1000
0000
0000
0000
,  // measure 19
1000
0000
0000
0000
,  // measure 20
0001
0000
0000
0000
,  // measure 21
0001
0000
0000
0000
,  // measure 22
0010
0000
0000
0000
,  // measure 23
0010
0000
0000
0000
,  // measure 24
0100
0000
0000
0000
,  // measure 25
0100
0000
0000
0000
,  // measure 26
1000
0000
1000
0000
,  // measure 27
1000
0000
0000
0000
,  // measure 28
0001
0000
0000
0000
,  // measure 29
0001
0000
0000
0000
,  // measure 30
0001
0000
0001
0000
,  // measure 31
0001
0000
0000
0000
,  // measure 32
1000
0000
0000
0000
,  // measure 33
1000
0000
0000
0000
,  // measure 34
0010
0000
0010
0000
,  // measure 35
0010
0000
0000
0000
,  // measure 36
0100
0000
0000
0000
,  // measure 37
0100
0000
0000
0000
,  // measure 38
0100
0000
0100
0000
,  // measure 39
0100
0000
0000
0000
,  // measure 40
0010
0000
0000
0000
,  // measure 41
0010
0000
0000
0000
,  // measure 42
0010
0000
0000
0000
,  // measure 43
0100
0000
0000
0000
,  // measure 44
1001
0000
0000
0000
,  // measure 45
0000
0000
0000
0000
,  // measure 46
1001
0000
0000
0000
,  // measure 47
0000
0000
0000
0000
,  // measure 48
1000
0000
0000
0000
,  // measure 49
1000
0000
0000
0000
,  // measure 50
0001
0000
0000
0000
,  // measure 51
0001
0000
0001
0000
,  // measure 52
0001
0000
0000
0000
,  // measure 53
0001
0000
0000
0000
,  // measure 54
1000
0000
0000
0000
,  // measure 55
1000
0000
1000
0000
,  // measure 56
1000
0000
0000
0000
,  // measure 57
1000
0000
0000
0000
,  // measure 58
0001
0000
0000
0000
,  // measure 59
0001
0000
0001
0000
,  // measure 60
0001
0000
0000
0000
,  // measure 61
1000
0000
0000
0000
,  // measure 62
0001
0000
0000
0000
,  // measure 63
2002
0000
0000
0000
,  // measure 64
3003
0000
0000
0000
;

//---------------dance-single - ----------------
#NOTEDATA:;
#CHARTNAME:;
#STEPSTYPE:dance-single;
#DESCRIPTION:;
#CHARTSTYLE:;
#DIFFICULTY:Hard;
#METER:9;
#RADARVALUES:0.580,0.543,0.250,0.050,0.225,377.000,25.000,5.000,0.000,0.000,0.000,0.000,0.000,0.580,0.543,0.250,0.050,0.225,377.000,25.000,5.000,0.000,0.000,0.000,0.000,0.000;
#CREDIT:;
#NOTES:
0000
0000
0000
0000
,
0001
1000
0001
1000
,
0100
0010
0100
0010
,
0001
1000
0001
0100
,
0020
0000
0030
0000
,
0010
0100
0010
0100
0001
0000
1000
0000
0000
0000
1100
0000
0000
0000
0100
0000
,
1000
0100
1000
0000
0100
0000
0010
0000
0001
0000
0000
0000
1001
0000
0000
0000
,
1000
0010
1000
0000
0001
0100
0001
0000
0100
0000
0000
0100
0000
0000
0010
0000
,
1000
0010
0100
0001
0010
0100
1000
0100
,
0010
0100
0010
0100
1000
0000
0001
0000
0000
0000
0101
0000
0000
0000
0100
0000
,
0001
0100
0001
0000
0100
0000
0010
0000
1000
0000
0000
0000
1001
0000
0000
0000
,
0001
0010
0001
0000
1000
0100
1000
0000
0100
0000
0000
0100
0000
0000
0010
0000
,
0001
0010
0100
1000
0010
0100
0001
0000
,
2002
0000
0000
3003
,
0010
1000
0100
1000
0001
0100
0001
0000
,
1000
0001
0100
0010
0000
0010
0000
0010
,
1000
0000
0010
0000
0100
0000
0001
0000
0010
0000
0001
0010
0000
0001
0010
0000
,
0001
0000
0010
0000
0100
0000
1000
0000
0010
0000
1000
0010
0000
0000
0000
0000
,
0010
1000
0001
1000
0001
0010
0100
0000
,
0100
1000
0001
0100
0000
0100
0000
0100
,
0001
0000
0100
0000
0010
0000
1000
0000
0100
0000
1000
0100
0000
1000
0100
0000
,
1000
0000
0100
0000
0010
0000
0001
0000
0100
0000
0001
0100
0000
0000
0000
0000
,
0001
0100
0001
1000
0100
0010
0100
1000
,
0001
0100
0000
0100
0000
0010
0010
0000
,
1000
0010
0001
0010
1000
0100
1000
0001
,
0100
0010
0000
0010
0000
0100
0100
0000
,
0001
1100
1000
0101
,
0001
1000
0100
1000
0001
0000
0100
0000
,
0010
1000
0010
0000
0100
0010
0100
0000
0001
0000
0000
0010
0000
0000
0010
0000
,
0100
1000
0001
0100
0010
0000
0000
0000
,
1000
0101
0001
1100
,
1000
0001
0100
0001
1000
0000
0100
0000
,
0010
0001
0010
0000
0100
0010
0100
0000
1000
0000
0000
0010
0000
0000
0010
0000
,
0100
0001
1000
0100
0000
0000
0000
0000
,
0010
0101
0010
1100
,
1000
0001
0010
0001
1000
0000
0010
0000
,
0010
1000
0001
0000
1000
0001
0010
0000
0100
0000
0000
1000
0000
0000
1000
0000
,
0010
0100
0001
1000
0100
0000
0000
0000
,
0010
1100
0010
0101
,
0001
1000
0010
1000
0001
0000
0010
0000
,
0010
0001
1000
0000
0001
1000
0010
0000
0100
0000
0000
0001
0000
0000
0001
0000
,
0010
0100
1000
0001
0000
0100
0010
1000
,
0001
0000
0000
0000
,
1001
0000
0000
0000
0010
0001
1000
0010
,
0110
0000
0000
0000
,
0000
0000
0000
0000
0000
0000
0000
0000
0001
0000
0000
0001
0000
0000
0100
0000
,
0110
0000
0000
0000
,
1001
0000
0000
0000
1000
0010
0100
0001
,
1000
1000
0100
1000
0000
1100
0000
0100
,
0010
0100
0010
0000
0100
0000
0010
0000
0001
0000
0001
0000
1000
0000
1000
0000
,
0001
0100
0001
0000
1000
0010
1000
0000
0010
0000
0000
0010
0000
0000
0100
0000
,
0001
0010
0100
1000
0010
0100
0001
0000
,
0100
0001
0100
0001
0100
0000
0010
0000
0000
0000
1010
0000
0000
0000
1000
0000
,
0001
1000
0001
0000
1000
0000
0100
0000
0010
0000
0000
0000
0110
0000
0000
0000
,
0100
1000
0100
0000
0010
0000
0001
0000
0100
0000
0000
0100
0000
0000
0100
0000
,
0001
0010
0100
1000
0001
0100
0010
1000
,
0100
1000
0100
1000
0100
0000
0010
0000
0000
0000
0011
0000
0000
0000
0001
0000
,
1000
0001
1000
0000
0001
0000
0100
0000
0010
0000
0000
0000
0110
0000
0000
0000
,
0100
0001
0100
0000
0010
0000
1000
0000
0100
0000
0000
0100
0000
0000
0100
0000
,
1000
0010
0100
0001
1000
0100
0010
0000
,
0110
0000
0000
0000
0000
0100
1000
0001
,
0100
0000
0000
0000
,
0110
0000
0000
0000
0010
1000
0001
0010
,
0220
0000
0000
0000
,
0330
0000
0000
0000
;

//---------------dance-single - ----------------
#NOTEDATA:;
#CHARTNAME:;
#STEPSTYPE:dance-single;
#DESCRIPTION:;
#CHARTSTYLE:;
#DIFFICULTY:Medium;
#METER:7;
#RADARVALUES:0.510,0.479,0.289,0.060,0.050,323.000,29.000,6.000,0.000,0.000,0.000,0.000,0.000,0.510,0.479,0.289,0.060,0.050,323.000,29.000,6.000,0.000,0.000,0.000,0.000,0.000;
#CREDIT:;
#NOTES:
0000
0000
0000
0000
,
0001
0001
0000
0000
,
1000
1000
0100
1000
,
0001
0001
0000
0000
,
0220
0000
0330
0000
,
0010
1000
0001
1000
0000
1001
0000
1000
,
0100
0010
0001
0010
0100
0000
0110
0000
,
0100
0000
1000
0000
0001
0000
0100
0000
0001
0000
0000
0001
0000
0000
0001
0000
,
1000
0010
0100
0001
0010
0100
1000
0001
,
0100
0001
1000
0001
0000
1001
0000
0001
,
0010
0100
1000
0100
0010
0000
0110
0000
,
0010
0000
0001
0000
1000
0000
0010
0000
1000
0000
0000
1000
0000
0000
1000
0000
,
0001
0100
0010
1000
0001
0010
0100
0000
,
0220
0000
0330
0000
,
0100
1000
0001
1000
0100
0000
0010
0000
,
0001
0100
0010
0000
0010
0100
0001
0000
,
1000
0000
0010
0000
0100
0000
0001
0000
0100
0000
0000
0100
0000
0000
0100
0000
,
0001
0000
0100
0000
0010
0000
1000
0000
0010
0000
0000
0010
0000
0000
0000
0000
,
0100
0001
1000
0001
0100
0000
0010
0000
,
1000
0100
0010
0000
0010
0100
1000
0000
,
0001
0000
0010
0000
0100
0000
1000
0000
0100
0000
0000
0100
0000
0000
0100
0000
,
1000
0000
0100
0000
0010
0000
0001
0000
0010
0000
0000
0010
0000
0000
0000
0000
,
0001
1000
0010
1000
0010
0000
0100
0000
,
0001
0100
0000
0100
0001
0000
1001
0000
,
1000
0001
0010
0001
0010
0000
0100
0000
,
1000
0100
0000
0100
1000
0000
1001
0000
,
0001
0101
1000
1100
,
0001
1000
0000
1000
0001
0000
0100
0000
,
0001
0000
0001
0100
0010
0000
0010
1000
,
0001
0010
0100
1000
0001
0000
1000
0000
,
1000
1100
0001
0101
,
1000
0001
0000
0001
1000
0000
0100
0000
,
1000
0000
1000
0100
0010
0001
1000
0000
,
1010
0000
0010
0100
0000
0100
0001
0000
,
0001
0011
1000
1010
,
1000
0001
0000
0001
1000
0000
0001
0000
,
1000
0000
1000
0010
0100
0000
0100
0001
,
0010
0100
1000
0001
0100
0000
0010
0000
,
1000
1010
0001
0011
,
0001
1000
0000
1000
0001
0000
1000
0000
,
0001
0000
0100
0000
0010
1000
0001
0010
,
0100
1000
0000
1100
0000
1000
0100
0010
,
0001
0000
0000
0000
,
1001
0000
0000
0000
0100
0100
0100
0000
,
1001
0000
0000
0000
,
0000
0000
0000
0000
0000
0000
0000
0000
0010
0000
0000
0010
0000
0000
0100
0000
,
0110
0000
0000
0000
,
1001
0000
0000
0000
0100
0100
0100
0000
,
1000
1000
0001
0001
0000
1001
0000
1000
,
0010
0100
0001
0100
0010
0010
0100
0100
,
0001
0000
0001
0000
1000
0000
1000
0000
0001
0000
0000
0001
0000
0000
0001
0000
,
1000
0010
0100
0001
0010
0100
1000
0000
,
0100
1000
0001
1000
0000
1001
0000
1000
,
0010
0100
0001
0100
0010
0000
0110
0000
,
0100
0000
0001
0000
1000
0000
0010
0000
1000
0000
0000
1000
0000
0000
1000
0000
,
0001
0100
0010
1000
0100
0010
0001
1000
,
0010
1000
0001
1000
0000
1001
0000
1000
,
0100
0010
0001
0010
0100
0000
0110
0000
,
0100
0000
1000
0000
0001
0000
0100
0000
0001
0000
0000
0001
0000
0000
0001
0000
,
1000
0010
0100
0001
1000
0100
0010
0000
,
0100
0000
0000
0000
0000
1000
0100
0010
,
0001
0000
0000
0000
,
1001
0000
0000
0000
0100
0100
0100
0000
,
2002
0000
0000
0000
,
3003
0000
0000
0000
;

//---------------dance-single - ----------------
#NOTEDATA:;
#CHARTNAME:;
#STEPSTYPE:dance-single;
#DESCRIPTION:;
#CHARTSTYLE:;
#DIFFICULTY:Easy;
#METER:4;
#RADARVALUES:0.287,0.319,0.120,0.140,0.000,175.000,12.000,14.000,0.000,0.000,0.000,0.000,0.000,0.287,0.319,0.120,0.140,0.000,175.000,12.000,14.000,0.000,0.000,0.000,0.000,0.000;
#CREDIT:;
#NOTES:
0000
0000
0000
0000
,
0001
0000
0001
0000
,
1000
0000
1000
0000
,
0001
0000
1000
0000
,
2002
0000
3003
0000
,
1000
0100
0000
0100
,
1000
0001
0010
0100
,
1000
1000
0001
0001
,
0020
0000
0230
0000
,
0310
0100
0000
0100
,
0010
0001
1000
0001
,
0100
0100
0010
0010
,
2000
0000
3002
0000
,
1003
0000
0000
0000
,
1000
0100
0010
0001
,
1000
0000
0001
0000
,
1000
0100
0010
0010
,
0001
0100
0010
0010
,
1000
0010
0100
0001
,
1000
0000
0001
0000
,
0001
0100
0010
0010
,
1000
0100
0010
0010
,
0100
1000
0001
1000
,
0100
0010
0001
0000
,
0100
0001
1000
0001
,
0100
0010
1000
0000
,
0110
0000
1001
0000
,
0010
0010
0010
0000
,
1000
0010
0100
0001
,
0010
0010
0100
0000
,
0110
0000
1001
0000
,
0010
0010
0010
0000
,
0001
0010
0100
1000
,
0010
0010
0100
0000
,
0110
0000
1001
0000
,
0100
0100
0100
0000
,
0010
1000
0001
0010
,
0100
0100
1000
0000
,
0110
0000
1001
0000
,
0100
0100
0100
0000
,
0010
0001
1000
0010
,
0100
0100
0001
0000
,
1000
0000
0000
0000
,
0001
0000
0000
0000
,
1001
0000
0000
0000
,
0000
0000
0000
0000
,
1001
0000
0000
0000
,
0100
0000
0000
0000
,
1000
1000
1000
0000
0000
0000
1000
0000
,
0100
0000
0010
0000
0001
0001
0001
0001
,
0001
0001
1000
1000
,
0020
0000
0230
0000
,
0301
0100
0000
0100
,
0001
1000
0100
1000
,
0010
0010
0100
0100
,
0002
0000
2003
0000
,
3100
1000
0000
1000
,
0100
0010
0001
0010
,
0001
0001
1000
1000
,
0020
0000
0230
0000
,
0310
0000
0000
0000
,
1000
0000
0000
0000
,
0001
0000
0000
0000
,
2002
0000
0000
0000
,
3003
0000
0000
0000
;
