#TITLE:海神;
#SUBTITLE:;
#ARTIST:兎々;
#TITLETRANSLIT:Wadatsumi;
#SUBTITLETRANSLIT:;
#ARTISTTRANSLIT:Toto;
#GENRE:;
#CREDIT:Silverhawke;
#MENUCOLOR:;
#METERTYPE:DDR;
#BANNER:Wadatsumi.png;
#BACKGROUND:Wadatsumi-bg.png;
#LYRICSPATH:;
#CDTITLE:cdtitle.png;
#MUSIC:Wadatsumi.mp3;
#OFFSET:-0.028;
#SAMPLESTART:72.104;
#SAMPLELENGTH:15.000;
#SELECTABLE:YES;
#LISTSORT:;
#BPMS:0.000=159.000;
#STOPS:;
#BGCHANGES:;
#ATTACKS:;

//---------------dance-single - ----------------
#NOTES:
     dance-single:
     :
     Hard:
     10:
     0.695,0.831,0.115,0.231,0.704: // measure 1
0000
0000
0000
0000
,  // measure 2
0000
0000
0000
0000
,  // measure 3
0000
0000
0000
0000
,  // measure 4
0000
0000
0000
0000
,  // measure 5
0000
0000
0000
0000
,  // measure 6
0000
0000
0000
0000
,  // measure 7
0000
0000
0000
0000
,  // measure 8
0000
0000
0000
0000
,  // measure 9
0000
0000
0000
0000
,  // measure 10
0202
0000
0000
0300
,  // measure 11
0020
0000
0003
0130
,  // measure 12
2200
0000
0000
0300
,  // measure 13
0002
0000
0000
0000
0000
0000
0000
0000
0000
0000
3000
0000
0000
0000
0103
0010
,  // measure 14
0200
0000
0001
0000
,  // measure 15
1000
0000
0301
0010
,  // measure 16
0210
1300
0210
0301
,  // measure 17
0010
0000
0100
0000
1000
0000
0100
0000
0001
0000
0100
0000
1000
0001
1000
0001
,  // measure 18
0000
0000
0000
0000
0000
0000
0000
0000
0100
0000
0000
0010
1000
0000
0001
0000
,  // measure 19
0010
0100
1000
0001
0100
0010
0100
0000
,  // measure 20
0001
0000
1000
0100
1000
0000
0001
0000
0100
0000
0010
0000
1000
0000
0000
0000
,  // measure 21
0001
0100
0010
0100
0001
0010
0100
0000
,  // measure 22
1000
0000
0010
0000
0100
0000
0001
1000
0001
0000
0010
0000
0100
0000
1000
0000
,  // measure 23
0010
0100
0001
1000
0100
0010
0100
0000
,  // measure 24
1000
0000
0001
0100
0001
0000
1000
0000
0100
0000
0010
0000
0001
0000
0000
0000
,  // measure 25
1000
0100
0010
0100
1000
0010
0100
0001
,  // measure 26
0021
0000
0000
0130
,  // measure 27
1000
0000
0001
0000
0100
0000
0010
1000
0010
0000
0100
0000
0001
0000
0000
0000
,  // measure 28
1000
0000
0100
0010
0100
0000
1000
0001
1000
0001
0010
0000
0100
0000
0000
0000
,  // measure 29
1000
0000
0010
0000
0100
0000
0001
1000
0001
0000
0010
0000
1000
0000
0000
0000
,  // measure 30
0010
0000
0100
1000
0100
0000
1000
0001
1000
0001
0100
0000
0010
0000
1000
0000
,  // measure 31
1100
0000
0010
0000
0001
0000
0100
0010
0100
0000
0001
0000
1000
0000
0000
0000
,  // measure 32
0101
0000
0010
1000
0010
0000
1000
0100
1000
0100
0010
0000
0001
0000
1000
0000
,  // measure 33
1010
0100
0001
0010
0011
0100
1000
0001
,  // measure 34
0100
0000
1000
0000
0100
0000
0001
0000
0100
0000
0010
1000
0001
0000
0010
0000
,  // measure 35
0200
0000
0000
0000
0300
0000
1000
0001
,  // measure 36
0200
0000
0000
0000
0300
0000
0010
1000
,  // measure 37
0200
0000
0310
0001
,  // measure 38
1001
0000
0000
0000
0000
0000
1000
0001
0100
0000
0000
0000
0000
0000
0000
0000
,  // measure 39
0010
0000
1000
0100
1000
0000
0001
0100
0001
0000
1000
0000
0010
0000
0100
0000
,  // measure 40
0001
0000
0010
0100
0010
0000
0001
1000
0001
0000
0100
0000
0010
0000
1000
0000
,  // measure 41
0100
0000
0010
0000
0001
0000
0100
0000
0010
0000
0000
0000
1000
0100
0010
0001
,  // measure 42
1000
0000
0010
0000
0100
0000
0010
0000
1000
0000
0000
0000
0000
0000
0001
0010
,  // measure 43
0100
0000
0010
0001
0010
0000
0001
0000
1000
0000
0010
0000
0100
0000
0001
0000
,  // measure 44
0010
0000
0100
1000
0100
0000
1000
0010
1000
0000
0010
0000
0100
0000
0001
0000
,  // measure 45
1000
0100
1000
0001
0100
0001
1000
0010
1000
0001
0010
0001
,  // measure 46
1000
0100
0100
0001
0010
0100
1000
0010
0010
0001
0100
0010
,  // measure 47
1010
0000
0101
1100
,  // measure 48
1001
0000
0000
0000
0010
0000
0000
0000
0110
0000
0000
0000
0001
0100
0010
1000
,  // measure 49
0002
0000
0000
0000
0013
0000
0001
0100
0001
0000
0010
0000
1000
0000
0010
0000
,  // measure 50
0200
0000
0000
0000
0310
0000
0001
0000
1000
0010
1000
0010
0100
0001
0100
0001
,  // measure 51
1000
0000
0000
0100
0010
0000
0000
0010
0001
0000
0100
0000
1000
0000
0100
0000
,  // measure 52
0020
0000
0000
0000
2030
0000
0000
0000
3001
0010
0001
0010
0100
1000
0100
1000
,  // measure 53
0002
0000
0000
0000
0013
0000
0100
0000
1000
0000
0010
0100
0010
0000
1000
0000
,  // measure 54
0002
0000
0000
0000
0013
0000
0100
0000
0010
0000
0001
1000
0001
0000
0100
0000
,  // measure 55
0020
0000
0000
0000
1030
0100
0010
0100
2000
0000
0000
0000
3001
0100
0010
0100
,  // measure 56
0001
0000
0010
0000
1000
0000
0010
0000
0001
0000
0000
0000
1000
0100
0010
0001
,  // measure 57
2000
0000
0000
0000
3010
0000
1000
0100
1000
0000
0010
0000
0001
0000
0010
0000
,  // measure 58
0200
0000
0000
0000
0310
0000
1000
0000
0001
0010
0100
0010
0001
1000
0100
1000
,  // measure 59
0001
0000
0000
0001
0100
0000
0010
0000
1000
0000
0100
0000
0001
0000
0100
0000
,  // measure 60
0020
0000
0000
0000
0032
0000
0000
0000
1003
0010
0100
0010
1000
0001
0100
0001
,  // measure 61
2000
0000
0000
0000
3010
0000
0100
0000
0001
0000
0010
0100
0010
0000
0001
0000
,  // measure 62
1000
0000
0000
1000
0010
0000
0100
0000
0010
0000
1000
0001
1000
0000
0100
0000
,  // measure 63
0020
0000
0000
0000
0031
0100
0010
0100
0002
0000
0000
0000
1003
0100
0010
0100
,  // measure 64
1000
0000
0000
0010
0001
0000
0010
0000
2000
0000
0000
0000
3001
0000
0010
0000
,  // measure 65
0100
1000
0000
0001
0000
0000
0100
0001
0000
1000
0100
1000
0000
0001
0000
0100
,  // measure 66
0010
0000
1000
0000
0001
0010
0100
1000
0000
0001
0100
0001
0000
1000
0000
0010
,  // measure 67
0100
0010
0000
1000
0000
0000
0001
0010
0000
0100
1000
0100
0000
0010
0000
0001
,  // measure 68
0100
0000
0010
0000
1000
0100
0010
0001
0000
0100
0010
1000
0010
0100
0001
1000
,  // measure 69
0001
0100
0000
0010
0000
0000
1000
0100
0000
0010
0001
0010
0000
0100
0000
1000
,  // measure 70
0010
0000
0100
0000
0001
0010
0100
1000
0000
0010
0100
0010
0000
1000
0000
0100
,  // measure 71
0010
0100
0000
1000
0000
0000
0010
0100
0000
0001
1000
0001
0000
0010
0000
0100
,  // measure 72
1000
0000
0010
0000
0100
0001
1000
0010
0000
1000
0100
0010
0100
1000
0001
0010
,  // measure 73
0001
0000
1000
0000
0100
0010
0100
0010
0000
0001
0100
0001
0000
1000
0000
0001
,  // measure 74
0100
0000
0010
0000
1000
0100
1000
0100
0000
0010
0001
0010
0000
0001
0000
0100
,  // measure 75
0010
0000
1000
0000
0100
0010
0100
0010
0000
0100
1000
0100
0000
0010
0000
0001
,  // measure 76
0100
0000
0010
0000
0100
0001
0100
0001
0000
1000
0100
0010
0001
0010
0100
1000
,  // measure 77
0001
0000
0100
0000
0010
1000
0010
0100
0000
0001
0010
0001
0000
0100
0000
0010
,  // measure 78
1000
0000
0100
0000
0010
0001
1000
0001
0000
0100
0010
0100
0000
0010
0000
1000
,  // measure 79
0001
0010
1000
0010
0001
0100
1000
0100
,  // measure 80
0001
0010
0001
0010
0100
1000
0100
1000
0001
0100
0010
1000
0001
0100
0010
1000
,  // measure 81
0000
0000
0000
0000
0000
0000
0001
0100
2000
0000
0000
0000
0000
0000
0000
0000
,  // measure 82
0000
0000
0000
0000
,  // measure 83
0000
0000
0000
0000
,  // measure 84
3000
0000
0000
0000
;

//---------------dance-single - ----------------
#NOTES:
     dance-single:
     :
     Medium:
     8:
     0.428,0.543,0.085,0.046,0.104:
0000
0000
0000
0000
,
0000
0000
0000
0000
,
0000
0000
0000
0000
,
0000
0000
0000
0000
,
0000
0000
0000
0000
,
0000
0000
0000
0000
,
0000
0000
0000
0000
,
0000
0000
0000
0000
,
0000
0000
0000
0000
,
2100
0000
0000
0000
,
3002
0000
0000
0103
,
0120
0000
0000
0000
,
2030
0000
0000
0000
0000
0000
3000
0001
,
0020
0000
0100
0000
,
0100
0000
0100
0130
,
1000
0010
0001
0100
,
1000
0100
0010
0000
0001
0100
0010
1000
,
0000
0000
0001
1001
,
1000
0000
0100
0000
0010
0100
1000
0000
,
0010
0100
0010
0000
1000
0001
1000
0000
,
0001
0000
0010
0000
0100
0010
0001
0000
,
1000
0001
1000
0000
0010
0100
0010
0000
,
1000
0000
0010
0000
0100
0010
1000
0000
,
0001
0100
0001
0000
1000
0100
1000
0000
,
0001
0000
0010
0000
0100
0010
0001
0000
,
1000
0100
0001
0100
1000
0100
0010
0000
,
0001
0000
0100
0000
1000
0100
0001
0000
,
1000
0100
1000
0000
0001
0100
0001
0000
,
1000
0000
0100
0000
0001
0100
1000
0000
,
0001
0100
0001
0000
1000
0100
1000
0000
,
0001
0000
0010
0000
1000
0010
0001
0000
,
1000
0010
1000
0000
0001
0010
0001
0000
,
1000
0000
0010
0000
0001
0010
1000
0000
,
0001
0010
0001
0000
1000
0010
1000
0000
,
0100
0000
0010
0100
1000
0000
0000
0000
,
0010
0000
0100
0001
1000
0000
0000
0000
,
0100
0000
0010
0100
1000
0000
0000
0000
,
0001
0000
0100
0010
1000
0000
0000
0000
,
0001
0100
0010
0000
1000
0000
1001
0000
,
0001
0100
1000
0100
,
0001
1000
0001
0000
1000
0000
0100
0010
,
0001
1000
1001
0000
,
0001
0000
0100
0000
0010
0100
0001
0000
,
0010
0000
0100
0000
1000
0001
0100
0000
,
0010
0000
0010
1000
0000
0000
1000
0000
1000
0001
0000
0000
,
0001
0000
0001
0010
0000
0000
0010
0000
0010
0100
0000
0000
,
1100
0000
0101
1000
,
0001
0000
1001
0000
,
0001
0000
0100
0010
0100
0000
0001
0000
,
1000
0000
0100
0000
0010
0001
0100
0001
,
0010
0000
0100
0000
1000
0010
0100
0000
,
0010
0000
1000
0000
0100
0010
0001
0010
,
0100
0000
1000
0000
0001
1000
0001
0000
,
0100
0000
0010
1000
0100
0000
0010
0000
,
0100
0000
1000
0001
0100
0000
0001
1000
,
0100
0010
1001
0000
,
1000
0000
0100
0010
0100
0000
1000
0000
,
0001
0000
0100
0000
0010
1000
0100
1000
,
0010
0000
0100
0000
0001
0010
0100
0000
,
0010
0000
0001
0000
0100
0010
1000
0010
,
0100
0000
0001
0000
1000
0001
1000
0000
,
0100
0000
0010
0001
0100
0000
0010
0000
,
0100
0000
0001
1000
0100
0000
1000
0001
,
0100
0010
1001
0110
,
1000
0000
0000
0100
0000
0000
1000
0000
0000
0001
0000
0100
0000
0000
0010
0000
,
0100
0000
0001
0000
1000
0000
0000
0100
0000
0000
1000
0000
0000
0000
0001
0000
,
0100
0000
0000
0010
0000
0000
0100
0000
0000
0001
0000
1000
0000
0000
0100
0000
,
0010
0000
0100
0000
1000
0000
0000
0001
0000
0000
0100
0000
0001
0000
1000
0000
,
0001
0000
0000
0100
0000
0000
0010
0000
0000
0100
0000
0001
0000
0000
1000
0000
,
0100
0000
0010
0000
0100
0000
0000
1000
0000
0000
0100
0000
0000
0000
0010
0000
,
0001
0000
0000
1000
0000
0000
0001
0000
0000
0100
0000
0010
0000
0000
1000
0000
,
0100
0000
0010
0000
0001
0000
0000
0100
0000
0000
0001
0000
0010
0000
0100
0000
,
1000
0000
0100
0000
0010
0000
0100
0000
1000
0000
0100
0000
0010
0000
0000
0010
,
0001
0000
0100
0000
0010
0000
0100
0000
0001
0000
1000
0000
0100
0000
0000
0100
,
0010
0000
0001
0000
0100
0000
0001
0000
0010
0000
0100
0000
1000
0000
0000
1000
,
0010
0000
0100
0000
0001
0000
0100
0000
0010
0000
1000
0000
0001
0000
0000
0001
,
0010
0000
0100
0000
0001
0000
0100
0000
0010
0000
0001
0000
1000
0000
0000
1000
,
0010
0000
0100
0000
1000
0000
0100
0000
0010
0000
1000
0000
0001
0000
0000
0001
,
1000
0100
0001
0000
1000
0100
0001
0000
,
1000
0100
0001
0100
1000
0100
0010
0001
,
0000
0000
0000
0000
0000
0000
1000
0001
2000
0000
0000
0000
0000
0000
0000
0000
,
0000
0000
0000
0000
,
0000
0000
0000
0000
,
3000
0000
0000
0000
;

//---------------dance-single - ----------------
#NOTES:
     dance-single:
     :
     Easy:
     4:
     0.224,0.288,0.038,0.085,0.000:
0000
0000
0000
0000
,
0000
0000
0000
0000
,
0000
0000
0000
0000
,
0000
0000
0000
0000
,
0000
0000
0000
0000
,
0000
0000
0000
0000
,
0000
0000
0000
0000
,
0000
0000
0000
0000
,
0000
0000
0000
0000
,
1001
0000
0000
0000
,
0100
0000
0000
0000
,
0110
0000
0000
0000
,
0001
0000
0000
0000
,
1001
0000
0000
0000
,
0100
0000
0000
0000
,
0110
0000
1000
0000
,
0001
1000
0001
1000
,
0000
0000
0000
0000
,
0001
0010
0100
0000
,
1000
0010
0100
0000
,
0001
0100
0010
0000
,
1000
0100
0010
0000
,
0001
1000
0001
0000
,
1000
0001
1000
0000
,
0010
0100
0001
0000
,
2000
0000
0000
3000
,
0001
0100
0010
0000
,
1000
0100
0010
0000
,
0001
1000
0100
0000
,
1000
0001
0100
0000
,
0010
1000
0100
0000
,
0100
0001
0010
0000
,
0010
1000
0001
0000
,
0100
0001
1000
0100
,
0020
0000
0030
0000
,
0002
0000
0003
0000
,
0200
0000
0300
0000
,
2000
0000
3000
0000
,
0010
0001
0100
0010
,
1000
0000
0001
0000
,
1000
0100
0010
0001
,
1000
0000
0010
0000
,
0100
0001
0100
0010
,
1000
0000
0001
0000
,
0010
0000
0000
0000
,
0100
0000
0000
0000
,
1000
0000
0001
1000
,
0001
0000
1001
0000
,
1000
0100
0010
0001
,
0100
0010
0100
0000
,
0001
0100
0010
1000
,
0100
0010
0100
0000
,
1000
0000
0001
0100
,
0001
0000
1000
0100
,
1000
0000
0001
0000
,
1000
0100
0010
0000
,
0001
0100
0010
1000
,
0100
0010
0001
0000
,
1000
0100
0010
0001
,
0100
0010
1000
0000
,
0001
0000
1000
0100
,
0010
0000
0001
0100
,
0010
0000
1000
0000
,
0001
0010
0100
1000
,
0002
0000
0000
0000
,
1003
0100
0001
0010
,
2000
0000
0000
0000
,
3001
0100
1000
0010
,
0002
0000
0000
0000
,
1003
0010
0001
0100
,
2000
0000
0000
0000
,
3020
0000
0000
0030
,
1000
0100
0010
0001
,
1000
0010
0100
0001
,
1000
0100
0010
0001
,
1000
0000
0001
1000
,
0001
0010
0100
1000
,
0001
0100
0010
1000
,
0001
0010
0100
1000
,
0001
0100
1000
0010
,
0000
0000
0002
0000
,
0000
0000
0000
0000
,
0000
0000
0000
0000
,
0003
0000
0000
0000
;

//---------------dance-single - ----------------
#NOTES:
     dance-single:
     :
     Beginner:
     1:
     0.085,0.124,0.008,0.008,0.000:
0000
0000
0000
0000
,
0000
0000
0000
0000
,
0000
0000
0000
0000
,
0000
0000
0000
0000
,
0000
0000
0000
0000
,
0000
0000
0000
0000
,
0000
0000
0000
0000
,
0000
0000
0000
0000
,
0000
0000
0000
0000
,
1000
0000
0000
0000
,
0000
0000
0000
0000
,
0001
0000
0000
0000
,
0000
0000
0000
0000
,
0100
0000
0000
0000
,
0000
0000
0000
0000
,
0010
0000
0000
0000
,
0010
0000
0000
0000
,
0000
0000
0000
0000
,
1000
0000
0000
0000
,
1000
0000
0000
0000
,
0001
0000
0000
0000
,
0001
0000
0000
0000
,
0100
0000
0000
0000
,
0100
0000
0000
0000
,
0010
0000
0000
0000
,
0020
0000
0030
0000
,
1000
0000
0000
0000
,
1000
0000
0000
0000
,
0100
0000
0000
0000
,
0100
0000
0000
0000
,
0010
0000
0000
0000
,
0010
0000
0000
0000
,
0001
0000
0000
0000
,
0001
0000
0000
0000
,
1000
0000
0000
0000
,
0010
0000
0000
0000
,
0100
0000
0000
0000
,
0001
0000
0000
0000
,
1000
0000
1000
0000
,
1000
0000
0000
0000
,
0001
0000
0001
0000
,
0001
0000
0000
0000
,
0100
0000
0100
0000
,
0100
0000
0000
0000
,
0010
0000
0000
0000
,
0100
0000
0000
0000
,
0010
0000
0000
0000
,
0100
0000
0000
0000
,
0001
0000
0000
0000
,
0001
0000
0000
0000
,
1000
0000
0000
0000
,
1000
0000
0000
0000
,
0100
0000
0000
0000
,
0100
0000
0000
0000
,
0010
0000
0000
0000
,
0010
0000
0000
0000
,
0001
0000
0001
0000
,
0001
0000
0000
0000
,
1000
0000
1000
0000
,
1000
0000
0000
0000
,
0010
0000
0010
0000
,
0010
0000
0000
0000
,
0100
0000
0100
0000
,
0100
0000
0000
0000
,
0001
0000
0000
0000
,
1000
0000
0000
0000
,
0100
0000
0000
0000
,
0010
0000
0000
0000
,
0001
0000
0000
0000
,
0100
0000
0000
0000
,
1000
0000
0000
0000
,
0010
0000
0000
0000
,
0001
0000
0000
0000
,
1000
0000
0000
0000
,
0100
0000
0000
0000
,
0010
0000
0000
0000
,
0001
0000
0000
0000
,
0100
0000
0000
0000
,
0010
0000
0000
0000
,
1000
0000
0000
0000
,
0000
0000
1001
0000
;
