#TITLE:Vampire Killer;
#SUBTITLE:scar-ed Pf rmx;
#ARTIST:fu_mou;
#TITLETRANSLIT:;
#SUBTITLETRANSLIT:;
#ARTISTTRANSLIT:;
#CREDIT:Lisek;
#BANNER:[Mythology] - Vampire Killer (scar-ed Pf rmx).png;
#BACKGROUND:[Mythology] - Vampire Killer (scar-ed Pf rmx)-bg.png;
#LYRICSPATH:;
#CDTITLE:cdtitle.png;
#MUSIC:[Mythology] - Vampire Killer (scar-ed Pf rmx).mp3;
#OFFSET:-1.900;
#SAMPLESTART:16.653;
#SAMPLELENGTH:14.660;
#SELECTABLE:YES;
#BPMS:0.000=130.000;
#STOPS:;
#BGCHANGES:;

//---------------dance-single - Lisek----------------
#NOTES:
     dance-single:
     Lisek:
     Hard:
     9:
     0.580,0.679,0.131,0.365,0.524: // measure 1
0000
0000
0000
0000
,  // measure 2
0000
0000
0000
0000
,  // measure 3
0001
0000
0100
0001
0100
0000
0000
0000
0010
0000
1000
0000
0010
0000
0000
0000
,  // measure 4
1000
0000
0100
1000
0100
0000
0000
0000
0010
0000
0001
0000
0010
0000
0000
0000
,  // measure 5
0001
0000
0000
1000
0010
0000
0000
0000
0100
0000
0001
0000
0010
0000
0000
0000
,  // measure 6
0100
0000
0000
1000
0100
0000
0000
0000
0010
0000
0001
0000
1000
0000
0000
0000
,  // measure 7
0010
0000
0000
0100
0001
0000
0000
0000
0010
0000
0100
0000
1000
0000
0000
0000
,  // measure 8
0001
0000
0000
1000
0001
0000
0000
0000
0100
0000
0000
0000
1001
0000
0000
0000
,  // measure 9
1000
0100
0000
0010
0000
0000
0200
0000
0000
0000
0300
0000
1000
0100
1000
0010
,  // measure 10
1000
0000
0000
0010
0000
0000
0100
0000
0001
0000
0000
0000
0011
0000
0000
0000
,  // measure 11
0001
0100
0000
1000
0000
0000
0200
0000
0000
0000
0300
0000
0010
1000
0010
0100
,  // measure 12
0010
0000
0000
0100
0000
0000
0001
0000
1000
0000
0000
0000
0001
0000
0000
0000
,  // measure 13
1001
0000
0000
0000
0110
0000
0000
0000
1000
0001
0100
0010
0000
0000
0000
0000
,  // measure 14
1000
0000
1000
0100
0000
0000
1000
0000
0001
0000
0100
0000
0010
0000
0000
0000
,  // measure 15
1001
0000
0000
0000
0110
0000
0000
0000
0001
1000
0010
0100
0000
0000
0000
0000
,  // measure 16
0001
0000
0001
0010
0000
0000
0001
0000
1000
0000
0010
0000
0100
0000
0000
0000
,  // measure 17
0002
0000
0000
0203
0000
0000
2300
0000
3200
0000
0000
0302
0000
0000
2003
0000
,  // measure 18
3200
0000
0000
0302
0000
0000
0203
0000
1300
0000
0000
0000
0110
0000
0000
0000
,  // measure 19
2000
0000
0000
3020
0000
0000
0032
0000
0023
0000
0000
2030
0000
0000
3002
0000
,  // measure 20
0023
0000
0000
0000
0000
0000
2030
0000
0000
0000
0000
0000
3020
0000
0000
0000
0031
0000
0000
0000
1000
0001
1000
0000
0001
0000
1000
0000
0001
0000
0000
0000
,  // measure 21
1000
0010
0000
0100
0000
0000
0010
0000
0100
0000
0000
0000
0010
0000
0000
0000
,  // measure 22
0000
0000
0100
0000
0100
0001
0000
0000
0000
0000
0100
0000
0100
1000
0000
0000
,  // measure 23
0100
0001
0000
0100
0000
0000
0010
0000
0100
0000
0000
0000
0010
0000
0000
0000
,  // measure 24
0000
0000
1000
0000
1000
0100
0000
0000
0000
0000
0100
0000
0100
0010
0000
0000
,  // measure 25
0001
0000
0010
0100
0010
0000
0000
0100
1000
0000
0010
0100
0010
0000
0000
0000
,  // measure 26
1000
0000
0100
0010
0100
0000
0000
0010
0001
0000
0100
0010
0200
0000
0000
0000
,  // measure 27
0310
0000
1000
0001
1000
0000
0000
0010
0100
0000
0001
1000
0001
0000
0000
0000
,  // measure 28
0100
0000
0001
1000
0001
0000
0000
0010
0100
0000
1000
0001
1000
0000
0010
0000
,  // measure 29
0100
0000
0000
0000
0101
0000
0000
0000
0001
0010
0100
1000
0000
0000
0000
0000
,  // measure 30
1000
0000
1000
0100
0000
0000
0010
0000
0001
0000
0010
0000
0100
0000
1000
0000
,  // measure 31
0010
0000
0000
0000
1010
0000
0000
0000
1000
0100
0010
0001
0000
0000
0000
0000
,  // measure 32
0001
0000
0001
0010
0000
0000
0000
0000
0000
0100
0010
0001
1000
0100
0010
0001
,  // measure 33
1000
0100
0000
1000
0000
0000
0010
0000
0100
0000
0000
0000
0010
0100
0001
0010
,  // measure 34
0100
0000
0000
1000
0000
0000
0100
0000
0010
0000
0001
0000
0100
0000
0010
0000
,  // measure 35
0100
0001
0000
0010
0000
0000
0001
0000
1000
0000
0000
0000
0100
0010
0001
0100
,  // measure 36
0010
0000
0000
0000
1000
0000
0000
0000
0001
0000
0000
0000
1000
0001
1000
0000
0001
0000
1000
0000
0001
0000
0000
0000
1000
0000
0000
0000
0001
0000
0000
0000
,  // measure 37
1010
0000
0000
0000
0101
0000
0000
0000
1000
0010
0100
0001
0000
0000
0000
0000
,  // measure 38
1000
0000
1000
0100
0000
0000
0010
0000
0001
0000
0100
0000
0001
0000
0000
0000
,  // measure 39
0011
0000
0000
0000
1100
0000
0000
0000
0001
1000
0010
0100
0000
0000
0000
0000
,  // measure 40
0001
0000
0001
0010
0000
0000
0100
0000
1000
0000
0001
0000
0100
0000
0010
0000
,  // measure 41
2000
0000
0000
3020
0000
0000
0032
0000
0023
0000
0000
2030
0000
0000
3002
0000
,  // measure 42
0023
0000
0000
2030
0000
0000
3020
0000
0031
0000
0000
0000
0110
0000
0000
0000
,  // measure 43
0002
0000
0000
0203
0000
0000
2300
0000
3200
0000
0000
0302
0000
0000
2003
0000
,  // measure 44
3200
0000
0000
0000
0000
0000
0302
0000
0000
0000
0000
0000
0203
0000
0000
0000
1300
0000
0000
0000
0001
1000
0001
0000
1000
0000
0001
0000
1000
0000
0000
0000
,  // measure 45
0001
0100
0000
0010
0000
0000
0100
0000
0001
0000
0000
0000
1000
0000
0000
0000
,  // measure 46
0000
0000
0100
0000
0100
0010
0000
0000
0000
0000
0100
0000
0100
1000
0000
0000
,  // measure 47
0001
0100
0000
0001
0000
0000
1000
0000
0010
0000
0000
0000
0100
0000
0000
0000
,  // measure 48
0000
0000
0001
0000
0001
0100
0000
0000
0000
0000
0010
0000
0010
0100
0000
0000
,  // measure 49
0001
0000
1000
0000
0100
0000
0000
0000
1000
0001
0100
0010
0000
0000
0000
0000
,  // measure 50
1000
0000
1000
0010
0000
0000
0100
0000
0001
0000
0001
0010
0000
0000
0100
0000
,  // measure 51
1000
0000
0001
0000
0100
0000
0000
0000
0001
1000
0010
0100
0000
0000
0000
0000
,  // measure 52
0001
0000
0001
0010
0000
0000
0100
0000
1000
0000
0100
1000
0000
0000
0001
0000
,  // measure 53
1000
0000
0100
0000
0010
0000
0000
0000
0001
0010
0100
1000
0000
0000
0000
0000
,  // measure 54
0001
0000
0100
0001
0000
0000
1000
0000
0010
0000
0100
0001
0000
0000
1000
0000
,  // measure 55
0001
0000
0010
0000
0100
0000
0000
0000
1000
0100
0010
0001
0000
0000
0000
0000
,  // measure 56
1000
0000
0010
0100
0000
0000
0010
0000
1000
0000
0001
0010
0000
0000
0100
0000
;

//---------------dance-single - Lisek----------------
#NOTES:
     dance-single:
     Lisek:
     Medium:
     6:
     0.393,0.365,0.318,0.290,0.098:
0000
0000
0000
0000
,
0000
0000
0000
0000
,
1000
0001
0100
0000
0010
0000
0100
0000
,
0001
1000
0010
0000
0200
0000
0300
0000
,
0001
0101
1000
1010
,
0001
0011
1000
1100
,
0010
1010
0100
0101
,
0010
0011
0100
1001
,
1000
0001
0000
0000
2000
0000
0000
0000
3000
0000
0000
0000
0001
0000
0000
0000
,
2000
0001
0010
3001
,
1000
0001
0000
0000
0200
0000
0000
0000
0300
0000
0000
0000
0001
0000
0000
0000
,
0200
0010
0001
0310
,
1001
0000
0110
0000
1000
0001
0100
0000
,
0001
0001
0010
0010
,
0110
0000
1001
0000
0001
1000
0100
0000
,
1000
1000
0100
0100
,
1000
0000
0000
2000
0000
0000
3000
0000
0001
0000
0000
0002
0000
0000
0003
0000
,
0100
0000
0000
0200
0000
0000
0300
0000
0010
0000
0000
0000
1001
0000
0000
0000
,
0001
0000
0000
0002
0000
0000
0003
0000
1000
0000
0000
2000
0000
0000
3000
0000
,
0010
0000
0000
0020
0000
0000
0030
0000
0100
0000
0000
0000
0010
0000
1000
0000
,
1001
0021
0000
0030
,
0001
0000
0000
0001
1000
0000
0000
0000
1000
0000
0000
1000
0001
0000
0000
0000
,
1001
1200
0000
0300
,
1000
0000
0000
1000
0001
0000
0000
0000
0001
0000
0000
0001
1000
0000
0000
0000
,
0001
0010
0100
0000
1000
0000
1000
0000
,
0100
0010
0001
0000
2000
0000
3000
0000
,
1000
0100
0010
0000
0001
0000
0001
0000
,
0010
0100
1000
0000
0001
0000
1000
0000
,
0001
0100
0010
0000
0200
0000
0300
0000
,
0001
0100
0010
0000
1000
0000
0010
0000
,
1000
0001
0010
0000
0200
0000
0300
0000
,
1000
0000
0001
0100
0000
0000
0000
0000
0000
0000
0000
0000
0000
0000
0000
0000
,
0001
1000
0000
0000
0002
0000
0000
0000
0000
0000
0003
0000
1000
0000
0000
0000
,
0002
0010
0100
0013
,
1000
0001
0000
0000
2000
0000
0000
0000
3000
0000
0000
0000
0010
0000
0000
0000
,
2000
0100
0020
3030
,
1001
0000
0110
0000
1000
0001
0100
0000
,
0001
0001
0010
0010
,
0110
0000
1001
0000
0001
1000
0010
0000
,
1000
1000
0100
0100
,
1000
0000
0000
2000
0000
0000
3000
0000
0001
0000
0000
0002
0000
0000
0003
0000
,
0100
0000
0000
0200
0000
0000
0300
0000
0010
0000
0000
0000
1001
0000
0000
0000
,
0001
0000
0000
0002
0000
0000
0003
0000
1000
0000
0000
2000
0000
0000
3000
0000
,
0010
0000
0000
0020
0000
0000
0030
0000
0100
0000
0000
0000
0010
0000
1000
0000
,
1001
2002
0000
3003
,
1000
0001
0100
0000
0001
1000
0100
0000
,
1001
2002
0000
3003
,
0001
1000
0100
0000
1000
0001
0100
0000
,
1010
0000
0101
0000
0001
0010
0100
0000
,
1000
1000
0100
0100
,
0011
0000
1100
0000
1000
0100
0010
0000
,
0001
0001
0100
0100
,
0101
0000
1010
0000
1000
0010
0100
0000
,
0001
0001
1000
1000
,
0011
0000
1100
0000
0100
0010
0001
0000
,
0010
0010
0100
0100
;

//---------------dance-single - Lisek----------------
#NOTES:
     dance-single:
     Lisek:
     Beginner:
     1:
     0.069,0.077,0.000,0.075,0.000:
0000
0000
0000
0000
,
0000
0000
0000
0000
,
0000
0000
0000
0000
,
0000
0000
0000
0000
,
1000
0000
0000
0000
,
0001
0000
0000
0000
,
0100
0000
0000
0000
,
0010
0000
0000
0000
,
2000
0000
0000
0000
,
0000
0000
0000
3000
,
0002
0000
0000
0000
,
0000
0000
0000
0003
,
1000
0000
0000
0000
,
0001
0000
0000
0000
,
1000
0000
0000
0000
,
0001
0000
0000
0000
,
0200
0000
0000
0000
,
0000
0000
0000
0300
,
0020
0000
0000
0000
,
0000
0000
0000
0030
,
1000
0000
0000
0000
,
0001
0000
0000
0000
,
0100
0000
0000
0000
,
0010
0000
0000
0000
,
1000
0000
0000
0000
,
0001
0000
0000
0000
,
0100
0000
0000
0000
,
0001
0000
0000
0000
,
1000
0000
0000
0000
,
0010
0000
0000
0000
,
0100
0000
0000
0000
,
0010
0000
0000
0000
,
2000
0000
0000
0000
,
0000
0000
0000
3000
,
0002
0000
0000
0000
,
0000
0000
0000
0003
,
1000
0000
0000
0000
,
0001
0000
0000
0000
,
0100
0000
0000
0000
,
0001
0000
0000
0000
,
0200
0000
0000
0000
,
0000
0000
0000
0300
,
0020
0000
0000
0000
,
0000
0000
0000
0030
,
1000
0000
0000
0000
,
0001
0000
0000
0000
,
1000
0000
0000
0000
,
0001
0000
0000
0000
,
0100
0000
0000
0000
,
0010
0000
0000
0000
,
1000
0000
0000
0000
,
0001
0000
0000
0000
,
1000
0000
0000
0000
,
0100
0000
0000
0000
,
0010
0000
0000
0000
,
0001
0000
0000
0000
;

//---------------dance-single - Lisek----------------
#NOTES:
     dance-single:
     Lisek:
     Easy:
     3:
     0.183,0.285,0.056,0.224,0.000:
0000
0000
0000
0000
,
0000
0000
0000
0000
,
0000
0000
0000
0000
,
0000
0000
0000
0000
,
1000
0000
0010
0000
,
0100
0000
0001
0000
,
1000
0000
0100
0000
,
0010
0000
0001
0000
,
1000
0001
1000
0000
,
0010
0000
0100
0000
,
0001
1000
0001
0000
,
1000
0000
0001
0000
,
1000
0000
0100
0000
,
0010
0000
0001
0000
,
1000
0000
0010
0000
,
0100
0000
0001
0000
,
2000
3000
0200
0300
,
0020
0030
2002
3003
,
0002
0003
0020
0030
,
0200
0300
2002
3003
,
1000
0000
0010
0000
,
1000
0001
1000
0001
,
1000
0000
0001
0000
,
0100
0010
0100
0010
,
0100
0000
0001
0000
,
1000
0000
0010
0000
,
0100
0000
0001
0000
,
1000
0000
0010
0000
,
1000
0000
0100
0000
,
0010
0000
0001
0000
,
0010
0000
0100
0000
,
1000
0000
0000
0000
,
2002
0000
0000
3003
,
1000
0000
0001
0000
,
2002
0000
0000
3003
,
0001
0000
1000
0000
,
0001
0000
0100
0000
,
0001
0000
1000
0000
,
0010
0000
0100
0000
,
0010
0000
1000
0000
,
0002
0003
0020
0030
,
0200
0300
2002
3003
,
2000
3000
0200
0300
,
0020
0030
2002
3003
,
0001
0000
1000
0000
,
0010
0000
0100
0000
,
0010
0000
1000
0000
,
0001
0000
1000
0000
,
0001
0000
1000
0000
,
0100
0000
0010
0000
,
0001
0000
0010
0000
,
0100
0000
1000
0000
,
0001
0000
0100
0000
,
0010
0000
1000
0000
,
0001
0000
0010
0000
,
0100
0000
1000
0000
;
