#TITLE:Unicorn tail (Dustboxxxx RMX);
#SUBTITLE:;
#ARTIST:Dustboxxxx;
#TITLETRANSLIT:;
#SUBTITLETRANSLIT:;
#ARTISTTRANSLIT:;
#GENRE:;
#CREDIT:;
#BANNER:utdrmx-bn.png;
#BACKGROUND:jkt.jpg;
#LYRICSPATH:;
#CDTITLE:;
#MUSIC:music.ogg;
#OFFSET:-8.979995;
#SAMPLESTART:66.580002;
#SAMPLELENGTH:19.199997;
#SELECTABLE:YES;
#BPMS:0.000000=200.000000
,112.000000=100.000000
,120.000000=200.000000
;
#STOPS:
;
#BGCHANGES:
;
#FGCHANGES:,
;
#KEYSOUNDS:;
#ATTACKS:;

//---------------dance-single - ----------------
#NOTES:
     dance-single:
     :
     Beginner:
     2:
     0.145061,0.220855,0.059233,0.050771,0.000000,107.000000,7.000000,6.000000,0.000000,0.000000,0.000000,0.145061,0.220855,0.059233,0.050771,0.000000,107.000000,7.000000,6.000000,0.000000,0.000000,0.000000:
// measure 0
1000
0000
1000
0000
,  // measure 1
0001
0000
0001
0000
,  // measure 2
0100
0000
0010
0000
,  // measure 3
2002
0000
0000
3003
,  // measure 4
1000
0000
1000
0000
,  // measure 5
1000
0000
0000
0000
,  // measure 6
0001
0000
0001
0000
,  // measure 7
0001
0000
0000
0000
,  // measure 8
0100
0000
0100
0000
,  // measure 9
0100
0000
0000
0000
,  // measure 10
0010
0000
0010
0000
,  // measure 11
0010
0000
0000
0000
,  // measure 12
0100
0000
0001
0000
,  // measure 13
0100
0000
0000
0000
,  // measure 14
0010
0000
1000
0000
,  // measure 15
0010
0000
0000
0000
,  // measure 16
1000
0000
0100
0000
,  // measure 17
1000
0000
0000
0000
,  // measure 18
0001
0000
0010
0000
,  // measure 19
0001
0000
0000
0000
,  // measure 20
1001
0000
0000
0000
,  // measure 21
0100
0000
0000
0000
,  // measure 22
0010
0000
0000
0000
,  // measure 23
1000
0000
0000
0000
,  // measure 24
0001
0000
0000
0000
,  // measure 25
0010
0000
0000
0000
,  // measure 26
0100
0000
0000
0000
,  // measure 27
1000
0000
0000
0000
,  // measure 28
2002
0000
0000
0000
,  // measure 29
3003
0000
0000
0000
,  // measure 30
1001
0000
0000
0000
,  // measure 31
0100
0000
0000
0000
,  // measure 32
0010
0000
0000
0000
,  // measure 33
0001
0000
0000
0000
,  // measure 34
0100
0000
0000
0000
,  // measure 35
0010
0000
0000
0000
,  // measure 36
1000
0000
0000
0000
,  // measure 37
0001
0000
0000
0000
,  // measure 38
0010
0000
0000
0000
,  // measure 39
0010
0000
0000
0000
,  // measure 40
0100
0000
0000
0000
,  // measure 41
0100
0000
0000
0000
,  // measure 42
1000
0000
0000
0000
,  // measure 43
1000
0000
0000
0000
,  // measure 44
0001
0000
0000
0000
,  // measure 45
0001
0000
0000
0000
,  // measure 46
1001
0000
0100
0000
,  // measure 47
0001
0000
0000
0000
,  // measure 48
1000
0000
0010
0000
,  // measure 49
0001
0000
0000
0000
,  // measure 50
1000
0000
0100
0000
,  // measure 51
0010
0000
0000
0000
,  // measure 52
1000
0000
0001
0000
,  // measure 53
0010
0000
0000
0000
,  // measure 54
0100
0000
1000
0000
,  // measure 55
0001
0000
0000
0000
,  // measure 56
0100
0000
0010
0000
,  // measure 57
0001
0000
0000
0000
,  // measure 58
1000
0000
0100
0000
,  // measure 59
0010
0000
0000
0000
,  // measure 60
1000
0000
0001
0000
,  // measure 61
0010
0000
0000
0000
,  // measure 62
0110
0000
0000
0000
,  // measure 63
0100
0000
0000
0000
,  // measure 64
1000
0000
0000
0000
,  // measure 65
0001
0000
0000
0000
,  // measure 66
0100
0000
0000
0000
,  // measure 67
0010
0000
0000
0000
,  // measure 68
2000
0000
0000
0000
,  // measure 69
3000
0000
0000
0000
,  // measure 70
0001
0000
1000
0000
,  // measure 71
0001
0000
0000
0000
,  // measure 72
0010
0000
0100
0000
,  // measure 73
0010
0000
0000
0000
,  // measure 74
0100
0000
1000
0000
,  // measure 75
0100
0000
0000
0000
,  // measure 76
1000
0000
0001
0000
,  // measure 77
1000
0000
0000
0000
,  // measure 78
1001
0000
0000
0000
,  // measure 79
0100
0000
0000
0000
,  // measure 80
0010
0000
0000
0000
,  // measure 81
0001
0000
0000
0000
,  // measure 82
0100
0000
0000
0000
,  // measure 83
0010
0000
0000
0000
,  // measure 84
1000
0000
0000
0000
,  // measure 85
0002
0000
0000
0000
,  // measure 86
0000
0000
0000
0000
,  // measure 87
0003
0000
0000
0000
;

//---------------dance-single - ----------------
#NOTES:
     dance-single:
     :
     Easy:
     5:
     0.315507,0.331283,0.059233,0.346937,0.000000,213.000000,7.000000,41.000000,0.000000,0.000000,0.000000,0.315507,0.331283,0.059233,0.346937,0.000000,213.000000,7.000000,41.000000,0.000000,0.000000,0.000000:
// measure 0
1000
0000
1000
0000
,  // measure 1
0001
0000
0001
0000
,  // measure 2
0100
0000
0010
0000
,  // measure 3
0220
0000
0330
0000
,  // measure 4
0010
0100
0010
0100
,  // measure 5
0001
0100
0001
0100
,  // measure 6
0010
1000
0010
1000
,  // measure 7
0002
0000
0000
0000
,  // measure 8
1003
0100
1000
0100
,  // measure 9
0010
0001
0010
0001
,  // measure 10
0100
0010
0100
0010
,  // measure 11
2002
0000
3003
0000
,  // measure 12
0100
0000
0010
0000
,  // measure 13
0100
1000
0001
0100
,  // measure 14
0010
0000
0100
0000
,  // measure 15
0001
1000
0100
0000
,  // measure 16
0010
0000
0001
0000
,  // measure 17
1000
0010
0100
0001
,  // measure 18
0010
0000
0001
0000
,  // measure 19
1000
0010
0100
0000
,  // measure 20
0002
0000
0000
0000
,  // measure 21
2003
0000
0000
0000
,  // measure 22
3200
0000
0000
0000
,  // measure 23
0320
0000
0000
0000
,  // measure 24
0032
0000
0103
0000
,  // measure 25
0020
0000
1030
0000
,  // measure 26
0200
0000
0320
0000
,  // measure 27
0032
0000
1003
0000
,  // measure 28
2002
0000
0000
0000
,  // measure 29
0000
0000
0000
0000
3003
0000
0000
0110
,  // measure 30
0002
0000
0000
0000
,  // measure 31
0203
0000
0000
0000
,  // measure 32
0320
0000
0000
0000
,  // measure 33
2030
0000
0000
0000
,  // measure 34
3002
0000
0000
0000
,  // measure 35
0023
0000
0000
0000
,  // measure 36
0230
0000
0000
0000
,  // measure 37
2300
0000
0000
0000
,  // measure 38
3001
0000
1000
0000
,  // measure 39
0001
0000
1000
0000
,  // measure 40
0010
0000
0100
0000
,  // measure 41
0010
0000
0100
0000
,  // measure 42
0001
0100
0001
0100
,  // measure 43
0010
1000
0010
1000
,  // measure 44
0001
0010
0100
1000
,  // measure 45
0020
0000
0000
0130
,  // measure 46
0100
0001
0100
0001
,  // measure 47
0100
0010
0100
0010
,  // measure 48
1000
0100
0001
0100
,  // measure 49
1000
0010
0100
0001
,  // measure 50
1000
0100
1000
0100
,  // measure 51
0010
0100
0010
0100
,  // measure 52
1000
0010
0100
0001
,  // measure 53
2000
0000
0000
0000
,  // measure 54
3001
0010
0100
0010
,  // measure 55
0001
0100
0010
0100
,  // measure 56
0001
0010
1000
0010
,  // measure 57
0001
0100
1000
0100
,  // measure 58
0010
1000
0100
1000
,  // measure 59
0010
0100
1000
0100
,  // measure 60
0002
0000
0023
0000
,  // measure 61
0130
1000
0001
0000
,  // measure 62
2001
0000
0000
0000
,  // measure 63
3020
0000
0000
0000
,  // measure 64
0032
0000
0000
0000
,  // measure 65
2003
0000
0000
0000
,  // measure 66
3200
0000
0301
0000
,  // measure 67
2000
0000
3100
0000
,  // measure 68
0220
0000
0000
0330
,  // measure 69
0100
0010
0100
0110
,  // measure 70
1000
0100
0010
0001
,  // measure 71
1000
0010
0100
0001
,  // measure 72
1000
0100
0001
0100
,  // measure 73
1000
0010
0100
0001
,  // measure 74
1000
0100
0010
0100
,  // measure 75
1000
0010
0100
0001
,  // measure 76
0010
1000
0010
0001
,  // measure 77
0100
0010
1000
0001
,  // measure 78
0020
0000
0000
0000
,  // measure 79
0230
0000
0000
0000
,  // measure 80
2300
0000
0000
0000
,  // measure 81
3002
0000
0000
0000
,  // measure 82
0103
0000
0010
0000
,  // measure 83
1000
0000
0001
0000
,  // measure 84
0010
0000
0100
0000
,  // measure 85
2000
0000
0000
0000
,  // measure 86
0000
0000
0000
0000
,  // measure 87
3000
0000
0000
0000
;

//---------------dance-single - ----------------
#NOTES:
     dance-single:
     :
     Medium:
     7:
     0.391664,0.441710,0.050771,0.253857,0.004231,288.000000,6.000000,30.000000,0.000000,0.000000,0.000000,0.391664,0.441710,0.050771,0.253857,0.004231,288.000000,6.000000,30.000000,0.000000,0.000000,0.000000:
// measure 0
1000
0100
0001
0100
,  // measure 1
0010
0001
1000
0010
,  // measure 2
0100
0000
0001
0000
0010
0100
0010
0000
,  // measure 3
2002
0000
3003
0000
,  // measure 4
0001
0100
0010
1000
,  // measure 5
0001
0000
0010
0000
0001
0100
0010
0000
,  // measure 6
0100
0001
1000
0100
,  // measure 7
0020
0000
0000
0000
,  // measure 8
0130
1000
0010
0100
,  // measure 9
0001
0000
1000
0000
0010
0100
0001
0000
,  // measure 10
1000
0100
0010
0001
,  // measure 11
2000
0000
0001
0000
,  // measure 12
3001
0100
0010
0100
,  // measure 13
0001
0000
1000
0000
0100
0010
0100
0000
,  // measure 14
1000
0010
0100
0001
,  // measure 15
0020
0000
0100
0000
,  // measure 16
0031
0100
0010
1000
,  // measure 17
0100
0000
0010
0000
0100
1000
0010
0000
,  // measure 18
0100
0001
1000
0100
,  // measure 19
0010
0000
0001
0000
,  // measure 20
2000
0000
0001
0000
,  // measure 21
3002
0000
0100
0000
,  // measure 22
0203
0000
0010
0000
,  // measure 23
0320
0000
1000
0000
,  // measure 24
0130
0001
0100
0010
,  // measure 25
1000
0001
1000
0100
,  // measure 26
0020
0000
0032
0000
,  // measure 27
1003
0010
0100
0001
,  // measure 28
2002
0000
0000
0000
0000
0000
0000
3003
,  // measure 29
0200
0000
0000
0000
0000
0000
0300
0110
,  // measure 30
0002
0000
0000
0000
,  // measure 31
0203
0000
0000
0000
,  // measure 32
0320
0000
0000
0000
,  // measure 33
2030
0000
0000
0000
,  // measure 34
3200
0000
0310
0000
,  // measure 35
0002
0000
1003
0000
,  // measure 36
0020
0000
0130
0000
,  // measure 37
0002
0000
1003
0000
,  // measure 38
0100
0000
0010
0000
0100
1000
0100
0000
,  // measure 39
1000
0010
0100
0100
,  // measure 40
0001
0000
0010
0000
0100
0010
0100
0000
,  // measure 41
1000
0010
1000
0001
,  // measure 42
0010
0000
0100
0000
0010
0001
0010
0000
,  // measure 43
0001
0100
0010
1000
,  // measure 44
0001
0000
1000
0000
0100
0000
0010
0100
,  // measure 45
0020
0000
0000
0130
,  // measure 46
0100
0000
0010
0000
0100
0000
1000
0100
,  // measure 47
0000
0010
0000
0001
0000
0100
0010
0000
,  // measure 48
0100
0000
0001
0000
1000
0000
0100
0010
,  // measure 49
0000
0100
0000
1000
0000
0001
0100
0000
,  // measure 50
0010
0000
1000
0000
0010
0000
0100
0001
,  // measure 51
0000
1000
0000
0100
0000
0010
0000
0001
,  // measure 52
0010
0000
0100
0000
1000
0000
0001
0100
,  // measure 53
0000
0110
0000
1001
0000
0100
0010
0001
,  // measure 54
1000
0000
0010
0000
0100
0000
0001
0100
,  // measure 55
0000
0010
0000
1000
0000
0100
1000
0000
,  // measure 56
0001
0000
0100
0000
0010
0000
0100
0001
,  // measure 57
0000
1000
0000
0100
0000
0010
0000
0001
,  // measure 58
1000
0000
0010
0000
0100
0000
0001
0010
,  // measure 59
0000
0100
0000
1000
0000
0001
0000
0100
,  // measure 60
0010
0000
1000
0000
0100
0000
0010
0001
,  // measure 61
1000
1000
0010
0000
0100
0000
0001
0000
,  // measure 62
2000
0000
0000
0000
,  // measure 63
3200
0000
0000
0000
,  // measure 64
0320
0000
0000
0000
,  // measure 65
0032
0000
0000
0000
,  // measure 66
0103
0100
0010
0010
,  // measure 67
1000
1000
0001
0001
,  // measure 68
2002
0000
0000
3003
,  // measure 69
0001
0000
0100
0010
0000
0010
0100
0000
,  // measure 70
0001
0000
0010
0000
0100
0000
1000
0010
,  // measure 71
0000
0100
0000
0001
0000
0010
0100
0000
,  // measure 72
1000
0000
0001
0000
0100
0000
0010
1000
,  // measure 73
0000
0010
0100
0000
0001
0000
0010
0000
,  // measure 74
0100
1000
0001
0100
,  // measure 75
0010
0000
1000
0100
0000
0010
0000
0001
,  // measure 76
0100
0000
0010
0000
1000
0000
0001
0010
,  // measure 77
0000
0000
0100
0000
1000
0000
0000
0000
0001
0000
0000
0100
0000
0000
0010
0000
,  // measure 78
1000
0000
0100
0000
,  // measure 79
0010
0000
0001
0000
,  // measure 80
0100
0000
0010
0000
,  // measure 81
1000
0000
0001
0000
,  // measure 82
0010
0000
0100
0000
,  // measure 83
1000
0000
0010
0000
,  // measure 84
0100
0000
0001
0000
,  // measure 85
0020
0000
0000
0000
,  // measure 86
0000
0000
0000
0000
,  // measure 87
0030
0000
0000
0000
;

//---------------dance-single - ----------------
#NOTES:
     dance-single:
     :
     Hard:
     9:
     0.600794,0.660662,0.194623,0.245395,0.063464,445.000000,23.000000,29.000000,0.000000,0.000000,0.000000,0.600794,0.660662,0.194623,0.245395,0.063464,445.000000,23.000000,29.000000,0.000000,0.000000,0.000000:
// measure 0
1000
0010
0100
0001
,  // measure 1
0010
0001
0100
0010
,  // measure 2
1000
0000
0100
0000
0010
0010
0100
0000
,  // measure 3
2001
0000
0001
0000
,  // measure 4
3001
0000
0100
0000
0010
1000
0100
0000
,  // measure 5
1000
0000
0010
0000
0100
0001
0010
0000
,  // measure 6
0100
0000
1000
0000
0001
1000
0100
0000
,  // measure 7
0020
0000
0000
0000
0000
0000
0000
0000
0001
0000
0000
1000
0000
0000
0001
0000
,  // measure 8
0130
0000
1000
0000
0001
0100
0001
0000
,  // measure 9
0010
0000
0100
0000
1000
0001
0100
0000
,  // measure 10
1000
0000
0100
0000
0010
1000
0001
0000
,  // measure 11
2002
0003
0002
0003
,  // measure 12
3001
0000
0100
0000
0010
1000
0100
0000
,  // measure 13
0010
0000
0100
0000
1000
0001
1000
0100
,  // measure 14
0010
0000
0001
0000
0100
0010
0100
0000
,  // measure 15
0002
0000
0000
0000
0000
0000
0000
0000
0010
0000
0000
1000
0000
0000
0100
0000
,  // measure 16
1003
0000
0100
0000
0010
0100
1000
0000
,  // measure 17
0010
0000
0100
0000
0001
0100
0010
0000
,  // measure 18
1000
0000
0100
0000
0010
0100
1000
0000
,  // measure 19
2002
0000
0000
3003
,  // measure 20
1000
1000
0100
0001
0100
0010
0001
1000
,  // measure 21
0010
0100
0001
0001
0100
0010
1000
0100
,  // measure 22
0010
0010
0100
1000
0001
0100
0010
1000
,  // measure 23
0100
0000
0100
0000
1000
0000
0010
0000
0110
0000
0000
0101
0000
0000
1001
0000
,  // measure 24
0100
0100
0001
0100
1000
0010
0100
0000
,  // measure 25
0100
0001
1000
0100
0010
0100
1000
0000
,  // measure 26
0002
0000
0203
0000
,  // measure 27
0310
0010
1000
1000
0001
0010
0100
0000
,  // measure 28
2002
0000
0000
0000
0000
0000
0000
0000
0000
0000
3003
0000
0000
1001
0000
0001
,  // measure 29
0100
0000
0110
0000
0000
0000
0000
0010
0000
1000
0001
0000
1001
0000
0110
0000
,  // measure 30
0002
0000
0000
0000
,  // measure 31
0203
0000
0000
0000
,  // measure 32
0320
0000
0000
0000
,  // measure 33
2030
0000
0000
0000
,  // measure 34
3002
0000
0010
0000
,  // measure 35
2003
0000
0100
0000
,  // measure 36
3020
0000
0001
0000
,  // measure 37
0230
0000
0000
0000
1000
0000
0000
0300
,  // measure 38
0010
0010
1000
0100
1000
1000
0001
0010
,  // measure 39
0001
0001
0100
0010
1000
0001
0010
0100
,  // measure 40
1000
0000
0001
0000
0100
0000
0010
1000
,  // measure 41
0000
0001
0000
0010
0000
0001
0100
0010
,  // measure 42
1000
1000
0001
0010
0100
0100
0010
0001
,  // measure 43
1000
0010
0100
0001
0010
0100
1000
0000
,  // measure 44
0001
0000
0100
0010
1000
0000
0001
0010
,  // measure 45
0110
1001
0110
1001
,  // measure 46
0001
0100
1000
0100
0001
0100
0010
1000
,  // measure 47
0000
0001
0000
0010
0000
0100
1000
0100
,  // measure 48
0010
0001
0010
1000
0010
0100
1000
0010
,  // measure 49
0000
0100
0000
0001
0000
0100
0010
1000
,  // measure 50
0100
0001
0100
0010
0001
1000
0010
0100
,  // measure 51
0000
0001
0000
0100
0000
0010
1000
0001
,  // measure 52
1000
0100
0001
0100
0010
0001
1000
0010
,  // measure 53
0000
0100
0000
1000
0000
0100
0000
0010
,  // measure 54
1000
0100
0010
0100
1000
0001
0100
0010
,  // measure 55
0000
0110
0000
0101
0000
0001
1000
0100
,  // measure 56
0010
0100
1000
0010
0100
0001
0010
1000
,  // measure 57
0000
1010
0000
0011
0000
0001
0100
1000
,  // measure 58
0001
0010
0100
0001
1000
0100
0010
0001
,  // measure 59
0000
0011
0000
1100
0000
1000
0001
0100
,  // measure 60
0010
0000
1000
0100
0010
0001
0010
0100
,  // measure 61
1000
0100
1000
0100
1000
0000
0001
0000
0100
0000
0010
0000
1001
0000
0000
0000
,  // measure 62
0200
0000
0000
0000
,  // measure 63
0320
0000
0000
0000
,  // measure 64
0032
0000
0000
0000
,  // measure 65
2003
0000
0000
0000
,  // measure 66
3010
0000
0100
0000
0001
1000
0100
0000
,  // measure 67
0010
0000
0100
1000
0010
0100
0001
0000
,  // measure 68
0201
0000
0000
0000
,  // measure 69
0320
0000
1000
0100
0000
0001
0000
0031
,  // measure 70
0010
1000
0100
0001
0100
1000
0010
0100
,  // measure 71
0001
0010
0100
1000
0001
0100
0010
0100
,  // measure 72
0001
0010
0100
1000
0001
0100
0010
1000
,  // measure 73
0000
0000
0001
0000
1000
0000
0100
0000
0010
0000
0001
0010
0000
0100
1000
0000
,  // measure 74
1000
0010
0100
0001
0010
0100
0100
1000
,  // measure 75
0001
0100
0010
0100
0001
1000
1000
0001
,  // measure 76
0010
0100
0010
0001
1000
0010
0100
0001
,  // measure 77
0010
0000
0100
0000
1000
0000
0010
0000
0100
0000
0001
0010
0000
0100
1000
0000
,  // measure 78
0010
0000
0100
0000
0001
0000
1000
0100
,  // measure 79
0000
0010
0000
0100
0000
1000
0100
0010
,  // measure 80
0001
0000
0100
0000
0010
0000
1000
0001
,  // measure 81
0000
0010
0000
0100
0000
1000
0100
0010
,  // measure 82
0001
0000
0100
0000
0010
0000
1000
0001
,  // measure 83
0000
0100
0000
0010
0000
0100
0001
1000
,  // measure 84
0100
0000
0010
0001
1000
0000
0010
0100
,  // measure 85
0002
0000
0000
0000
,  // measure 86
0000
2000
0000
0000
3000
0000
0000
0000
0000
2000
0000
0000
3003
0000
0000
0000
;

//---------------dance-single - ----------------
#NOTES:
     dance-single:
     :
     Challenge:
     10:
     0.855859,0.993848,0.516175,0.304628,0.372323,611.000000,61.000000,36.000000,0.000000,0.000000,0.000000,0.855859,0.993848,0.516175,0.304628,0.372323,611.000000,61.000000,36.000000,0.000000,0.000000,0.000000:
// measure 0
1000
0100
0010
0100
1000
0001
0100
0010
,  // measure 1
0100
0001
0010
0100
1000
0010
1000
0001
,  // measure 2
0100
0010
0100
0001
1000
1000
0001
0001
,  // measure 3
2002
0003
0020
3030
,  // measure 4
0010
1000
0100
1000
0001
0100
1000
0100
,  // measure 5
0010
0001
0010
1000
0100
0010
0100
1000
,  // measure 6
0001
0000
0100
0000
0010
0000
0100
0001
0100
0000
0001
0000
0010
0000
0100
0000
,  // measure 7
2000
0000
0000
0000
3000
0000
0000
0000
1010
0000
0000
0110
0000
0000
0101
0000
,  // measure 8
0001
0010
0100
0010
0001
1000
0010
0100
,  // measure 9
0001
0010
1000
0010
0100
0001
0100
0010
,  // measure 10
0011
0000
0011
0000
1100
0000
1100
0000
1000
0100
1000
0001
0100
0001
1000
0100
,  // measure 11
2000
0000
0000
0000
3002
1000
0000
1003
,  // measure 12
0001
0100
0010
0100
0001
1000
0100
0010
,  // measure 13
1000
0010
0100
0001
0100
0010
0001
1000
,  // measure 14
0010
0000
0100
0000
0001
0000
1000
0010
1000
0000
0100
0000
0010
0000
0100
0000
,  // measure 15
2000
0000
0000
0000
0000
0000
3000
0000
0011
0000
0000
0110
0000
0000
1100
0000
,  // measure 16
0001
0100
0010
0100
1000
0100
0010
1000
,  // measure 17
0100
0010
0001
0010
1000
0010
0100
1000
,  // measure 18
0001
0000
0001
0000
0100
0000
0100
0000
0010
1000
0010
0100
0001
0100
0010
1000
,  // measure 19
0020
0000
0000
0000
0130
0001
1000
0000
0100
0000
0010
0000
0000
0000
0001
0000
,  // measure 20
1000
0000
0001
0000
1001
0000
0001
0010
0000
0100
1000
0000
0001
0100
0001
0000
,  // measure 21
0011
0000
0101
0000
0010
0000
1000
0100
1000
0000
0010
0100
0000
0001
1000
0000
,  // measure 22
0200
0000
0000
0000
1300
0000
1000
0000
0001
0000
0100
0010
0000
1000
0001
0000
,  // measure 23
0010
0000
0001
0010
0001
0100
0010
0100
0101
0000
0000
1010
0000
0000
0110
0000
,  // measure 24
1001
0000
0100
0000
0011
0000
0100
1000
0001
1000
0100
0000
0010
0001
0010
0001
,  // measure 25
1000
0000
1000
0000
0010
0100
0010
0100
0001
0100
0001
0000
1000
0000
0100
0000
,  // measure 26
0020
0000
0000
0000
0000
0000
0000
0000
0032
0000
0000
0000
0103
0010
0100
0000
,  // measure 27
0001
0010
0001
0010
0100
0000
1000
0000
0001
0100
0010
1000
0100
0010
0001
0100
,  // measure 28
0010
0000
0000
0000
0000
1000
0000
0010
0000
0000
0110
0000
0000
0000
0000
0000
0001
0000
0000
0010
0000
0000
1100
0000
0000
0000
1010
0000
0000
0000
0010
0000
,  // measure 29
0100
0000
0101
0000
0000
0000
0000
0110
0000
0010
1000
0000
1010
0000
0101
0000
,  // measure 30
2000
0000
0010
0000
0100
0000
0001
0200
,  // measure 31
3000
0001
0000
0010
0000
1000
0010
1000
,  // measure 32
0320
0000
1000
0000
0100
0000
0001
0002
,  // measure 33
0030
0100
0000
1000
0000
0010
0100
0000
,  // measure 34
0203
0000
0010
0000
1000
0000
0010
0020
,  // measure 35
0300
0001
0000
0100
0000
0001
0000
1000
,  // measure 36
2030
0000
0100
0000
0001
0000
0010
0002
,  // measure 37
3000
0100
0000
0010
0000
1000
0000
0103
,  // measure 38
0010
0000
1000
0000
1100
0000
0001
0010
0100
0010
0001
0000
0100
0010
0100
0000
,  // measure 39
0101
0000
1001
0000
0200
0000
0000
0000
0310
0000
0000
0001
0000
0010
0100
0000
,  // measure 40
2000
0000
0000
0000
3001
0010
0001
0000
0100
0000
0010
0000
1000
0000
0100
0000
,  // measure 41
1000
0000
0010
0000
0100
0000
0001
0000
0010
0000
0110
0000
0000
1001
0000
0000
,  // measure 42
0100
1000
0010
0100
0001
0100
0010
1000
,  // measure 43
0001
0010
0100
1000
0010
0100
0001
0010
,  // measure 44
0011
0000
0100
1100
0000
0000
0110
1001
,  // measure 45
0001
0100
0010
0100
1000
0100
0001
0010
0100
0000
1000
0000
2002
0000
3003
0000
,  // measure 46
1000
0100
0001
0100
0010
1000
0010
0001
,  // measure 47
0100
1000
0001
0010
0100
0001
1000
0100
,  // measure 48
0010
0001
1000
0100
1000
0010
0100
0001
,  // measure 49
0010
0000
0100
0000
1000
0000
0010
0100
0010
0000
0100
0001
0000
0000
0000
0000
,  // measure 50
1001
0100
0001
0100
0010
0001
0010
1000
,  // measure 51
0010
0000
0100
0000
0001
0100
1000
0000
0010
0000
0100
0000
0001
0000
1000
0000
,  // measure 52
0010
0100
0001
0100
1000
0100
0002
0000
,  // measure 53
1003
0000
0100
0000
0011
0000
0100
0010
2000
0000
0000
0000
3001
0000
0011
0000
,  // measure 54
1001
0110
1001
0001
0010
1000
0010
0100
,  // measure 55
1000
0010
0100
1000
0100
0001
1000
0100
,  // measure 56
0010
0001
0010
1000
0010
0100
1000
0001
,  // measure 57
2002
0000
0000
0000
3003
0000
0000
0000
1001
0000
0000
0011
0000
0000
1100
0000
,  // measure 58
0001
0000
0100
0000
0010
0000
1000
0100
,  // measure 59
0000
0010
0000
0001
0000
0010
0100
1000
,  // measure 60
0001
0000
0100
0010
0100
0000
0001
1000
,  // measure 61
0010
0100
0010
0100
0001
0100
0001
0000
1000
0100
1000
0001
0010
0000
1100
0000
,  // measure 62
0002
0000
0000
0000
,  // measure 63
0203
0000
0000
0000
,  // measure 64
0320
0000
0000
0000
,  // measure 65
2030
0000
0000
3000
,  // measure 66
1001
0000
0100
1000
0001
0000
0100
0010
,  // measure 67
0110
0000
0000
0000
0000
0000
0001
1000
0001
2000
0000
0000
0000
0000
0000
0000
0000
0000
3001
0000
0000
0000
0000
0000
,  // measure 68
2002
0000
0000
3003
,  // measure 69
0011
0000
0011
0000
1100
0000
1100
0000
0001
0010
0001
1000
0100
1000
0010
0100
,  // measure 70
0010
0100
0001
0100
0010
1000
0001
1000
,  // measure 71
0100
0010
0100
1000
0010
0001
1000
0100
,  // measure 72
0010
1000
0001
0010
0100
1000
0010
0100
,  // measure 73
0001
0000
1000
0000
1100
0000
0001
0010
0001
0000
0100
1000
0000
0010
0100
0000
,  // measure 74
0001
0010
1000
0010
0100
1000
0010
0100
,  // measure 75
1000
0001
0010
0100
0001
1000
0100
0010
,  // measure 76
0110
0000
1001
0000
0101
0000
1010
0000
1000
0100
0010
0100
0001
0100
1000
0010
,  // measure 77
0100
0000
0101
0000
1001
0000
0100
0000
0010
0000
0001
0010
0000
0010
1000
0000
,  // measure 78
0100
0000
0010
0000
0001
0000
0010
0100
,  // measure 79
0000
1000
0000
0001
0000
0100
0010
1000
,  // measure 80
0001
0000
1000
0000
0010
0000
0100
0001
,  // measure 81
0000
0010
0000
0100
0000
1000
0001
0100
,  // measure 82
0010
0000
1000
0000
0001
0000
0010
0100
,  // measure 83
0000
1000
0000
0001
0000
0100
1000
0100
,  // measure 84
0010
0000
1000
0001
0010
0000
0100
1000
,  // measure 85
0002
0000
0000
0000
,  // measure 86
0000
1000
0000
0000
0000
1000
0000
0000
0000
1000
0000
0000
0000
2000
0000
0000
,  // measure 87
3003
0000
0000
0000
;
