#TITLE:The Last Unicorn;
#SUBTITLE:;
#ARTIST:Groove Coverage;
#TITLETRANSLIT:;
#SUBTITLETRANSLIT:;
#ARTISTTRANSLIT:;
#GENRE:;
#CREDIT:;
#BANNER:The Last Unicorn-banner.png;
#BACKGROUND:The Last Unicorn-bg.png;
#LYRICSPATH:;
#CDTITLE:;
#MUSIC:The Last Unicorn.ogg;
#OFFSET:-0.885007;
#SAMPLESTART:46.799999;
#SAMPLELENGTH:12.000000;
#SELECTABLE:YES;
#BPMS:0.000000=139.960007
,268.000000=69.980003
;
#STOPS:
;
#BGCHANGES:;
#KEYSOUNDS:;
#ATTACKS:;

//---------------dance-single - ----------------
#NOTES:
     dance-single:
     :
     Beginner:
     1:
     0.112797,0.107322,0.000000,0.000000,0.000000,103.000000,0.000000,0.000000,0.000000,0.000000,0.000000,0.112797,0.107322,0.000000,0.000000,0.000000,103.000000,0.000000,0.000000,0.000000,0.000000,0.000000:
0000
0000
0000
0000
,
0000
0000
0000
0000
,
1000
0000
0000
0000
,
0001
0000
0000
0000
,
0100
0000
0000
0000
,
0010
0000
0000
0000
,
1000
0000
0000
0000
,
0100
0000
0000
0000
,
0010
0000
0000
0000
,
0001
0000
0000
0000
,
0100
0000
0100
0000
,
0010
0000
0000
0000
,
1000
0000
1000
0000
,
0001
0000
0000
0000
,
0010
0000
0010
0000
,
0100
0000
0000
0000
,
1000
0000
1000
0000
,
0001
0000
0000
0000
,
0000
0000
0000
0000
,
0100
0000
0000
0000
,
0010
0000
0000
0000
,
1000
0000
0000
0000
,
0001
0000
0000
0000
,
1000
0000
0000
0000
,
0100
0000
0000
0000
,
0010
0000
0000
0000
,
0001
0000
0000
0000
,
1000
0000
1000
0000
,
0001
0000
0001
0000
,
0100
0000
0100
0000
,
0010
0000
0010
0000
,
1000
0000
1000
0000
,
0001
0000
0001
0000
,
0100
0000
0100
0000
,
0010
0000
0000
0000
,
1000
0000
1000
0000
,
0100
0000
0000
0000
,
0001
0000
0001
0000
,
0100
0000
0000
0000
,
1000
0000
1000
0000
,
0010
0000
0000
0000
,
0001
0000
0001
0000
,
0010
0000
0000
0000
,
1000
0000
1000
0000
,
0100
0000
0100
0000
,
0010
0000
0010
0000
,
0001
0000
0001
0000
,
0100
0000
0100
0000
,
0010
0000
0010
0000
,
1000
0000
1000
0000
,
0001
0000
0001
0000
,
0010
0000
0010
0000
,
0100
0000
0100
0000
,
1000
0000
1000
0000
,
0001
0000
0001
0000
,
0100
0000
0010
0000
,
0100
0000
0010
0000
,
1000
0000
0001
0000
,
1000
0000
0001
0000
,
1000
0000
1000
0000
,
0100
0000
0000
0000
,
0010
0000
0010
0000
,
0001
0000
0000
0000
,
0100
0000
0100
0000
,
0010
0000
0000
0000
,
1000
0000
1000
0000
,
0001
0000
0000
0000
,
1000
0000
0000
0000
,
0100
0000
0000
0000
,
0010
0000
0000
0000
,
0001
0000
0000
0000
;

//---------------dance-single - ----------------
#NOTES:
     dance-single:
     :
     Easy:
     3:
     0.200407,0.273095,0.000000,0.068992,0.000000,174.000000,0.000000,9.000000,0.000000,0.000000,0.000000,0.200407,0.273095,0.000000,0.068992,0.000000,174.000000,0.000000,9.000000,0.000000,0.000000,0.000000:
0000
0000
0000
0000
,
0000
0000
0000
0000
,
1000
0000
0000
0000
,
0100
0000
0000
0000
,
0001
0000
0000
0000
,
0100
0000
0000
0000
,
1000
0000
0000
0000
,
0010
0000
0000
0000
,
0001
0000
0000
0000
,
0010
0000
0000
0000
,
1000
0100
1000
0000
,
1000
0000
0000
0000
,
0001
0100
0001
0000
,
0001
0000
0000
0000
,
1000
0010
0100
0000
,
0100
0000
0000
0000
,
0001
0100
0010
0000
,
0010
0000
0000
0000
,
0000
0000
0000
1000
,
0100
0000
0010
0000
,
0010
0000
0001
0100
,
0010
0000
0100
0000
,
0100
0000
0000
0001
,
1000
0000
0100
0000
,
1000
0000
0010
0100
,
0001
0000
0001
0000
,
1000
0000
0000
0001
,
0010
0000
0001
0000
,
0100
0000
0010
0100
,
0001
0000
1000
0000
,
0100
0000
0010
0100
,
1000
0000
0010
0000
,
0100
0000
0001
0100
,
0010
0000
1000
0000
,
0001
0000
1000
0000
,
0001
0010
0100
1000
,
1000
0000
0001
0000
,
1000
0100
0010
0001
,
0001
0000
1000
0000
,
0001
0100
0010
1000
,
1000
0000
0001
0000
,
1000
0010
0100
0001
,
0001
0000
1000
0000
,
0001
0010
0100
0100
,
1000
0010
0100
0100
,
0001
1000
0100
0100
,
0020
0130
0200
0310
,
0010
0001
0100
0010
,
1000
0100
0010
0100
,
1000
0001
0100
0010
,
2000
3001
0002
1003
,
1000
0100
0010
0000
,
0010
0001
0100
0000
,
0100
0010
1000
0000
,
2000
3100
0020
0031
,
1000
0010
0100
0000
,
0001
0100
0010
0000
,
0010
1000
0100
0000
,
0020
0031
0200
0310
,
1000
1000
0100
0000
,
1000
1000
0001
0000
,
0100
0100
0001
0000
,
0010
0010
0001
0000
,
0100
0100
0010
0000
,
1000
1000
0001
0000
,
0010
0010
0100
0000
,
1000
0000
0000
0000
,
0001
0000
0100
0000
,
0010
0000
1000
0000
,
0001
0000
0010
0000
,
0100
0000
2000
0000
,
0000
3000
0000
0000
;

//---------------dance-single - ----------------
#NOTES:
     dance-single:
     :
     Medium:
     6:
     0.352628,0.355024,0.068992,0.222309,0.000000,284.000000,9.000000,29.000000,0.000000,0.000000,0.000000,0.352628,0.355024,0.068992,0.222309,0.000000,284.000000,9.000000,29.000000,0.000000,0.000000,0.000000:
0000
0000
0000
0000
,
0000
0000
0000
0000
,
2000
0000
0000
3000
,
0200
0000
0000
0300
,
0020
0000
0000
0030
,
0002
0000
0000
0003
,
0200
0000
0000
0300
,
0020
0000
0000
0030
,
2000
0000
0000
3000
,
0002
0000
0000
0003
,
1000
0000
0010
0000
0100
0100
0100
0000
,
0001
0000
0100
0000
0010
0010
0010
0000
,
1000
0000
0100
0000
1000
1000
1000
0000
,
0001
0000
0010
0000
0001
0001
0001
0000
,
1000
0000
0010
0000
0100
0001
0100
0000
,
0001
0000
0010
0000
0100
1000
0100
0000
,
0010
0000
0001
0000
0100
0010
1000
0000
,
0100
0000
0010
0000
0001
1000
0001
0000
,
2002
0000
0000
0000
3003
0000
0001
1000
,
0100
0000
0000
1000
0000
0010
0010
0000
,
0100
0000
0000
0000
0001
0010
0001
0010
,
0100
0000
0000
0000
1000
0000
0001
0100
,
0000
0100
0000
0000
0000
0000
0001
1000
,
0010
0000
0000
1000
0000
0001
0001
0000
,
0100
0000
0000
0000
0001
1000
0100
0010
,
0100
0000
0000
0000
1000
0000
0001
0001
,
0000
0100
0000
0000
0000
0000
0010
1000
,
0100
0000
0000
1000
0000
0001
0100
0000
,
0010
0000
0000
0100
0000
0001
0010
0100
,
1000
0000
0000
0100
0000
0010
0001
0100
,
0010
0000
0000
0100
0000
0001
1000
0010
,
1000
0000
0000
0001
0000
0010
0001
0100
,
0010
0000
0000
0100
0000
0001
0010
0100
,
1000
0000
0000
0001
0000
1000
1000
0000
,
0001
0100
0010
1000
,
0100
0000
0010
0000
0100
0000
2000
0001
,
3001
1000
0010
0100
,
0001
0000
0010
0000
0100
0000
0020
0001
,
0031
0100
0010
0100
,
0001
0000
1000
0000
0100
0000
2000
0010
,
3010
0100
0001
0010
,
0100
0000
1000
0000
0010
0000
0200
0001
,
0301
0010
0001
0100
,
0010
1000
0100
0000
1000
0010
0000
0010
,
0100
0001
0010
0000
0001
0100
0000
0100
,
0010
1000
0100
0000
1000
0001
0000
0001
,
0010
0001
0100
0010
,
1000
0100
1000
0000
0010
0100
0000
0100
,
0001
0010
0001
0000
1000
0010
0000
0010
,
0100
0001
0010
0000
0010
0100
0000
0100
,
1000
0001
0100
0001
,
1000
0100
1000
0000
0100
0000
0100
0000
,
0010
0001
0010
0000
0001
0000
0001
0000
,
0100
0010
0100
0000
0010
0000
0010
0000
,
2000
3200
0320
0031
,
0100
0010
0100
0000
0001
0000
1000
0000
,
0001
0010
0001
0000
0100
0000
0010
0000
,
1000
0010
1000
0000
0010
0000
0100
0000
,
0002
0023
0230
1300
,
0010
0000
1100
0000
0001
0100
0010
0000
,
0100
0000
0011
0000
0001
1000
0100
0000
,
1000
0000
1100
0000
0001
0100
0010
0000
,
0100
0000
0101
0000
0001
0010
0100
0000
,
0010
0000
1100
0000
0001
0100
0010
0000
,
0100
0000
1001
0000
0001
1000
0010
0000
,
0100
0000
0101
0000
0001
0100
0010
0000
,
1002
0100
0000
0103
,
0020
0000
2030
0000
,
3002
0000
0023
0000
,
0230
0000
2300
0000
,
3002
0000
0203
0000
,
0000
0300
0000
0000
;

//---------------dance-single - ----------------
#NOTES:
     dance-single:
     :
     Hard:
     8:
     0.492803,0.518881,0.137985,0.436952,0.045995,375.000000,18.000000,57.000000,0.000000,0.000000,0.000000,0.492803,0.518881,0.137985,0.436952,0.045995,375.000000,18.000000,57.000000,0.000000,0.000000,0.000000:
0000
0000
0000
0000
,
0000
0000
0000
0000
0000
0000
1000
0100
,
2000
0000
0000
0000
3002
0000
0100
0203
,
0000
0000
0000
0000
0310
1000
0100
0010
,
1002
0000
0000
0000
0203
0000
0010
0320
,
0000
2000
0000
0000
0000
3030
1000
0100
,
0020
0000
0000
0000
0230
0000
1000
2000
,
0000
0000
0000
0000
3300
0000
0001
0100
,
0020
0000
0000
0000
0230
0000
0001
0302
,
0000
2000
0000
0000
0000
3003
0001
0010
,
0100
0000
1100
0000
0001
0100
0010
0000
,
0100
0000
0101
0000
0001
1000
0100
0000
,
0010
0000
0110
0000
0010
0001
0100
0000
,
0010
0000
1100
0000
0001
0100
0010
0000
,
1000
0000
1100
0000
0001
0100
0010
0000
,
0100
0000
0101
0000
0001
0010
0100
0000
,
0010
0000
1001
0000
0001
0100
0010
0000
,
1000
0000
1100
0000
1000
0100
0010
0002
,
2000
0000
0000
0000
3003
0000
0001
0100
,
0010
0000
0000
1000
0000
0010
0100
0001
,
1000
0000
0000
0000
1000
0100
0010
0001
,
0002
0000
0000
0000
0203
0000
0010
0320
,
0000
2000
0000
0000
3030
0000
0001
0010
,
0100
0000
1001
0000
1000
0010
0100
0001
,
1000
0000
0101
0000
0010
1000
0010
0100
,
0002
0000
1000
0000
2003
0000
3100
0200
,
0000
0020
0000
0000
0000
0330
0010
0001
,
0100
0010
0100
0001
1000
0100
1000
0001
,
0100
0010
0100
0001
0010
0100
1000
0100
,
0001
0100
1000
0001
0100
1000
0100
0001
,
0010
0100
1000
0100
0001
0100
1000
0010
,
0001
0010
1000
0001
0010
0100
1000
0100
,
0001
0100
1000
0001
0100
0010
1000
0010
,
0001
0010
1000
0001
0010
0100
1000
0000
,
0001
0001
0100
0100
0010
0010
0100
0000
,
0001
0000
1000
0000
0100
0000
0010
0100
,
0100
0010
0001
0100
,
0010
0000
0100
0000
0001
0000
1000
0001
,
0001
1000
0100
1000
,
0010
0000
0100
0000
0001
0000
1000
0100
,
0100
0010
0001
0100
,
0010
0000
0100
0000
0001
0000
0010
0001
,
0001
0100
0010
0010
,
1000
0100
1000
0000
0100
0000
0010
0000
0002
0000
1000
0000
0000
0000
1003
0000
,
0010
0100
0010
0000
0100
0000
0001
0000
2000
0000
0100
0000
0000
0000
3100
0000
,
1000
0010
0100
0000
0010
0000
0100
0000
0002
0000
0010
0000
0000
0000
0013
0000
,
0002
0100
0203
0010
0320
1000
0000
1030
,
0100
1000
0100
0000
0010
0000
0001
0000
2000
0000
0010
0000
0000
0000
3010
0000
,
0100
0001
0100
0000
0010
0000
0100
0000
0002
0000
1000
0000
0000
0000
1003
0000
,
0100
0010
0001
0000
0100
0000
0010
0000
2000
0000
0100
0000
0000
0000
3100
0000
,
0020
0001
0032
0100
0203
0010
0000
0310
,
1000
0100
1000
0000
0100
0000
0020
0000
0001
0000
0000
0000
0031
0000
0000
0000
,
0001
0010
0001
0000
0010
0000
0200
0000
1000
0000
0000
0000
1300
0000
0000
0000
,
0010
0100
0010
0000
0100
0000
0002
0000
1000
0000
0000
0000
1003
0000
0000
0000
,
0020
1000
2030
0001
3002
0100
0103
0000
,
0010
1000
0100
0000
0010
0000
0002
0000
0100
0000
0000
0000
0103
0000
0000
0000
,
0010
1000
0100
0000
0010
0000
0200
0000
1000
0000
0000
0000
1300
0000
0000
0000
,
0010
0100
0001
0000
1000
0000
0002
0000
1000
0000
0000
0000
1003
0000
0000
0000
,
0002
0010
0023
0100
0230
1000
1300
0001
,
0100
0000
1010
0000
0010
1000
0100
0000
,
0010
0000
0101
0000
0001
1000
0100
0000
,
0010
0000
1001
0000
0001
0100
0010
0000
,
1000
0000
1100
0000
0001
0100
0010
0000
,
0100
0000
0011
0000
0001
0100
0010
0000
,
1000
0000
1001
0000
0001
1000
0100
0000
,
0010
0000
0101
0000
0001
0100
0010
0000
,
2000
0000
3100
0000
0000
0000
1000
0100
,
0020
0000
0032
0000
,
0203
0000
0320
0000
,
2030
0000
3200
0000
,
0320
0000
0032
0000
,
0000
0003
0000
0000
;
