#TITLE:Shangri-la;
#SUBTITLE:;
#ARTIST:しほり;
#TITLETRANSLIT:;
#SUBTITLETRANSLIT:;
#ARTISTTRANSLIT:Shihori;
#CREDIT:;
#BANNER:Shangri-La-bn.png;
#BACKGROUND:Shangri-La-bg.png;
#LYRICSPATH:;
#CDTITLE:Dance Mania presents Summer Story 2008.png;
#MUSIC:Shangri-La.mp3;
#OFFSET:-6.250;
#SAMPLESTART:44.810;
#SAMPLELENGTH:12.000;
#SELECTABLE:YES;
#DISPLAYBPM:156.000;
#BPMS:0.000=155.880,152.000=157.810,160.000=155.890;
#STOPS:;
#BGCHANGES:;

//---------------dance-single - ----------------
#NOTES:
     dance-single:
     :
     Hard:
     8:
     0.582,0.551,0.285,0.639,0.059:
0010
0000
0000
1000
0000
0000
1000
0000
0000
0000
1010
0000
0000
0000
0020
0000
,
0130
0000
0000
0001
0000
0000
0010
0000
0000
0000
0011
0000
0000
0000
0002
0000
,
0103
0000
0000
0010
0000
0000
0200
0000
0300
0000
0010
0000
0100
0000
0020
0000
,
0000
0130
0001
0100
0010
0100
0001
0000
,
0001
0000
0000
0010
0000
0000
0001
0000
0000
0000
0011
0000
0000
0000
0002
0000
,
0103
0000
0000
0010
0000
0000
1000
0000
0000
0000
1001
0000
0000
0000
0020
0000
,
1030
0000
0000
0001
0000
0000
1000
0000
0000
0000
0010
0000
1000
0000
0002
0000
,
0000
1003
0010
1000
0001
0100
0010
0000
,
0200
0000
0310
0200
0000
0310
1000
0001
,
2000
0000
3002
0000
0013
0000
0001
0010
,
0002
0000
0103
0002
0000
0103
0001
0100
,
0020
0000
0130
0000
0110
0000
0001
1000
,
0002
0000
1003
0020
0000
1030
0001
1000
,
0002
0000
0023
0000
0230
0000
1300
0100
,
2000
0000
3001
2000
0000
3002
0000
0013
,
0002
2003
3200
0320
,
0032
0000
1000
1003
,
2000
3020
1030
1010
,
0201
0000
0300
0001
0100
0010
0100
0010
,
2000
0000
3002
0000
2003
0000
3001
0010
,
0011
0000
0001
0100
0101
0000
1000
0010
,
1010
0000
1000
0010
1001
0000
0010
1000
,
0001
1000
0001
0100
0001
0100
0001
1000
,
0020
0000
1030
0000
0010
1000
0010
1000
,
0010
1000
0000
0001
0000
1000
0010
1001
,
0000
0000
0000
0000
,
1001
0000
0001
1000
0100
1000
0010
0000
,
1000
0000
0001
1000
0001
0010
0001
0100
,
0002
0000
0103
0001
0010
0001
0100
0001
,
0200
0000
0310
0000
1001
0000
0001
1000
,
0020
0000
1030
0100
1000
0010
1000
0010
,
1001
0000
2000
0000
3002
0000
0103
0001
,
0200
0000
0301
0100
0010
0100
0001
0100
,
0002
0000
2003
0000
3020
0000
1030
0010
,
2001
0000
3001
1000
0120
0000
0130
0001
,
1000
0010
0100
0001
1000
0010
0100
0001
,
2000
0000
3010
0100
0102
0000
1003
0010
,
0100
0001
1000
0010
0100
0000
1001
0000
,
0220
0000
0330
1001
0000
0000
0000
0000
,
0000
0020
0000
0200
0000
0330
0000
0000
,
2001
0100
0010
3001
,
1000
0000
0010
1000
0010
1000
0010
0100
,
0001
0100
0010
0100
0001
0100
0010
0100
,
0002
0203
0320
1030
,
0010
1000
0010
0100
0010
0100
0010
0000
,
0100
0001
0100
0001
0100
0001
0010
0000
,
0001
0010
0100
1000
0001
0100
0010
0100
,
0001
0010
0100
1000
0010
0100
0001
0000
,
0100
0000
0000
0001
0000
0000
0001
0000
0000
0000
0101
0000
0000
0000
0200
0000
,
0310
0000
0000
1000
0000
0000
0100
0000
0000
0000
1100
0000
0000
0000
2000
0000
,
3010
0000
0000
0100
0000
0000
0020
0000
0030
0000
0100
0000
0010
0000
0200
0000
,
0000
0310
1000
0010
0100
0010
1000
0000
,
1000
0000
0000
0100
0000
0000
1000
0000
0000
0000
1100
0000
0000
0000
2000
0000
,
3010
0000
0000
0100
0000
0000
0001
0000
0000
0000
1001
0000
0000
0000
0200
0000
,
0301
0000
0000
1000
0000
0000
0001
0000
0000
0000
0100
0000
0001
0000
2000
0000
,
0000
3001
0100
0001
1000
0010
0100
0000
,
0020
0100
0100
0130
0000
0100
0000
0010
,
0000
1100
0000
0011
0000
0000
0000
0000
,
2002
0000
0000
0000
,
3003
0000
0000
0000
;

//---------------dance-single - ----------------
#NOTES:
     dance-single:
     :
     Medium:
     6:
     0.426,0.435,0.207,0.453,0.000:
1000
0000
0010
0000
1020
0000
0030
0100
,
0010
0000
0100
0000
0210
0000
0300
0001
,
0100
0000
0001
0000
0201
0000
0300
0010
,
0000
0100
0010
0000
1000
0000
0001
0000
,
1000
0000
0010
0000
2010
0000
3000
0010
,
0100
0000
0001
0000
0201
0000
0300
0001
,
1000
0010
1000
0010
,
1000
0000
0001
0000
0100
0010
0100
0000
,
0001
0000
1000
0010
0000
1000
0010
0000
,
0020
0000
0230
0000
0302
0000
0000
1003
,
0020
0000
1030
0020
0000
0130
0002
0000
,
0203
0000
0302
0000
2003
0000
0000
3000
,
0010
0000
0100
0010
0000
0100
0020
0000
,
1030
0000
0010
0000
1010
0000
0000
0010
,
1000
0000
0010
0100
0000
0001
0000
0010
,
0001
0010
0100
1000
,
0002
0000
1000
1000
,
1003
0010
0100
0010
,
0110
0000
0000
0001
0000
1000
0010
1000
,
0020
0000
2030
0000
3002
0000
0003
0100
,
0002
0000
0003
0010
0200
0000
0300
0010
,
0002
0000
0003
1000
0020
0000
0130
0000
,
0010
0100
0002
0000
0103
0001
0100
0000
,
0010
1000
0010
1000
,
0001
1000
0000
0001
0000
0100
0001
0010
,
0000
0000
0000
0000
,
1001
0000
0001
0000
1000
0010
1000
0000
,
0010
0000
0010
0000
0100
0000
0010
1000
,
0001
0000
0000
0010
0001
0010
0001
0000
,
1000
0000
0010
0000
1001
0000
0001
1000
,
0020
0000
1000
1000
,
1030
0000
0000
0000
0001
0000
1000
0010
,
1000
0000
0000
0010
1000
0000
0010
0000
,
0100
0000
0001
0000
1001
0000
0000
0001
,
0020
0000
0000
0130
0020
0000
0000
0030
,
0001
0000
1000
0000
0010
0000
1000
0010
,
0020
0000
0000
0130
0002
0000
0000
1003
,
0010
1000
0001
1000
,
0010
0000
0000
2002
0000
3003
0000
1000
,
0001
0000
0000
0220
0000
0330
0000
0000
,
2002
0000
0000
0000
,
3003
0000
0000
0000
,
0010
0010
0010
0010
,
0100
0010
0100
0010
,
0100
0010
0100
0000
0010
1000
0010
0000
,
1000
0010
1000
0000
0010
0100
0001
0000
,
0001
0100
0001
0000
0010
0000
0001
0000
,
1000
0001
1000
0010
0100
0010
1000
0000
,
0001
0000
0100
0000
0201
0000
0300
0010
,
0100
0000
0010
0000
0120
0000
0030
1000
,
0010
0000
1000
0000
1020
0000
0030
0100
,
0000
0010
0100
0000
0001
0000
1000
0000
,
0001
0000
0100
0000
0102
0000
0003
0100
,
0010
0000
1000
0000
1020
0000
0030
1000
,
0001
0100
0001
0100
,
0001
0000
1000
0000
0010
0100
0010
0000
,
1000
0000
0000
2020
0000
3030
0000
0010
,
0100
0000
0000
0202
0000
0303
0000
0000
,
2002
0000
0000
0000
,
3003
0000
0000
0000
;

//---------------dance-single - ----------------
#NOTES:
     dance-single:
     :
     Easy:
     4:
     0.288,0.377,0.216,0.216,0.000: // measure 1
1000
0010
1000
0000
,  // measure 2
0001
0100
0001
0000
,  // measure 3
1000
0010
0100
0000
,  // measure 4
0010
0100
0001
1000
,  // measure 5
0001
0010
0202
0303
,  // measure 6
0010
0100
0220
0330
,  // measure 7
1000
0010
2020
3030
,  // measure 8
0010
1000
0010
1000
,  // measure 9
0010
0000
1000
0000
,  // measure 10
0001
1000
0001
0000
,  // measure 11
0010
0000
0100
0000
,  // measure 12
0010
0100
0010
0000
,  // measure 13
0001
0000
1000
0000
,  // measure 14
0001
1000
0001
1000
,  // measure 15
0010
0000
0100
0000
,  // measure 16
0010
0100
0010
0100
,  // measure 17
0002
0000
1000
1000
,  // measure 18
1003
0010
0100
0001
,  // measure 19
1000
0000
0010
1000
,  // measure 20
1001
0000
1000
0000
,  // measure 21
0010
0000
0110
0000
,  // measure 22
0001
0000
1001
0000
,  // measure 23
0010
0001
0010
0100
,  // measure 24
1000
0000
0001
1000
,  // measure 25
0001
0000
0010
0001
,  // measure 26
0010
0000
0000
0000
,  // measure 27
0011
0100
1000
0010
,  // measure 28
0101
0000
0000
0010
,  // measure 29
0100
0000
0010
0100
,  // measure 30
0001
1000
1001
0001
,  // measure 31
1000
0001
0010
0100
,  // measure 32
1000
0000
0001
1000
,  // measure 33
0010
0000
1000
0100
,  // measure 34
0010
0001
0010
0100
,  // measure 35
0110
0000
1001
0000
,  // measure 36
0110
0000
1001
0000
,  // measure 37
0011
0000
1100
0000
,  // measure 38
1001
0000
0110
0000
,  // measure 39
0002
0000
0000
0000
,  // measure 40
2000
0000
0000
3003
,  // measure 41
1001
0000
0000
0000
,  // measure 42
0010
0000
0000
0000
,  // measure 43
0100
0000
0000
0000
,  // measure 44
0010
0000
0000
0000
,  // measure 45
0100
0100
0100
0100
,  // measure 46
0010
0010
0010
0010
,  // measure 47
0100
0010
1000
0001
,  // measure 48
0010
0100
1000
0010
,  // measure 49
1000
0010
2000
0000
,  // measure 50
3001
0010
0002
0000
,  // measure 51
0013
0100
2000
0000
,  // measure 52
3010
0100
0001
0010
,  // measure 53
0001
0100
0220
0330
,  // measure 54
0010
1000
2200
3300
,  // measure 55
1000
0001
0022
0033
,  // measure 56
0001
0100
0010
1000
,  // measure 57
0020
0000
0000
0030
,  // measure 58
0200
0000
0000
0300
,  // measure 59
2002
0000
0000
0000
,  // measure 60
3003
0000
0000
0000
;

//---------------dance-single - ----------------
#NOTES:
     dance-single:
     :
     Beginner:
     2:
     0.155,0.203,0.010,0.187,0.000: // measure 1
0010
0000
0000
0000
,  // measure 2
0100
0000
0000
0000
,  // measure 3
0010
0000
0000
0000
,  // measure 4
0100
0000
0000
0000
,  // measure 5
0020
0000
0030
0000
,  // measure 6
0200
0000
0300
0000
,  // measure 7
0002
0000
0003
0000
,  // measure 8
2000
0000
3001
0001
,  // measure 9
1000
0000
0000
0000
,  // measure 10
0010
0010
0010
0000
,  // measure 11
0100
0000
0000
0000
,  // measure 12
0001
0001
1000
0000
,  // measure 13
0001
0000
0000
0000
,  // measure 14
0010
0001
0100
0000
,  // measure 15
0010
0000
0000
0000
,  // measure 16
1000
0000
0010
1000
,  // measure 17
2000
0000
0000
0000
,  // measure 18
0001
0001
0001
0001
,  // measure 19
3002
0000
0000
0000
,  // measure 20
2003
0000
0000
3000
,  // measure 21
0001
0000
1000
0000
,  // measure 22
0001
0000
1000
0000
,  // measure 23
0010
0000
0100
0000
,  // measure 24
0010
0000
0100
0100
,  // measure 25
0100
0000
0010
0000
,  // measure 26
0000
0000
0000
0000
,  // measure 27
1001
0000
0000
0000
,  // measure 28
0010
0000
0000
0100
,  // measure 29
0010
0000
0000
0000
,  // measure 30
0100
0100
0100
0000
,  // measure 31
0001
0000
0000
0000
,  // measure 32
1000
0000
0000
0010
,  // measure 33
0100
0000
0001
0000
,  // measure 34
1000
1000
1000
0000
,  // measure 35
0020
0000
0030
0000
,  // measure 36
2000
0000
3000
0000
,  // measure 37
0002
0000
0003
0000
,  // measure 38
0200
0000
0300
0000
,  // measure 39
2000
0000
3000
0000
,  // measure 40
0002
0000
0000
0000
,  // measure 41
1003
0000
0000
0000
,  // measure 42
0010
0000
0000
0000
,  // measure 43
0100
0000
0000
0000
,  // measure 44
0010
0000
0000
0000
,  // measure 45
1000
0000
0001
0000
,  // measure 46
1000
0000
0010
0000
,  // measure 47
0100
0000
0010
0000
,  // measure 48
1000
0000
0001
0000
,  // measure 49
0100
0000
0000
0000
,  // measure 50
0010
0000
0000
0000
,  // measure 51
0100
0000
0000
0000
,  // measure 52
0010
0000
0000
0000
,  // measure 53
0200
0000
0300
0000
,  // measure 54
0020
0000
0030
0000
,  // measure 55
2000
0000
3000
0000
,  // measure 56
0002
0000
1003
1000
,  // measure 57
0001
0000
0000
0000
,  // measure 58
2000
0000
0000
0000
,  // measure 59
0002
0000
0000
0000
,  // measure 60
3003
0000
0000
0000
;
