#VERSION:0.81;
#TITLE:SIREN;
#SUBTITLE:;
#ARTIST:KAT KRAZY FT. ELKKA;
#TITLETRANSLIT:;
#SUBTITLETRANSLIT:;
#ARTISTTRANSLIT:;
#GENRE:;
#ORIGIN:;
#CREDIT:;
#BANNER:Siren.png;
#BACKGROUND:Siren-bg.png;
#PREVIEWVID:;
#JACKET:Siren-jacket.png;
#CDIMAGE:;
#DISCIMAGE:;
#LYRICSPATH:;
#CDTITLE:;
#MUSIC:Siren.ogg;
#OFFSET:0.000000;
#SAMPLESTART:52.630001;
#SAMPLELENGTH:12.000000;
#SELECTABLE:YES;
#BPMS:0.000=126.010;
#STOPS:124.000=1.429;
#DELAYS:;
#WARPS:;
#TIMESIGNATURES:0.000=4=4;
#TICKCOUNTS:0.000=4;
#COMBOS:0.000=1;
#SPEEDS:0.000=1.000=0.000=0;
#SCROLLS:0.000=1.000;
#FAKES:;
#LABELS:0.000=Song Start;
#BGCHANGES:;
#KEYSOUNDS:;
#ATTACKS:
;

//---------------dance-single - ----------------
#NOTEDATA:;
#CHARTNAME:;
#STEPSTYPE:dance-single;
#DESCRIPTION:;
#CHARTSTYLE:;
#DIFFICULTY:Hard;
#METER:8;
#RADARVALUES:0.440429,0.571023,0.167984,0.415020,0.059289,253.000000,17.000000,42.000000,0.000000,0.000000,0.000000,0.000000,0.000000,0.440429,0.571023,0.167984,0.415020,0.059289,253.000000,17.000000,42.000000,0.000000,0.000000,0.000000,0.000000,0.000000;
#CREDIT:;
#NOTES:
// measure 0
0000
0000
0000
0000
,  // measure 1
0000
0000
0000
0000
,  // measure 2
0000
0000
0000
0000
,  // measure 3
0000
0000
0000
0000
,  // measure 4
2000
0000
3002
0000
,  // measure 5
0203
0000
0320
0000
,  // measure 6
2030
0000
3200
0000
,  // measure 7
0320
0000
0032
0000
,  // measure 8
1003
0000
0000
1000
0100
0010
0100
1000
,  // measure 9
0100
0010
0001
0010
0100
0010
0001
0100
,  // measure 10
0020
0000
2030
0000
3200
0000
0000
0301
,  // measure 11
0010
0100
1000
0100
0020
0000
0000
0000
,  // measure 12
0030
0000
0000
0010
1000
0100
0001
0100
,  // measure 13
1000
0010
0001
0010
1000
0100
0010
0001
,  // measure 14
0100
0010
1000
0100
0010
0100
1000
0001
,  // measure 15
1000
0100
0010
0010
0010
0100
1000
0100
,  // measure 16
0020
0000
0000
0032
0000
0000
0013
0000
,  // measure 17
0200
0000
0000
0320
0000
0000
0130
0000
,  // measure 18
0100
0000
0010
0000
0100
0000
0010
0000
0100
0000
0000
0100
0000
0000
0200
0000
,  // measure 19
0010
1000
0001
1300
,  // measure 20
2000
0000
0000
3200
0000
0000
0320
0000
,  // measure 21
0032
0000
0000
0203
0000
0000
0320
0000
,  // measure 22
2030
3100
0010
0001
,  // measure 23
0100
0010
1000
0100
,  // measure 24
0110
0100
0101
0001
,  // measure 25
0011
0010
0110
0100
,  // measure 26
1100
1000
1001
1000
,  // measure 27
1010
0010
0110
0100
,  // measure 28
0101
0000
0011
0000
0000
0100
1000
0100
,  // measure 29
0000
1000
0001
1000
,  // measure 30
1000
0100
0010
0001
0100
0010
0001
0100
,  // measure 31
0002
0003
0000
0000
0010
0000
0100
0000
1000
0000
0000
0000
0100
0000
0000
0000
0010
0000
0000
0000
0001
0000
0010
0000
0000
0000
0000
0000
0100
0000
0000
0000
,  // measure 32
1000
0000
1000
0000
0010
0000
0100
0000
0001
0000
1000
0010
0000
0000
0100
0000
,  // measure 33
0001
0000
0001
0000
0010
0000
0100
0000
1000
0000
0100
0010
0000
0000
0001
0000
,  // measure 34
1000
0100
2000
3100
0020
0130
0002
0103
,  // measure 35
0020
0000
0130
0010
0100
0000
0001
0000
1000
0000
0100
0010
0000
0000
0001
0000
,  // measure 36
0010
0000
0010
0000
0100
0000
1000
0000
0100
0000
1000
0100
0000
0000
0010
0000
,  // measure 37
0001
0000
0001
0000
0010
0000
0001
0000
0100
0000
0010
1000
0000
0000
0100
0000
,  // measure 38
0010
0002
0203
0320
0230
2300
3020
0130
,  // measure 39
0100
0001
0010
0100
1000
0010
0100
0001
,  // measure 40
0010
0000
0100
0000
1000
0000
0010
0000
1000
0100
0010
0000
0001
0000
0100
0000
,  // measure 41
0010
1000
0100
0010
0100
1000
0100
0010
,  // measure 42
0001
0010
0200
0320
0032
2003
3200
0320
,  // measure 43
0031
0000
0010
0100
0010
0000
1000
0000
0001
0000
0100
0010
0000
0000
1000
0000
,  // measure 44
0100
0010
0001
0100
0010
0110
0110
0000
,  // measure 45
1001
0110
0011
1100
,  // measure 46
0101
0001
0010
0100
1000
1000
1000
0100
,  // measure 47
0010
0001
0200
0000
0000
0000
0000
0000
,  // measure 48
0000
0000
0000
0000
,  // measure 49
0000
0000
0000
0000
,  // measure 50
0000
0300
0000
0000
;

//---------------dance-single - ----------------
#NOTEDATA:;
#CHARTNAME:;
#STEPSTYPE:dance-single;
#DESCRIPTION:;
#CHARTSTYLE:;
#DIFFICULTY:Medium;
#METER:7;
#RADARVALUES:0.326087,0.397233,0.158103,0.128458,0.029644,202.000000,16.000000,13.000000,0.000000,0.000000,0.000000,0.000000,0.000000,0.326087,0.397233,0.158103,0.128458,0.029644,202.000000,16.000000,13.000000,0.000000,0.000000,0.000000,0.000000,0.000000;
#CREDIT:;
#NOTES:
0000
0000
0000
0000
,
0000
0000
0000
0000
,
0000
0000
0000
0000
,
0000
0000
0000
0000
,
0000
0000
0000
0000
0000
0000
1000
0000
0100
0000
0000
0100
0000
0000
0001
0000
,
0100
0000
0000
0100
0000
0000
0010
0000
1000
0000
0000
0100
0000
0000
0020
0000
,
0000
0200
0000
0000
,
0000
0000
0000
0330
,
1000
1000
0010
0010
,
0100
0100
0001
0001
,
0010
0000
0000
0000
0100
0000
0000
0100
0000
0000
0100
0000
0000
0000
1000
0000
,
0000
1000
0100
0010
0001
0000
0000
0000
,
0000
0000
0000
0000
1000
0100
1000
0000
,
0001
0000
0001
0000
0100
0010
0100
0010
,
0200
0000
0000
0302
0000
0000
0000
2000
,
0000
0000
0000
3003
,
0001
0000
0000
0001
0000
0000
0001
0000
,
0010
0000
0000
0010
0000
0000
0010
0000
,
0100
0000
0000
0100
0000
0000
0100
0000
,
1000
0000
0000
1000
0000
0000
1000
0000
,
1000
0100
1000
0000
0001
0100
0001
2000
,
3010
0100
0010
0000
0100
0010
0100
0000
,
0001
1000
1001
0110
,
1001
0000
1000
0010
,
0100
0001
0010
0100
,
1000
1000
0010
0100
,
0001
0010
0100
0010
,
0001
0000
0001
0000
0100
0010
0100
0000
,
0010
0100
0010
0000
1000
0001
1000
0000
,
0001
1000
0001
0000
0010
0000
0100
0000
,
1000
0100
0010
0001
0010
0100
1000
0000
,
0001
0000
1100
0000
1010
0010
0010
0000
,
0100
0000
0101
0000
0011
0010
0010
0000
,
0010
0000
1010
0000
1100
1000
1000
0000
,
0010
0000
0000
0000
0011
0000
0010
0000
0001
0000
0010
0000
0100
0000
0000
0100
,
0000
0100
2000
0000
3002
0010
0013
0000
,
0110
0000
0200
0000
0320
0100
0130
0000
,
1001
0000
2100
0000
0100
0100
3100
0000
,
0010
0001
0010
0100
1000
0100
0010
0001
,
0100
0010
0100
0001
0100
0010
1000
0100
,
0010
0001
0100
0010
0200
0000
0010
0000
,
0001
1300
0100
0110
,
0110
0000
0000
0000
1000
0000
0100
0000
0010
0000
0001
0000
0010
0000
0000
0010
,
0000
0010
0110
0000
1000
0100
0010
0000
,
0001
0000
0100
0000
0010
0100
0010
0000
,
1000
0000
1000
0000
1000
0100
1000
0000
,
0100
0000
0010
0001
0010
0100
1000
0100
,
0100
0100
0200
0000
0000
0000
0000
0000
,
0000
0000
0000
0000
,
0000
0000
0000
0000
,
0000
0300
0000
0000
;

//---------------dance-single - ----------------
#NOTEDATA:;
#CHARTNAME:;
#STEPSTYPE:dance-single;
#DESCRIPTION:;
#CHARTSTYLE:;
#DIFFICULTY:Easy;
#METER:6;
#RADARVALUES:0.256917,0.347579,0.059289,0.019763,0.000000,174.000000,6.000000,2.000000,0.000000,0.000000,0.000000,0.000000,0.000000,0.256917,0.347579,0.059289,0.019763,0.000000,174.000000,6.000000,2.000000,0.000000,0.000000,0.000000,0.000000,0.000000;
#CREDIT:;
#NOTES:
0000
0000
0000
0000
,
0000
0000
0000
0000
,
0000
0000
0000
0000
,
0000
0000
0000
0000
,
0000
0000
0010
0010
,
0100
0100
0001
0001
,
1000
2000
0000
0000
,
0000
0000
0000
3001
,
0010
0000
0100
0000
0100
1000
0100
0000
,
0100
0000
0010
0000
0001
0010
0001
0000
,
0100
0010
1000
0100
,
0100
0000
0010
0100
0010
0000
0000
0000
,
1000
0100
0010
0001
,
0100
0000
0010
0000
0010
0000
0100
0010
,
0100
0000
0000
0001
0000
0000
0000
1000
,
0000
0000
0000
0000
,
1000
0000
0000
1000
0000
0000
1000
0000
,
0001
0000
0000
0001
0000
0000
0001
0000
,
0100
0000
0000
0100
0000
0000
0100
0000
,
0010
0000
0000
0010
0000
0000
0010
0000
,
1000
0000
0000
0010
0000
0000
0100
0000
,
0001
0000
0000
0100
0000
0000
0010
0000
,
1000
0000
0000
0001
0000
0000
0100
0000
,
0010
1000
0100
0010
,
0001
0100
0001
0000
0000
0010
0000
0100
,
0000
1000
0000
0000
0000
0100
0001
0100
,
0000
0001
1000
0000
0000
0100
0000
0100
,
0000
0100
0000
0000
0000
0001
1000
0001
,
0000
0000
0001
0000
0000
1000
0001
1000
,
0000
1000
0000
0000
,
0001
0000
1000
0001
1000
0000
0000
0000
,
1001
0100
0100
0000
0001
0010
0100
0000
,
1000
0000
0100
0000
0010
0100
1000
0000
,
0100
0000
0010
0000
1000
0010
0100
0000
,
0001
1010
1100
0101
,
0011
0000
1001
0000
0100
0010
0001
0000
,
0100
0000
0010
0000
0100
0010
0100
0000
,
0001
0000
1000
0000
0001
0100
0010
0000
,
1000
0000
0100
0000
0010
1000
0100
0000
,
0001
0000
0001
0000
1000
1000
1000
0000
,
0001
0000
1000
0000
0001
0001
0001
0000
,
0010
1000
0100
0010
,
0001
0000
0100
0010
0100
0000
0010
0100
,
0010
1000
0010
1000
,
0100
0000
0001
0000
0010
0010
0010
0000
,
0001
0000
1000
0000
0100
0100
0100
0000
,
0010
0000
0001
0010
0100
1000
0010
0100
,
0001
0010
0200
0000
0000
0000
0000
0000
,
0000
0000
0000
0000
,
0000
0000
0000
0000
,
0000
0300
0000
0000
;
