#TITLE:RAGNAROK;
#SUBTITLE:;
#ARTIST:96;
#TITLETRANSLIT:;
#SUBTITLETRANSLIT:;
#ARTISTTRANSLIT:;
#GENRE:;
#CREDIT:;
#MENUCOLOR:;
#METERTYPE:DDR;
#BANNER:[Mythology] - RAGNAROK.png;
#BACKGROUND:[Mythology] - RAGNAROK-bg.png;
#JACKET:[Mythology] - RAGNAROK-jacket.png;
#LYRICSPATH:;
#CDTITLE:;
#MUSIC:[Mythology] - RAGNAROK.mp3;
#OFFSET:-0.533;
#SAMPLESTART:71.960;
#SAMPLELENGTH:12.000;
#SELECTABLE:YES;
#LISTSORT:;
#BPMS:0.000=108.000,24.000=184.000;
#STOPS:;
#BGCHANGES:;
#ATTACKS:;

//---------------dance-single - by Darkstorm091----------------
#NOTES:
     dance-single:
     by Darkstorm091:
     Hard:
     9:
     0.724,0.687,0.287,0.611,0.121: // measure 1
0000
0000
0000
0000
,  // measure 2
0000
0000
0000
0000
,  // measure 3
0000
0000
0000
0000
,  // measure 4
0000
0000
0000
0000
,  // measure 5
0000
0000
0000
0000
,  // measure 6
0000
0000
0000
0000
,  // measure 7
1000
1010
0000
0010
0100
0010
1000
0100
,  // measure 8
0010
0110
0000
0100
0010
0100
1000
0001
,  // measure 9
0100
0101
0000
0001
1000
0100
0010
0001
,  // measure 10
0101
0000
1010
0000
1000
0100
1000
0010
,  // measure 11
0100
0101
0000
0001
0010
0100
0010
0001
,  // measure 12
0100
0110
0000
0010
1000
0001
0010
0100
,  // measure 13
1000
1001
0000
0001
1000
0100
0010
0100
,  // measure 14
1100
0011
0101
1010
,  // measure 15
2000
0000
0000
0000
3001
0010
0001
0000
0020
0000
0000
0000
0230
0000
0000
0000
,  // measure 16
2300
0000
0000
0000
3001
1000
0001
0000
0020
0000
0000
0000
0032
0000
0000
0000
,  // measure 17
2003
0000
0000
0000
0010
0000
0000
0000
3002
0000
0000
0023
0000
0000
0031
0000
,  // measure 18
2000
0100
3002
0023
,  // measure 19
0031
0001
0010
0100
0100
1000
0010
1000
,  // measure 20
0100
0100
0010
0100
0100
1000
0001
0100
,  // measure 21
0220
0330
2020
3030
,  // measure 22
0201
0001
0001
0301
0000
1001
1001
0000
,  // measure 23
1000
0000
0100
0010
0100
0000
0010
0000
0001
0000
0100
0000
0010
0000
1000
0100
,  // measure 24
1000
0010
0100
0001
0011
0000
1100
0000
,  // measure 25
1000
0000
0010
0100
0010
0000
0100
0000
0001
0000
0010
0000
0100
0000
1000
0100
,  // measure 26
1000
0010
1000
0001
0101
0000
1010
0000
,  // measure 27
1000
0000
0001
0010
0001
0000
0010
0000
0100
0000
0010
0000
0001
0000
0100
0010
,  // measure 28
0100
0010
1000
0100
0110
0000
1001
0000
,  // measure 29
0100
0000
0010
1000
0010
0000
1000
0000
0001
0000
0010
0000
0100
0000
1000
0100
,  // measure 30
1000
0100
0010
0001
0100
0001
2000
0000
,  // measure 31
3001
0000
0010
0100
0010
0000
0100
0000
1000
0000
0010
0000
0100
0000
0001
0000
,  // measure 32
0010
0000
0001
0010
0001
0000
1000
0000
0010
0000
0100
0000
0010
0000
1000
0000
,  // measure 33
0100
0000
1000
0100
1000
0000
0100
0000
0010
0000
0001
0000
0100
0000
0010
0000
,  // measure 34
1000
0001
1000
0100
0010
0001
0010
0100
,  // measure 35
2000
0100
0001
3020
,  // measure 36
0230
0000
0000
0302
1000
0000
0023
0000
,  // measure 37
0230
0000
0001
0000
0010
0310
0001
0100
,  // measure 38
0020
0000
0100
0200
0000
0000
0030
0000
,  // measure 39
0301
0000
0010
0100
0010
0000
0001
0000
0100
0000
0010
0000
1000
0000
0100
0000
,  // measure 40
0010
0000
0001
0010
0001
0000
0010
0000
0100
0000
1000
0000
0010
0000
0100
0000
,  // measure 41
0010
0000
1000
0100
1000
0000
0001
0000
1000
0000
0010
0000
0100
0000
0001
0000
,  // measure 42
1000
0100
0010
0100
0010
0001
0200
0000
,  // measure 43
0320
0000
0130
0002
0000
1003
0200
0000
,  // measure 44
0320
0000
0031
0020
0000
0031
1000
0000
,  // measure 45
0220
0330
0202
0303
,  // measure 46
2010
0000
0010
0000
0010
0000
3010
0000
0000
0000
0001
1000
0001
1000
0001
0000
,  // measure 47
2000
0000
0010
0000
3100
0010
0001
0020
,  // measure 48
1000
0000
0230
0000
0320
0000
0031
0020
,  // measure 49
1000
0000
0230
0000
0320
0000
0031
0100
,  // measure 50
0020
0000
0001
0000
0130
0010
0100
0001
,  // measure 51
2000
0000
0100
0000
3010
0100
0001
0020
,  // measure 52
1000
0230
0320
0032
,  // measure 53
0203
0000
1000
0000
0000
0310
0100
0001
,  // measure 54
0010
0100
0010
0001
0100
0010
1000
0100
,  // measure 55
2000
0000
0100
0000
3010
0100
0001
0020
,  // measure 56
1000
0000
0230
0000
0320
0000
0031
0200
,  // measure 57
0001
0000
0320
0000
0230
0000
0301
1000
,  // measure 58
0200
0000
0001
0000
0310
0100
0010
0001
,  // measure 59
0200
0000
1000
0000
0310
0100
0001
2000
,  // measure 60
0010
0000
3200
0000
1300
0010
0200
0000
,  // measure 61
0320
0000
1000
0000
0230
0000
0301
2000
,  // measure 62
0000
0000
0100
0000
,  // measure 63
3001
0100
0010
1000
0100
0010
0100
1000
,  // measure 64
0010
0100
0001
0010
0100
1000
0100
0010
,  // measure 65
0100
1000
0010
0001
0010
1000
0001
0010
,  // measure 66
0100
1000
0100
0010
0100
1000
0010
0100
,  // measure 67
1000
0100
0010
0001
0010
1000
0001
0010
,  // measure 68
0001
0100
0010
1000
0200
0000
0000
0000
,  // measure 69
0310
0000
0001
1000
0001
0000
1000
0000
0010
0000
1000
0000
0100
0000
0010
0001
,  // measure 70
0010
0100
0010
0001
0101
0000
1010
0000
,  // measure 71
1000
0000
0010
1000
0010
0000
0100
0000
0001
0000
0010
0000
0100
0000
0010
0001
,  // measure 72
0010
0001
0100
0010
0110
0000
1001
0000
,  // measure 73
1000
0000
0001
0010
0001
0000
0010
0000
0100
0000
0010
0000
0100
0000
1000
0010
,  // measure 74
1000
0100
1000
0001
0011
0000
1100
0000
,  // measure 75
1000
0000
0001
0100
0001
0000
0010
0000
0100
0000
1000
0000
0010
0000
1000
0001
,  // measure 76
1000
0001
0100
0010
1000
0100
0010
0002
,  // measure 77
0000
0000
0003
0000
;

//---------------dance-single - by Darkstorm091----------------
#NOTES:
     dance-single:
     by Darkstorm091:
     Beginner:
     2:
     0.154,0.238,0.054,0.000,0.000:
0000
0000
0000
0000
,
0000
0000
0000
0000
,
0000
0000
0000
0000
,
0000
0000
0000
0000
,
0000
0000
0000
0000
,
0000
0000
0000
0000
,
1000
0000
0000
0000
,
0001
0000
0000
0000
,
1000
0000
0000
0000
,
0001
1000
0001
0000
,
0100
0000
0000
0000
,
0010
0000
0000
0000
,
0100
0000
0000
0000
,
0010
0100
0010
0000
,
1000
0000
0001
0001
,
0001
0000
0100
0000
,
0010
0000
0100
0000
,
0010
0000
0100
0000
,
0001
0000
0000
1000
,
1000
0000
0000
0000
,
1001
0000
1001
0000
,
1001
0000
0000
0000
,
1000
0000
0000
0001
,
0000
0000
1000
0001
,
0100
0000
0000
0010
,
0000
0000
0100
0010
,
1000
0000
0000
0001
,
0000
0000
1000
0001
,
0100
0000
0000
0010
,
0000
0000
0100
0010
,
0100
0000
0000
0000
,
0010
0000
0000
0000
,
1000
0000
0000
0000
,
0001
0000
0000
0000
,
0010
0000
0000
0000
,
0100
0000
0000
0000
,
0010
0000
0000
0000
,
0001
0000
0000
0000
,
1000
0000
0000
0000
,
0001
0000
0000
0000
,
0100
0000
0000
0000
,
0010
0000
0000
0000
,
0100
0000
0000
0010
,
0100
0000
0000
0001
,
1001
0000
0110
0000
,
1001
0000
0000
0000
,
1000
0000
1000
0000
,
0001
0000
0001
0000
,
1000
0000
1000
0000
,
0001
0000
0001
0000
,
0100
0000
0100
0000
,
0010
0000
0010
0000
,
0100
0000
0100
0000
,
0010
0000
0000
0000
,
1000
0000
0001
0000
,
1000
0000
0001
0000
,
0100
0000
0010
0000
,
0100
0000
0010
0000
,
1000
0000
0001
0000
,
1000
0000
0001
0000
,
0100
0000
0010
0000
,
0100
0000
0000
0000
,
0001
0000
0000
0000
,
0010
0000
0000
0000
,
0100
0000
0000
0000
,
1000
0000
0000
0000
,
0100
0000
0000
0000
,
0010
0000
0000
0000
,
0001
0000
0000
1000
,
0000
0000
0001
0001
,
0010
0000
0000
0100
,
0000
0000
0010
0010
,
0001
0000
0000
1000
,
0000
0000
0001
0001
,
0010
0000
0000
0100
,
0000
0000
0010
0100
;

//---------------dance-single - by Darkstorm091----------------
#NOTES:
     dance-single:
     by Darkstorm091:
     Easy:
     4:
     0.393,0.515,0.225,0.620,0.000:
0000
0000
0000
0000
,
0000
0000
0000
0000
,
0000
0000
0000
0000
,
0000
0000
0000
0000
,
0000
0000
0000
0000
,
0000
0000
0000
0000
,
1000
0000
0010
0100
,
0001
0000
0010
0100
,
0010
0000
0001
0100
,
0110
0110
0100
0001
,
1000
0000
0010
0100
,
0001
0000
1000
0001
,
0010
0000
0100
0001
,
1001
1001
1001
1001
,
2000
0000
3020
0230
,
0302
0000
0023
0230
,
0320
0000
0032
0000
,
2003
0000
3020
0230
,
0301
0000
1000
0000
0000
0001
0000
0000
,
1000
0000
0010
0000
0000
0100
0000
0000
,
0220
0330
0202
0303
,
2020
3030
0000
1001
,
0100
0000
0000
0010
0000
0000
0100
0000
,
0000
0001
0000
0000
1001
0000
1001
0000
,
1000
0000
0000
0001
0000
0000
0010
0000
,
0000
0100
0000
0000
0110
0000
0110
0000
,
0010
0000
0000
0100
0000
0000
0001
0000
,
0000
1000
0000
0000
1001
0000
1001
0000
,
0001
0000
0000
1000
0000
0000
0010
0000
,
0000
0100
0000
0000
0010
0000
0200
0000
,
0310
0100
0001
1000
,
0001
0010
0100
0010
,
0001
0100
0001
1000
,
0010
1000
0001
0100
,
0020
0000
0000
0230
,
0302
0000
0000
2003
0000
0000
3200
0000
,
0320
0000
0000
0031
,
0200
0000
0000
0020
0000
0000
0300
0000
,
0130
0010
1000
0001
,
0010
0001
0010
0100
,
1000
0010
0100
0001
,
0010
0001
0010
0100
,
2000
0000
0000
3020
0000
0000
0230
0000
,
0302
0000
0000
0023
0000
0000
0130
0000
,
0220
0330
0202
0303
,
2020
0000
0000
3030
,
2000
0000
0000
0000
0000
3001
0000
0200
,
0000
0000
0320
0000
0230
0000
0000
0302
,
0000
0203
0320
1030
,
0002
0000
0100
0000
,
2003
0000
0000
0000
0000
3010
0000
0200
,
0000
0302
0023
0230
,
0320
0000
0000
0000
0000
0031
0000
0200
,
0000
0301
0100
0010
,
2000
0000
0000
0000
0000
3001
0000
0200
,
0000
0000
0320
0000
0230
0000
0000
0302
,
0000
0023
0230
1300
,
0020
0000
1000
0000
,
0230
0000
0000
0000
0000
0310
0000
0200
,
0000
0302
1003
0200
,
2300
0000
0000
0000
3002
0000
0000
0203
,
0000
0000
0010
0000
,
0301
0010
0100
0010
,
0001
1000
0010
1000
,
0100
0010
0100
0010
,
0001
0100
0001
1000
,
0010
1000
0001
0010
,
0001
0010
0200
0000
,
0310
0000
0000
0001
0000
0000
1000
0000
,
0000
0010
0000
0000
0110
0000
0110
0000
,
0100
0000
0000
0001
0000
0000
1000
0000
,
0000
0001
0000
0000
1001
0000
1001
0000
,
1000
0000
0000
0010
0000
0000
1000
0000
,
0000
0001
0000
0000
0011
0000
0011
0000
,
0010
0000
0000
0100
0000
0000
1000
0000
,
0000
0010
0000
0000
1000
0000
0002
0000
,
0000
0000
0003
0000
;

//---------------dance-single - by Darkstorm091----------------
#NOTES:
     dance-single:
     by Darkstorm091:
     Medium:
     6:
     0.545,0.584,0.216,0.620,0.000:
0000
0000
0000
0000
,
0000
0000
0000
0000
,
0000
0000
0000
0000
,
0000
0000
0000
0000
,
0000
0000
0000
0000
,
0000
0000
0000
0000
,
1000
0001
0000
0100
0010
0100
0010
0000
,
0100
0001
0000
0010
0100
0010
0100
0000
,
0010
0001
0000
1000
0010
1000
0010
0000
,
1100
0000
0011
0000
0001
0100
0001
0000
,
1000
0010
0000
0100
0010
0100
0010
0000
,
0100
0001
0000
0010
0001
0010
0001
0000
,
0010
0100
0000
1000
0100
1000
0100
0000
,
1010
0101
1010
0101
,
2000
0000
3001
1000
0002
0000
0203
0000
,
0320
0000
0130
0010
0200
0000
0320
0000
,
2030
0000
0100
0000
3002
0000
0000
0013
,
0200
0010
0302
2003
,
3100
0000
0010
0100
0000
1000
0001
0000
,
0100
0000
0010
0100
0000
0010
1000
0000
,
0220
0330
0202
0303
,
2020
0000
3030
0000
0000
1000
0001
0000
,
0100
0000
0001
0010
0000
0100
0010
0000
,
0001
0100
0001
0000
0101
0000
1010
0000
,
1000
0000
0100
0010
0000
0001
0010
0000
,
0100
0010
0100
0000
0110
0000
1001
0000
,
1000
0000
0010
0100
0000
0001
0010
0000
,
0100
1000
0100
0000
1100
0000
0011
0000
,
0001
0000
0100
0010
0000
1000
0100
0000
,
0010
0001
0000
1000
0100
0010
0002
0000
,
1003
0100
1000
0000
0010
0000
0100
0000
,
0001
0010
0001
0000
0010
0000
0100
0000
,
1000
0010
1000
0000
0010
0000
0100
0000
,
0001
0010
0001
0000
0010
0100
0010
0100
,
0020
0100
0000
0032
,
2003
0000
0000
3020
0000
0000
0230
0000
,
0302
0000
0010
0000
0000
1003
0100
1000
,
0200
0000
0000
0020
0000
0000
0300
0000
,
0130
1000
0100
0000
0010
0000
0001
0000
,
0100
0001
0100
0000
0001
0000
1000
0000
,
0100
1000
0100
0000
0010
0000
0100
0000
,
1000
0100
0010
0001
0010
0100
1000
0000
,
0002
0000
0000
0203
0000
0000
0320
0000
,
2030
0000
0000
3200
0000
0000
0310
0000
,
0220
0330
0202
0303
,
2020
0000
3030
0000
0000
0001
0010
0100
,
2000
0000
0100
0000
3010
0100
0010
0200
,
0000
0000
0302
0000
0023
0000
0130
0020
,
0000
0000
0032
0000
2003
0000
3010
1000
,
0020
1000
1000
1000
,
0230
0000
0010
0000
0301
1000
0001
2000
,
0000
3020
0230
0302
,
0023
0000
0001
0000
0000
0130
0010
0200
,
0000
0000
1300
0100
0010
0001
0010
0100
,
2000
0000
0100
0000
3001
0100
0001
0200
,
0000
0000
0320
0000
0230
0000
0301
2000
,
0000
0000
3200
0000
0320
0000
0031
0010
,
0002
0010
0010
0010
,
0203
0000
0001
0000
0310
1000
0010
2000
,
0000
0000
3002
0000
0103
0010
0200
0000
,
0320
0000
0100
0000
2030
0000
3001
0020
,
0000
0000
0001
0000
,
0130
0010
0100
0000
0001
0000
1000
0000
,
0100
1000
0100
0000
0010
0000
0001
0000
,
0100
0010
0100
0000
0001
0000
1000
0000
,
0100
1000
0100
0000
1000
0000
0001
0000
,
1000
0100
1000
0000
0100
0010
0100
0000
,
0010
0001
0010
0000
0002
0000
0000
0000
,
1003
0000
0001
0100
0000
0010
1000
0000
,
0100
0010
0100
0000
0110
0000
1001
0000
,
1000
0000
0001
0100
0000
0001
0010
0000
,
0100
1000
0100
0000
1100
0000
0011
0000
,
0001
0000
0100
0010
0000
1000
0010
0000
,
0100
0001
0100
0000
0101
0000
1010
0000
,
1000
0000
0010
0100
0000
0001
1000
0000
,
0100
0010
0100
0000
1000
0100
0010
0002
,
0000
0000
0003
0000
;
