#TITLE:PANDORA;
#SUBTITLE:;
#ARTIST:KARA;
#TITLETRANSLIT:;
#SUBTITLETRANSLIT:;
#ARTISTTRANSLIT:;
#GENRE:Synthpop;
#CREDIT:vincentw;
#BANNER:[Mythology] - PANDORA.png;
#BACKGROUND:[Mythology] - PANDORA-bg.png;
#LYRICSPATH:[Mythology] - PANDORA.lrc;
#CDTITLE:cdtitle.png;
#MUSIC:[Mythology] - PANDORA.ogg;
#OFFSET:0.020000;
#SAMPLESTART:5.122858;
#SAMPLELENGTH:13.714285;
#SELECTABLE:YES;
#BPMS:0.000000=140.000000
,208.000000=70.000000
,216.000000=140.000000
;
#STOPS:
;
#BGCHANGES:0.000=[Mythology] - PANDORA-bg.png=1.000=1=0=0=StretchNoLoop==CrossFade==,
99999=-nosongbg-=1.000=0=0=0 // don't automatically add -songbackground-
;
#KEYSOUNDS:;
#ATTACKS:;

//---------------dance-single - ----------------
#NOTES:
     dance-single:
     :
     Beginner:
     2:
     0.148699,0.167286,0.052045,0.044610,0.000000,127.000000,7.000000,6.000000,0.000000,0.000000,0.000000,0.148699,0.167286,0.052045,0.044610,0.000000,127.000000,7.000000,6.000000,0.000000,0.000000,0.000000:
// measure 0
0000
0000
0000
0000
,  // measure 1
0000
0000
0000
0000
,  // measure 2
0000
0000
0000
0000
,  // measure 3
1000
0000
0000
0000
,  // measure 4
0001
0000
0000
0000
,  // measure 5
0100
0000
0000
0000
,  // measure 6
0010
0000
0000
0000
,  // measure 7
1000
0000
1000
0000
,  // measure 8
0001
0000
0001
0000
,  // measure 9
0100
0000
0100
0000
,  // measure 10
0010
0000
0010
0000
,  // measure 11
1000
0000
0000
0000
,  // measure 12
0001
0000
0000
0000
,  // measure 13
0010
0000
0000
0000
,  // measure 14
0100
0000
0000
0000
,  // measure 15
1000
0000
0000
0000
,  // measure 16
0001
0000
0000
0000
,  // measure 17
0100
0000
0000
0000
,  // measure 18
0010
0000
0000
0000
,  // measure 19
1000
0000
0010
0000
,  // measure 20
1000
0000
0000
0000
,  // measure 21
0001
0000
0100
0000
,  // measure 22
0001
0000
0000
0000
,  // measure 23
1000
0000
0100
0000
,  // measure 24
1000
0000
0000
0000
,  // measure 25
0001
0000
0010
0000
,  // measure 26
0002
0000
0000
0003
,  // measure 27
1000
0000
1000
0000
,  // measure 28
0001
0000
0001
0000
,  // measure 29
0010
0000
0010
0000
,  // measure 30
0100
0100
0100
0000
,  // measure 31
1000
0000
1000
0000
,  // measure 32
0010
0000
0010
0000
,  // measure 33
0100
0000
0100
0000
,  // measure 34
0001
0000
1000
0000
,  // measure 35
1001
0000
0000
0000
,  // measure 36
0100
0000
0010
0000
,  // measure 37
0110
0000
0000
0000
,  // measure 38
1000
0000
0001
0000
,  // measure 39
0010
0000
0000
0000
,  // measure 40
0100
0000
1000
0000
,  // measure 41
0001
0000
1000
0000
,  // measure 42
0100
0000
0010
0000
,  // measure 43
0001
0001
0001
0000
,  // measure 44
1000
1000
1000
0000
,  // measure 45
0010
0010
0010
0000
,  // measure 46
0100
0100
0100
0000
,  // measure 47
0010
0000
0100
0000
,  // measure 48
0001
0000
1000
0000
,  // measure 49
0100
0000
0010
0000
,  // measure 50
0002
0000
2003
0000
,  // measure 51
3020
0000
0000
0000
,  // measure 52
0130
0000
0001
0000
,  // measure 53
0010
0000
0001
0000
,  // measure 54
0100
0100
0100
0000
,  // measure 55
0010
0010
0010
0000
,  // measure 56
1000
1000
1000
0000
,  // measure 57
0002
0000
0000
0000
,  // measure 58
0000
0000
0000
0000
,  // measure 59
0003
1001
0000
0000
,  // measure 60
0001
0000
1000
0000
,  // measure 61
0010
0000
0100
0000
,  // measure 62
0010
0010
0100
0100
,  // measure 63
0010
0000
1000
0000
,  // measure 64
0001
0000
0010
0000
,  // measure 65
0100
0000
1000
0000
,  // measure 66
0002
0000
0000
0003
,  // measure 67
1001
0000
0000
0000
,  // measure 68
0100
0000
0010
0000
,  // measure 69
0110
0000
0000
0000
,  // measure 70
1000
0000
0001
0000
,  // measure 71
1001
0000
0000
0000
,  // measure 72
1000
0000
0100
0000
,  // measure 73
0010
0000
0001
0000
,  // measure 74
0010
0000
0100
0000
,  // measure 75
0110
0000
0000
0000
;

//---------------dance-single - ----------------
#NOTES:
     dance-single:
     :
     Easy:
     3:
     0.226235,0.223048,0.044610,0.066914,0.000000,198.000000,6.000000,9.000000,0.000000,0.000000,0.000000,0.226235,0.223048,0.044610,0.066914,0.000000,198.000000,6.000000,9.000000,0.000000,0.000000,0.000000:
// measure 0
0000
0000
0000
0000
,  // measure 1
0000
0000
0000
0000
,  // measure 2
0000
0000
0000
0000
,  // measure 3
1000
0000
0001
0000
,  // measure 4
1000
1000
0001
0000
,  // measure 5
0100
0000
0010
0000
,  // measure 6
0100
0100
0010
0000
,  // measure 7
1000
0000
0010
0000
,  // measure 8
1000
1000
0010
0000
,  // measure 9
0100
0000
0001
0000
,  // measure 10
0100
0000
0001
0001
,  // measure 11
1000
0000
0001
0100
,  // measure 12
0001
0000
1000
0010
,  // measure 13
1000
0000
0001
0010
,  // measure 14
0001
0000
1000
0100
,  // measure 15
1000
0000
0010
0100
,  // measure 16
0010
0000
1000
0001
,  // measure 17
1000
0000
0001
0000
,  // measure 18
1000
0100
0010
0001
,  // measure 19
1000
0000
0010
0000
,  // measure 20
0100
0100
0001
0000
,  // measure 21
0010
0000
0100
0000
,  // measure 22
1000
1000
0001
0000
,  // measure 23
0100
0000
0010
0000
,  // measure 24
1000
0000
0001
0000
,  // measure 25
1000
0000
0010
0000
,  // measure 26
0200
0000
0301
0001
,  // measure 27
1000
0000
0001
0000
,  // measure 28
0010
0000
0100
0100
,  // measure 29
0010
0000
0001
0000
,  // measure 30
0100
0000
0010
1000
,  // measure 31
0010
0000
0100
0000
,  // measure 32
0001
0000
0010
0010
,  // measure 33
0100
0000
1000
0000
,  // measure 34
0002
0000
0103
0001
,  // measure 35
0100
0000
0010
0000
,  // measure 36
1000
0000
0010
1000
,  // measure 37
0010
0000
1000
0000
,  // measure 38
0100
0000
1000
0100
,  // measure 39
1000
0000
0001
0000
,  // measure 40
0010
0000
0001
0010
,  // measure 41
0001
0000
0010
0000
,  // measure 42
0100
0000
1000
1000
,  // measure 43
1000
0000
0100
0010
,  // measure 44
0001
0000
0010
0100
,  // measure 45
1000
0000
0010
0100
,  // measure 46
0001
0000
0001
0100
,  // measure 47
0010
0000
0010
0000
,  // measure 48
1000
1000
1000
0000
,  // measure 49
0001
0001
0001
0000
,  // measure 50
0100
0000
1000
0000
,  // measure 51
0200
0000
0002
0000
,  // measure 52
0303
0100
0001
0010
,  // measure 53
0100
1000
0010
0100
,  // measure 54
0001
0001
1000
1000
,  // measure 55
0100
0100
1000
1000
,  // measure 56
0001
0001
0010
0010
,  // measure 57
0200
0000
0000
0000
,  // measure 58
2300
0000
0002
0000
,  // measure 59
3003
1001
0001
1000
,  // measure 60
0100
0010
0100
1000
,  // measure 61
0001
0000
0010
0000
,  // measure 62
0100
0010
0001
1000
,  // measure 63
0010
0010
1000
0001
,  // measure 64
0100
0100
0001
1000
,  // measure 65
0001
0010
0100
1000
,  // measure 66
2002
0000
0000
3003
,  // measure 67
1001
0000
0010
0000
,  // measure 68
0100
0010
0100
0000
,  // measure 69
0110
0000
1000
0000
,  // measure 70
0100
0010
0001
0000
,  // measure 71
0011
0000
0100
0000
,  // measure 72
1000
0000
0010
0000
,  // measure 73
0100
0001
0010
0001
,  // measure 74
1000
0010
0100
0001
,  // measure 75
0110
0000
0000
0000
;

//---------------dance-single - ----------------
#NOTES:
     dance-single:
     :
     Medium:
     6:
     0.381306,0.557621,0.230483,0.141264,0.078067,309.000000,31.000000,19.000000,0.000000,0.000000,0.000000,0.381306,0.557621,0.230483,0.141264,0.078067,309.000000,31.000000,19.000000,0.000000,0.000000,0.000000:
// measure 0
0000
0000
0000
0000
,  // measure 1
0000
0000
0000
0000
,  // measure 2
0000
0000
0000
0000
,  // measure 3
1000
0000
0000
1001
0000
0000
0000
0000
,  // measure 4
0001
0000
0000
1000
0000
0000
0001
0000
0000
0000
1001
0000
0000
0000
0000
0000
,  // measure 5
0100
0000
0000
0110
0000
0000
0000
0000
,  // measure 6
0010
0000
0000
0100
0000
0000
0010
0000
0000
0000
0110
0000
0000
0000
0000
0000
,  // measure 7
1000
0000
0000
1100
0000
0000
0000
0000
,  // measure 8
0100
0000
0000
1000
0000
0000
0100
0000
0000
0000
1100
0000
0000
0000
0000
0000
,  // measure 9
0010
0000
0000
0011
0000
0000
0000
0000
,  // measure 10
0001
0000
0000
0022
0000
0000
0033
0000
,  // measure 11
0100
0010
1000
0010
,  // measure 12
0100
0001
0010
0000
,  // measure 13
0010
0001
0010
0100
,  // measure 14
1000
0100
1000
0000
,  // measure 15
1000
0010
0001
0010
,  // measure 16
0100
0000
0001
0000
0010
0000
0000
0011
,  // measure 17
0000
0000
0000
1001
0000
0000
0000
0000
,  // measure 18
0010
0000
0100
0010
0000
1000
0010
0100
,  // measure 19
0000
0000
0001
0000
0010
0000
0100
0010
,  // measure 20
0000
0001
0010
0000
0100
1000
0001
0000
,  // measure 21
0010
0000
1000
0000
0010
0000
0001
0100
,  // measure 22
0000
0010
0100
0000
0001
0010
0001
0000
,  // measure 23
1000
0100
1000
0010
,  // measure 24
0002
0000
0023
0000
,  // measure 25
2030
0000
0100
0000
0001
0000
0010
3000
,  // measure 26
1000
0010
1000
0020
0000
0000
0130
0001
,  // measure 27
0000
0000
0000
0010
0100
0000
1000
0001
,  // measure 28
0000
0000
1001
0000
0000
1000
0100
0010
,  // measure 29
0000
0001
0100
0010
0000
1000
0001
0010
,  // measure 30
0000
0010
0000
0200
0000
0000
0310
0001
,  // measure 31
0000
0000
0000
0100
0010
0000
1000
0001
,  // measure 32
0000
0000
1001
0000
0000
0001
0010
0200
,  // measure 33
0000
2000
0000
0000
0000
0000
3300
0100
,  // measure 34
0010
0000
0000
0000
0010
0100
1000
0001
,  // measure 35
0000
1001
0000
0000
0100
0000
0001
0000
,  // measure 36
0010
0000
0100
0000
1000
0001
0100
0010
,  // measure 37
0000
0110
0000
0000
1000
0000
0010
0000
,  // measure 38
0100
0000
0001
0000
0010
1000
0010
0001
,  // measure 39
0000
0011
0000
0000
0100
0000
0001
0000
,  // measure 40
0010
0100
1000
1001
,  // measure 41
0000
0000
0010
0000
0001
1000
0000
0100
,  // measure 42
0000
0010
0100
2000
0000
0000
3000
0000
,  // measure 43
1000
0000
0000
0001
0000
0000
1000
0000
0001
0000
0000
0000
1001
0000
0000
0000
,  // measure 44
0100
0000
0000
0010
0000
0000
0100
0000
0010
0000
0000
0000
0110
0000
0000
0000
,  // measure 45
1000
0000
0000
0010
0000
0000
1000
0000
0010
0000
0000
0000
1010
0000
0000
0000
,  // measure 46
0100
0000
0000
0001
0000
0000
0100
0000
0001
0000
0000
0000
0101
0000
0000
0000
,  // measure 47
0010
0100
0010
0000
0100
0001
0100
0000
,  // measure 48
0001
0010
0001
0000
0010
0100
0010
0000
,  // measure 49
0100
1000
0100
0000
1000
0010
1000
0000
,  // measure 50
0010
0000
0000
0010
0000
0000
0010
0000
1000
0000
0000
1000
0000
0000
1000
0000
,  // measure 51
0002
0000
0000
0000
0200
0000
0000
0303
,  // measure 52
0000
0000
0000
0000
0010
0001
0010
0001
0000
0010
0100
0010
0000
0100
1000
0100
,  // measure 53
0000
0000
0000
0000
1000
0010
0100
0001
0000
0010
0100
1000
0000
0001
0100
0010
,  // measure 54
0000
0000
0000
0000
1000
0010
1000
0001
,  // measure 55
0010
0000
0000
0000
0000
0100
1000
0100
,  // measure 56
0000
0010
0001
0010
0000
0000
0010
0000
,  // measure 57
0200
0000
0310
0001
2000
0000
0000
3000
,  // measure 58
1000
0010
1000
0010
0000
0000
0100
0010
,  // measure 59
0100
0000
1001
0000
0010
0000
0100
0010
,  // measure 60
0000
0000
0110
0000
0000
0001
0010
0100
,  // measure 61
0000
1000
0010
0100
0000
0001
1000
0100
,  // measure 62
0000
0100
0000
0020
0000
0000
0130
1000
,  // measure 63
0000
0000
0000
0100
0010
0000
0001
0100
,  // measure 64
0000
0000
0101
0000
0000
0001
1000
0020
,  // measure 65
0000
0200
0000
0000
0000
0000
0330
0002
,  // measure 66
2000
0000
3003
0000
0001
0100
0010
0100
,  // measure 67
0000
0110
0000
0000
1001
0000
0000
1000
,  // measure 68
0000
0100
0000
0010
0001
0100
0001
0010
,  // measure 69
0000
0011
0000
0000
0010
0100
1000
0100
,  // measure 70
0000
1100
0000
0000
0010
1000
0001
0100
,  // measure 71
0000
0101
0000
0000
1001
0000
0000
1010
,  // measure 72
0000
0010
0000
1000
0000
0010
1000
0000
,  // measure 73
0000
0100
0010
0000
0001
1000
0000
0010
,  // measure 74
0000
1000
0100
0001
0000
0000
0100
0000
,  // measure 75
1001
0000
0000
0000
;

//---------------dance-single - ----------------
#NOTES:
     dance-single:
     :
     Hard:
     9:
     0.629846,0.780669,0.453532,0.156134,0.379182,511.000000,61.000000,21.000000,0.000000,0.000000,0.000000,0.629846,0.780669,0.453532,0.156134,0.379182,511.000000,61.000000,21.000000,0.000000,0.000000,0.000000:
// measure 0
0000
0000
0000
0000
,  // measure 1
0000
0000
0000
0000
,  // measure 2
0000
0000
0000
0000
,  // measure 3
0001
1000
0010
0000
0001
0010
0000
1000
,  // measure 4
0000
0001
0100
0000
1000
0200
0000
0000
,  // measure 5
0300
0010
1000
0000
0001
0010
0000
0001
,  // measure 6
0000
1000
0100
1000
0010
0000
0000
0000
,  // measure 7
1000
0001
0100
0000
1000
0100
0000
0001
,  // measure 8
0000
1000
0010
0000
0001
0020
0000
0000
,  // measure 9
0030
0100
0001
0000
1000
0100
0000
1000
,  // measure 10
0000
0000
0001
0000
0010
0000
0002
0000
0000
0000
0000
0000
0013
0000
0100
1000
,  // measure 11
0001
0010
0100
1000
0001
0100
0010
1000
,  // measure 12
0100
0000
0000
0010
0100
0000
2000
0000
0000
0000
0002
0000
0000
0000
3003
0000
,  // measure 13
0010
0001
1000
0010
0100
0001
1000
0100
,  // measure 14
0001
0000
0000
0100
1000
0000
0020
0000
0000
0000
0200
0000
0000
0000
0330
0000
,  // measure 15
0100
0001
1000
0010
0100
1000
0001
0010
,  // measure 16
1000
0000
0000
0001
1000
0000
0200
0000
0000
0000
0020
0000
0000
0000
0330
0000
,  // measure 17
0001
0100
0010
0001
1000
0100
0010
1000
,  // measure 18
0100
0000
1000
0100
0010
0000
0001
0000
0000
1000
0010
0000
0100
0000
1000
0100
,  // measure 19
0001
0010
1000
0001
0100
1000
0010
0000
,  // measure 20
0100
0000
0001
0000
0010
0000
1000
0000
0001
0000
0100
1000
0100
0000
0000
0000
,  // measure 21
1000
0100
0001
1000
0010
0001
0100
0000
,  // measure 22
0010
0000
1000
0000
0100
0000
0001
0000
1000
0000
0010
0001
0010
0000
0000
0000
,  // measure 23
0001
1000
0100
0010
0001
0100
1000
0000
,  // measure 24
0001
0000
0010
0000
1000
0000
0100
0000
0010
0000
0001
0100
0001
0000
0000
0000
,  // measure 25
1000
0001
0010
0100
1000
0010
0001
0000
,  // measure 26
1000
0000
0000
0100
0000
0000
0001
0000
0000
0010
0000
0000
0100
0000
1000
0000
0010
0000
1000
0000
0000
0000
0000
0000
,  // measure 27
0010
0000
0100
0000
0110
0000
0000
0000
0101
0000
0000
1010
0000
0000
1001
0000
,  // measure 28
0000
0100
1100
0000
0002
0000
0203
0000
,  // measure 29
0320
0000
0000
0000
0030
1000
0001
0100
,  // measure 30
0010
1000
0100
0010
0001
0010
0011
0000
,  // measure 31
0100
0000
0010
0000
0110
0000
0000
0000
1010
0000
0000
0101
0000
0000
1001
0000
,  // measure 32
0000
0100
1100
0000
2000
0000
3020
0000
,  // measure 33
0230
0000
0000
0000
0300
0001
1000
0100
,  // measure 34
0010
0001
0100
1000
0100
0001
0010
0011
,  // measure 35
0000
0000
1010
0000
0000
0101
0000
0000
,  // measure 36
0001
0000
0000
0000
0011
0000
0000
0000
0000
0000
1100
0000
0000
0000
1000
0100
,  // measure 37
1000
0000
1001
0000
0000
0110
0000
0000
,  // measure 38
0100
0000
0000
0000
0101
0000
0000
0000
0000
0000
0011
0000
0000
0000
0001
0010
,  // measure 39
0001
0101
1100
1010
,  // measure 40
0011
0000
0000
0000
1001
0000
0000
0000
0110
0000
0000
0100
0010
0000
0000
0000
,  // measure 41
1000
0000
1010
0000
0001
0100
0000
0010
,  // measure 42
0001
0000
1000
0000
0100
0000
0002
0000
0000
0000
0000
0013
0100
0000
1000
0100
,  // measure 43
1000
0000
0000
0001
0000
0000
0010
1000
0010
0000
0000
0100
0000
0000
1000
0000
,  // measure 44
0001
0000
0010
0000
0100
0010
0001
0100
0010
0000
0000
0001
0000
0000
0010
1000
,  // measure 45
0100
0001
0000
1000
0000
0010
0001
0000
0000
0000
0100
0000
0000
0000
0010
0000
,  // measure 46
0001
0010
1000
0100
0010
0001
0100
1000
0100
0000
0010
1000
0002
0000
0000
0003
,  // measure 47
1001
0000
1000
0001
1000
0000
0000
0000
0001
0010
0100
1000
0001
0100
0010
1000
,  // measure 48
0000
0000
0010
0100
0010
0000
0000
0000
1000
0100
1000
0010
0100
1000
0001
0010
,  // measure 49
0000
0000
1000
0010
1000
0000
0000
0000
0001
0010
0001
0000
1000
0001
0100
0000
,  // measure 50
0101
0000
0000
1100
0000
0000
1010
0000
1001
0000
0000
0011
0000
0000
0110
0000
,  // measure 51
2001
0000
0000
0000
0002
0000
0000
3003
,  // measure 52
0010
0100
0001
0100
0000
0010
1000
0010
0100
0001
0010
0100
0000
1000
0010
0100
,  // measure 53
1000
0100
0010
1000
0000
0100
0001
0100
0000
0010
1000
0010
0001
0100
0010
1000
,  // measure 54
1010
0000
0000
0010
1000
0000
0010
0000
0101
0000
0000
0100
0001
0000
0100
0000
,  // measure 55
0011
0000
0000
0001
0010
0000
0001
0000
1100
0000
0000
1000
0100
0000
1000
0000
,  // measure 56
1001
0000
0000
0001
1000
0000
0001
0000
0110
0000
0000
0100
0010
0000
0100
0000
,  // measure 57
0110
0000
0001
1000
0200
0000
0000
0000
,  // measure 58
0020
0000
0000
0000
0000
0000
0000
0000
0000
0000
0000
0000
0330
0000
0100
0010
,  // measure 59
0001
0000
0000
0000
0011
0000
0000
0000
1010
0000
0000
1001
0000
0000
0101
0000
,  // measure 60
0000
0000
0001
0100
0001
0000
1000
0010
1000
0100
0010
0001
0100
0000
0000
0000
,  // measure 61
0010
0000
0100
0000
0001
0000
0010
0100
1000
0100
0000
0010
0000
1000
0010
0000
,  // measure 62
0001
0000
0100
0000
1000
0100
0000
0010
1000
0000
0100
0000
1100
0000
0000
0000
,  // measure 63
0100
0000
0010
0000
1100
0000
0000
0000
0101
0000
0000
1001
0000
0000
1010
0000
,  // measure 64
0000
0000
1000
0010
1000
0000
0001
0100
0001
0010
0100
1000
0010
0000
0000
0000
,  // measure 65
0100
0000
0010
0000
1000
0000
0100
0010
0001
0010
0000
0100
1000
0000
0100
0000
,  // measure 66
1100
0000
0100
0000
0110
0000
0010
0000
0011
0000
0001
0000
0101
0000
0100
0010
,  // measure 67
0100
0001
0010
0001
1000
0010
0100
0010
,  // measure 68
1000
0000
0100
0001
0100
0000
0010
0000
0001
0000
0100
1000
0100
0000
0010
1000
,  // measure 69
0010
1000
0100
1000
0001
0100
0010
0100
,  // measure 70
0001
0000
0010
1000
0010
0000
0100
0000
1000
0000
0010
0001
0010
0000
0100
0001
,  // measure 71
0010
0100
0110
0000
1100
1000
1001
0000
,  // measure 72
0101
0000
0001
0000
0011
0000
0000
0000
1010
0000
0010
1000
0010
0000
0000
0000
,  // measure 73
1000
0100
0001
0100
0010
0001
1000
0001
,  // measure 74
0010
0000
0100
1000
0100
0000
0001
0000
0100
0000
1000
0010
1000
0000
0001
0010
,  // measure 75
0100
0000
0000
0000
;
