#TITLE:Ouroboros;
#SUBTITLE:;
#ARTIST:Qrabit;
#TITLETRANSLIT:;
#SUBTITLETRANSLIT:;
#ARTISTTRANSLIT:;
#GENRE:;
#CREDIT:;
#BANNER:[Mythology] - Ouroboros-bn.png;
#BACKGROUND:[Mythology] - Ouroboros-bg.png;
#LYRICSPATH:;
#CDTITLE:cdtitle.png;
#MUSIC:[Mythology] - Ouroboros.mp3;
#OFFSET:-0.030000;
#SAMPLESTART:60.029999;
#SAMPLELENGTH:15.000000;
#SELECTABLE:YES;
#BPMS:0.000000=128.000000
;
#STOPS:
;
#BGCHANGES:;
#KEYSOUNDS:;
#ATTACKS:;

//---------------dance-single - ----------------
#NOTES:
     dance-single:
     :
     Beginner:
     2:
     0.114224,0.174128,0.106609,0.000000,0.000000,78.000000,12.000000,0.000000,0.000000,0.000000,0.000000,0.114224,0.174128,0.106609,0.000000,0.000000,78.000000,12.000000,0.000000,0.000000,0.000000,0.000000:
0000
0000
0000
0000
,
0000
0000
0000
0000
,
0000
0000
0000
0000
,
0000
0000
0000
0000
,
0010
0000
0000
0000
,
1000
0000
0000
0000
,
0001
0000
0000
0000
,
1000
0000
0000
0000
,
0010
0000
0000
0000
,
0100
0000
0000
0000
,
0001
0000
0000
0000
,
0100
0000
0000
0000
,
0010
0000
0000
0000
,
1000
0000
0000
0000
,
0001
0000
0000
0000
,
0100
0000
0000
0000
,
1000
0000
0000
0000
,
1000
0000
0000
0000
,
0001
0000
0000
0000
,
0001
0000
0000
0000
,
1000
0000
0000
0000
,
1000
0000
0000
0000
,
0010
0000
0000
0000
,
0010
0000
0000
0000
,
1010
0000
0000
0000
,
1010
0000
0000
0000
,
0101
0000
0000
0000
,
0101
0000
0000
0000
,
1001
0000
0000
0000
,
1001
0000
0000
0000
,
1000
0000
1000
0000
,
0010
0010
0010
0000
,
1000
1000
0000
0000
,
0001
0001
0001
0000
,
0100
0100
0000
0000
,
0110
0000
0110
0000
,
0010
0010
0000
0000
,
1000
1000
1000
0000
,
0001
0001
0000
0000
,
0100
0000
1001
1001
,
0001
0001
0000
0000
,
0100
0100
0100
0000
,
0010
0010
0000
0000
,
1010
0000
1010
0000
,
1000
1000
0000
0000
,
0001
0001
0001
0000
,
0100
0100
0100
0100
,
0010
0000
0000
0000
,
1000
0000
0000
0000
,
0001
0000
0000
0000
,
1000
0000
0000
0000
,
0001
0000
0000
0000
,
0100
0000
0000
0000
,
0010
0000
0000
0000
,
0100
0000
0000
0000
,
0010
0000
0000
0000
,
1000
0000
0000
0000
;

//---------------dance-single - ----------------
#NOTES:
     dance-single:
     :
     Easy:
     3:
     0.227178,0.248754,0.142145,0.364247,0.000000,122.000000,16.000000,41.000000,0.000000,0.000000,0.000000,0.227178,0.248754,0.142145,0.364247,0.000000,122.000000,16.000000,41.000000,0.000000,0.000000,0.000000:
0000
0000
0000
0000
,
0000
0000
0000
0000
,
0000
0000
0000
0000
,
0000
0000
0000
0000
,
0010
0000
0010
0000
,
1000
0000
1000
0000
,
0001
0000
0001
0000
,
1000
0000
1000
0000
,
0110
0000
0010
0000
,
0100
0000
0100
0000
,
0001
0000
0001
0000
,
0100
0000
0100
0000
,
0010
0000
0010
0000
,
1000
0000
1000
0000
,
0001
0000
0001
0000
,
0200
0000
0000
0000
,
0320
0030
0020
0030
,
0200
0300
0200
0300
,
0002
0003
0002
0003
,
2000
3000
2000
3000
,
0002
0003
0002
0003
,
0200
0300
0200
0300
,
0020
0030
0020
0030
,
2000
3000
2000
3000
,
1010
0000
1000
0000
,
1010
0000
1000
0000
,
0101
0000
0001
0000
,
0101
0000
0001
0000
,
1001
0000
0110
0000
,
1001
0000
0110
0000
,
1000
1000
1000
1000
,
0010
0010
0010
0000
,
2000
3002
0103
0000
,
0002
2003
3010
0000
,
0200
0320
1030
0000
,
1001
0000
1001
0000
,
0002
2003
3010
0000
,
2000
3002
0103
0000
,
0020
0230
0301
0000
,
0100
0000
1001
1001
,
0002
2003
3001
0000
,
2000
3002
1003
0000
,
2000
3020
0130
0000
,
1010
0000
1010
0000
,
0020
0230
0310
0000
,
0200
0320
0130
0000
,
0100
0100
0100
0110
,
0020
0000
0000
1030
,
1000
0000
1000
0000
,
0001
0000
0001
0000
,
1000
0000
1000
0000
,
0001
0000
0001
0000
,
0100
0000
0100
0000
,
0010
0000
0010
0000
,
0100
0000
0100
0000
,
0020
0000
1030
1000
,
0001
0000
0000
0000
;

//---------------dance-single - ----------------
#NOTES:
     dance-single:
     :
     Medium:
     6:
     0.362978,0.348256,0.106609,0.382015,0.164355,231.000000,12.000000,43.000000,0.000000,0.000000,0.000000,0.362978,0.348256,0.106609,0.382015,0.164355,231.000000,12.000000,43.000000,0.000000,0.000000,0.000000:
0000
0000
0000
0000
,
0000
0000
0000
0000
,
0000
0000
0000
0000
,
0000
0000
0000
0000
,
0100
0000
0000
0000
0010
0000
0000
0000
0100
0000
0000
0100
0000
0000
0000
0000
,
0001
0000
0000
0000
0010
0000
0000
0000
0001
0000
0000
0001
0000
0000
0100
0000
,
0010
0000
0000
0000
1000
0000
0000
0000
0010
0000
0000
0010
0000
0000
0000
0000
,
0100
0000
0000
0000
0001
0000
0000
0000
0100
0000
0000
0001
2000
0000
0000
0000
,
3010
0000
0000
0000
0100
0000
0000
0000
0010
0000
0000
0010
0000
0000
0000
0000
,
1000
0000
0000
0000
0001
0000
0000
0000
1000
0000
0000
1000
0000
0000
0001
0000
,
0100
0000
0000
0000
0010
0000
0000
0000
0100
0000
0000
0100
0000
0000
0000
0000
,
0010
0000
0000
0000
1000
0000
0000
0000
0010
0000
0000
0010
0000
0000
1000
0000
,
0001
0000
0000
0000
0100
0000
0000
0000
0001
0000
0000
0001
0000
0000
0000
0000
,
1000
0000
0000
0000
0001
0000
0000
0000
1000
0000
0000
1000
0000
0000
0001
0000
,
0100
0000
0000
0000
0001
0000
0000
0000
0100
0000
0000
0100
0000
0000
0000
0000
,
0020
0000
0230
0000
0302
0000
0000
0003
,
0200
0000
0300
0200
0000
0300
0200
0000
,
0300
0020
0000
0030
0020
0000
0030
0000
,
2000
0000
3000
2000
0000
3000
2000
0000
,
3000
0002
0000
0003
0002
0000
0003
0000
,
2000
0000
3000
2000
0000
3000
2000
0000
,
3000
0020
0000
0030
0020
0000
0030
0000
,
0200
0000
0300
0200
0000
0300
0200
0000
,
0300
0002
0000
0003
0002
0000
0003
0000
,
0101
0000
0001
0100
0001
0000
1001
0000
,
0001
1000
0001
0000
1001
0000
1000
0000
,
1010
0000
1000
0010
1000
0000
1010
0000
,
1000
0010
1000
0000
1010
0000
1000
0000
,
1001
0000
0000
0001
0000
0000
0100
0000
0000
0010
0000
0000
1000
0000
0000
0000
,
1001
0000
0000
0100
0000
0000
0010
0000
0000
1000
0000
0000
0001
0000
0000
0000
,
0001
0010
1000
0000
1000
0010
0001
0000
,
0100
0000
0000
0010
0000
0000
0100
0000
0000
0001
0000
0000
0200
0000
0000
0000
,
0302
0000
2003
0000
3010
0100
0010
0000
,
1000
0000
0100
0000
0000
0010
0000
0000
0001
0000
0000
0010
0000
0000
0100
0000
,
2000
0000
3002
0000
0103
0010
0100
0000
,
0001
2000
0000
3000
0001
0100
0001
0000
,
2000
0000
3002
0000
0103
0010
0100
0000
,
0001
0000
0010
0000
0000
0100
0000
0000
1000
0000
0000
0100
0000
0000
0010
0000
,
0002
0000
0203
0000
0310
1000
0010
0000
,
0010
0000
0100
0000
0010
0000
0000
0000
0000
1001
0000
0000
1001
0000
0000
0000
,
2000
0000
3002
0000
1003
0100
1000
0000
,
0001
0000
1000
0000
0000
0010
0000
0000
0001
0000
0000
0010
0000
0000
1000
0000
,
0002
0000
0203
0000
0310
1000
0010
0000
,
0101
0000
0101
0010
,
0200
0000
0320
0000
1030
0010
1000
0000
,
0001
0000
1000
0000
0000
0100
0000
0000
0001
0000
0000
0100
0000
0000
1000
0000
,
0000
0000
0001
0000
0000
0010
0000
0000
1000
0000
0000
0010
0000
0000
0200
0000
,
0000
0000
0000
0000
0000
0000
0000
0000
0000
0310
0000
0001
0000
0000
0001
0000
,
1000
0000
0000
0000
1000
0000
0000
0000
0001
0000
0000
0001
0000
0000
0000
0000
,
1000
0000
0000
0000
1000
0000
0000
0000
0010
0000
0000
0010
0000
0000
0010
0000
,
0100
0000
0000
0000
0100
0000
0000
0000
0010
0000
0000
0010
0000
0000
0000
0000
,
0100
0000
0000
0000
0100
0000
0000
0000
0001
0000
0000
0001
0000
0000
0001
0000
,
1000
0000
0000
0000
1000
0000
0000
0000
0010
0000
0000
0010
0000
0000
0000
0000
,
1000
0000
0000
0000
1000
0000
0000
0000
0100
0000
0000
0100
0000
0000
0100
0000
,
0010
0000
0000
0000
0010
0000
0000
0000
0100
0000
0000
0100
0000
0000
0000
0000
,
2000
0000
3010
0010
1000
0001
2000
0000
,
3010
0000
0000
0000
;

//---------------dance-single - ----------------
#NOTES:
     dance-single:
     :
     Hard:
     8:
     0.548274,0.572134,0.275406,0.453088,0.453088,350.000000,31.000000,51.000000,0.000000,0.000000,0.000000,0.548274,0.572134,0.275406,0.453088,0.453088,350.000000,31.000000,51.000000,0.000000,0.000000,0.000000:
// measure 0
0000
0000
0000
0000
,  // measure 1
0000
0000
0000
0000
,  // measure 2
0000
0000
0000
0000
,  // measure 3
0000
0000
0000
0000
,  // measure 4
0001
0000
1000
0000
0010
0100
0000
0000
0001
0010
0000
0001
0000
0000
0000
0000
,  // measure 5
1000
0000
0010
0000
0100
0010
0000
0000
1000
0001
0000
0100
0000
0000
0001
0000
,  // measure 6
1000
0000
0001
0000
0010
0001
0000
0000
1000
0010
0000
1000
0000
0000
0000
0000
,  // measure 7
0100
0000
1000
0000
0010
0100
0000
0000
0100
0001
0000
0001
2000
0000
0000
0000
,  // measure 8
3010
0000
0100
0000
0001
0100
0000
0000
0010
1000
0000
0001
0000
0000
0000
0000
,  // measure 9
1000
0000
0001
0000
0100
0010
0000
0000
1000
0001
0000
0100
0000
0000
0001
0000
,  // measure 10
0100
0000
0010
0000
1000
0010
0000
0000
0100
0001
0000
0100
0000
0000
0000
0000
,  // measure 11
0001
0000
1000
0000
0010
0100
0000
0000
0001
1000
0000
0010
0000
0000
1000
0000
,  // measure 12
0001
0000
0100
0000
0010
1000
0000
0000
0001
0010
0000
0100
0000
0000
0000
0000
,  // measure 13
1000
0000
0001
0000
0010
0001
0000
0000
1000
0100
0000
0010
0000
0000
0001
0000
,  // measure 14
0100
0000
0001
0000
0010
0001
0000
0000
0100
0010
0000
1000
0000
0000
0000
0000
,  // measure 15
0020
0100
0230
0001
0302
0000
0000
0003
,  // measure 16
0200
0000
0300
0020
0000
0030
0200
0000
,  // measure 17
0300
0020
0000
0030
0200
0000
0302
0000
,  // measure 18
2003
0000
3000
0002
0000
0003
2000
0000
,  // measure 19
3000
0002
0000
0003
0200
0000
0320
0000
,  // measure 20
2030
0000
3000
0020
0000
0030
2000
0000
,  // measure 21
3000
0020
0000
0030
2000
0000
3002
0000
,  // measure 22
0203
0000
0300
0020
0000
0030
0200
0000
,  // measure 23
0300
0020
0000
0030
2000
0000
3002
0000
,  // measure 24
1003
0010
0100
0001
0010
0100
1000
0010
,  // measure 25
0100
0001
0010
0100
1000
0100
0020
0000
,  // measure 26
0031
0100
0010
1000
0100
0010
0001
0100
,  // measure 27
0010
1000
0100
0010
0001
1000
0020
0000
,  // measure 28
1030
0000
0000
0101
0000
0000
0010
0000
0000
1100
0000
0000
0011
0000
0000
0001
,  // measure 29
0010
0000
0000
1100
0000
0000
0010
0000
0000
0101
0000
0000
1010
0000
0000
0010
,  // measure 30
1000
0000
0001
0000
1000
0100
1000
0000
0001
0000
0100
0000
0001
0010
0001
0000
,  // measure 31
0011
0000
0000
0101
0000
0000
1100
0000
0000
1010
0000
0000
2002
0000
3003
0000
,  // measure 32
0002
0000
1000
0000
2003
0000
0001
0000
3001
0100
0010
1000
0000
0001
0100
0000
,  // measure 33
0001
0000
0100
0000
0000
1010
0000
0000
0010
0000
0000
0101
0000
0000
0001
0000
,  // measure 34
2000
0000
0001
0000
3002
0000
1000
0000
1003
0010
0100
0001
0000
0100
0010
0000
,  // measure 35
1000
0000
0200
0000
0000
0000
0300
0000
0001
0000
0100
0000
1000
0000
0000
0001
,  // measure 36
0200
0000
0010
0000
0320
0000
0100
0000
0031
0010
0100
1000
0000
0001
0100
0000
,  // measure 37
0001
0000
0100
0000
0000
1010
0000
0000
0010
0000
0000
0101
0000
0000
0010
0000
,  // measure 38
2000
0000
0010
0000
3020
0000
1000
0000
0031
0100
0010
1000
0000
0010
0100
0000
,  // measure 39
0001
0000
1000
0000
0010
0000
0100
0001
0000
0101
0000
0000
1010
0000
0110
0000
,  // measure 40
0020
0000
0100
0000
0230
0000
0010
0000
0310
1000
0001
0100
0000
0010
1000
0000
,  // measure 41
0001
0000
0010
0000
0000
1100
0000
0000
0100
0000
0000
0011
0000
0000
0010
0000
,  // measure 42
0200
0000
1000
0000
2300
0000
0100
0000
3010
0001
1000
0100
0000
0010
0001
0000
,  // measure 43
1000
0000
0020
0000
0000
0000
0030
0000
0001
0000
0010
0000
1000
0000
0000
0001
,  // measure 44
2000
0000
0001
0000
3002
0000
1000
0000
0013
1000
0001
0100
0000
0010
1000
0000
,  // measure 45
0100
0000
0010
0000
0000
0011
0000
0000
0100
0000
0000
1100
0000
0000
0010
0000
,  // measure 46
0000
0000
0011
0000
0000
0101
0000
0000
1100
0000
0000
1010
0000
0000
0012
0000
,  // measure 47
0000
0000
0000
0000
0000
0000
0003
0000
0000
0101
0000
1001
0000
0000
1010
0000
,  // measure 48
0100
0000
1000
0000
0010
0100
0000
0000
0001
0010
0000
0100
0000
0000
0000
0000
,  // measure 49
1000
0000
0100
0000
1000
0010
0000
0000
0100
0001
0000
0010
0000
0000
0001
0000
,  // measure 50
0100
0000
0001
0000
0100
0010
0000
0000
1000
0100
0000
0010
0000
0000
0000
0000
,  // measure 51
0001
0000
0100
0000
0001
0100
0000
0000
0010
1000
0000
0100
0000
0000
0010
0000
,  // measure 52
0001
0000
0100
0000
0010
1000
0000
0000
0100
1000
0000
0010
0000
0000
0000
0000
,  // measure 53
0100
0000
0001
0000
0100
0010
0000
0000
1000
0100
0000
1000
0000
0000
0010
0000
,  // measure 54
1000
0000
0010
0000
0100
0001
0000
0000
0100
0010
0000
0100
0000
0000
0000
0000
,  // measure 55
0002
0000
0000
0000
1003
0100
1000
0000
0010
0000
1000
0000
1020
0000
0000
0000
,  // measure 56
0130
0000
0000
0000
;
