#TITLE:NEMESIS -gratitude remix- IIDX Edition;
#SUBTITLE:;
#ARTIST:Remixed by PHQUASE;
#TITLETRANSLIT:;
#SUBTITLETRANSLIT:;
#ARTISTTRANSLIT:;
#GENRE:;
#CREDIT:;
#MENUCOLOR:;
#METERTYPE:DDR;
#BANNER:[Mythology] - NEMESIS -gratitude remix- IIDX Edition.png;
#BACKGROUND:[Mythology] - NEMESIS -gratitude remix- IIDX Edition-bg.png;
#LYRICSPATH:;
#CDTITLE:./CDTITLES/BEATMANIA IIDX.PNG;
#MUSIC:[Mythology] - NEMESIS -gratitude remix- IIDX Edition.mp3;
#OFFSET:-0.104;
#SAMPLESTART:75.500;
#SAMPLELENGTH:15.000;
#SELECTABLE:YES;
#LISTSORT:;
#BPMS:0.000=175.000,111.000=87.500,118.500=175.000;
#STOPS:55.000=0.171428
,70.500=0.171428
,118.500=9.771428
;
#BGCHANGES:;
#ATTACKS:;

//---------------dance-single - ----------------
#NOTES:
     dance-single:
     :
     Beginner:
     2:
     0.102,0.124,0.008,0.000,0.000:
0000
0000
0000
0000
,
0000
0000
0000
0000
,
0000
0000
0000
0000
,
0000
0000
0000
0000
,
1000
0000
0000
0000
,
1000
0000
0000
0000
,
0001
0000
0000
0000
,
0001
0000
0000
0000
,
0100
0000
0000
0000
,
0100
0000
0000
0000
,
0010
0000
0000
0000
,
0010
0000
0000
0000
,
1000
0000
0000
0000
,
1000
0000
0000
0000
,
0000
0000
0000
0000
0000
0000
0000
0100
,
0000
0000
0000
0000
0000
0000
0000
0010
,
0000
0000
0000
0000
0000
0000
0000
1000
,
0000
0000
0000
0000
,
0000
0000
0000
0001
,
0000
0000
1000
1000
,
0000
1000
0000
1000
,
0000
0000
0000
0001
,
0000
0001
0000
0001
,
0000
0000
0000
0100
,
0000
0100
0000
0100
,
0000
0000
0000
0010
,
0000
0010
0000
0010
,
0000
0000
0000
1000
,
0000
0001
0000
1000
,
0000
0000
0000
0000
0000
1001
0000
0000
,
0000
0000
0000
0000
,
0100
0000
0000
0100
,
0000
0000
0000
0000
,
0000
0010
0000
0010
,
0000
0000
0000
0000
,
0000
0001
0000
0001
,
0000
0000
0000
0000
,
0000
0000
0000
1000
,
0000
1000
0000
1000
,
0000
0000
0000
0001
,
0000
0001
0000
0001
,
0000
0000
0000
0010
,
0000
0010
0000
0010
,
0000
0000
0000
0100
,
0000
0100
0000
0100
,
0000
0000
0000
1000
,
0000
0000
0000
1000
,
0000
0000
0000
0001
,
0000
0000
0000
0001
,
0000
0000
0000
0100
,
0000
0000
0000
0100
,
0000
0000
0000
0010
,
0000
0000
0000
0010
,
0000
0000
0000
1000
,
0000
0000
0000
0001
,
0000
0000
0000
0100
,
0000
0000
0000
0010
,
0000
0000
0000
1000
,
0000
0000
0000
0001
,
0000
0000
0000
0010
,
0000
0000
0000
0100
,
0000
0000
0000
1000
,
0000
0000
0000
0000
,
0000
0000
0000
1000
,
0000
1000
0000
1000
,
0000
0000
0000
0001
,
0000
0001
0000
0001
,
0000
0000
0000
0100
,
0000
0100
0000
0100
,
0000
0000
0000
0010
,
0000
0010
0000
0010
,
0000
0000
0000
1000
,
0000
0001
0000
1000
,
0000
0000
0000
0001
,
0000
1000
0000
0001
,
0000
0000
0000
0100
,
0000
0010
0000
0100
,
0000
0000
0000
0010
;

//---------------dance-single - ----------------
#NOTES:
     dance-single:
     :
     Easy:
     4:
     0.241,0.383,0.120,0.032,0.000:
0000
0000
0000
0000
,
0000
0000
0000
0000
,
0000
0000
0000
0000
,
0000
0000
0000
0010
,
1000
0000
0100
0000
,
1000
0010
1000
0000
,
0001
0000
0100
0000
,
0001
0010
0001
0000
,
1000
0000
0001
0000
,
0100
0010
0100
0000
,
0010
0000
0100
0000
,
0001
1000
0001
0000
,
1000
0000
0100
0000
,
0001
0000
0000
0000
0100
0000
0000
1000
,
0000
0000
0000
0010
0000
0000
0000
0001
,
0000
0000
0000
0010
0000
0000
0000
1000
,
0000
0000
0000
0100
0000
0000
0000
0001
,
0000
0000
0000
0100
0000
0000
1000
0000
,
0000
0010
0000
0100
,
0100
0010
0010
1001
,
0000
0010
0000
1000
,
0000
0010
0000
0001
,
0000
0100
0000
1000
,
0000
0100
0000
1001
,
0000
0010
0000
1000
,
0100
1000
0000
0001
,
0001
1000
1000
0010
,
0000
0100
0000
0110
,
0001
1000
0001
1000
,
0100
0000
0010
0010
0010
1001
0110
0000
,
0000
0100
0000
0100
,
0000
0100
0000
0001
,
0000
0001
0000
0001
,
0000
0001
0000
1000
,
0000
1000
0000
1000
,
0000
1000
0000
0010
,
0000
0010
0000
0010
,
0000
0010
0000
1001
,
0000
1000
0000
0100
,
0000
0100
0000
0010
,
0000
0010
0000
0001
,
0000
0001
0000
1001
,
0001
0001
0001
0100
,
0000
0100
0000
0010
,
0010
0010
0010
1000
,
0000
0001
0000
1001
,
0000
0100
0000
1000
,
0100
0010
0000
0001
,
0000
0100
0000
0001
,
0100
0010
0000
1000
,
0000
0010
0000
1000
,
0001
1000
0000
0001
,
0000
0010
0000
0001
,
1000
0001
0000
1001
,
0000
0100
0000
0010
,
1000
0100
0000
1000
,
0000
0100
0000
0010
,
0001
0100
0000
0001
,
0000
0010
0000
0001
,
0100
0010
0000
1000
,
0000
0010
0000
1000
,
0100
0010
0100
2002
,
0000
0000
0000
0000
,
3003
0000
0110
1000
,
1000
0001
0001
0100
,
0000
0100
0000
0001
,
0001
1000
1000
0010
,
0000
0010
0000
1000
,
1000
0100
0100
0010
,
0000
0100
0000
1001
,
0000
0001
0000
0100
,
0100
0010
0000
1000
,
0000
1000
0000
0100
,
0100
0010
0000
1001
,
1000
1000
1000
1001
,
0001
0001
0001
0100
,
0010
0100
0010
1000
,
0001
0100
0010
2002
,
0000
0000
0000
0000
,
0000
0000
0000
3003
;

//---------------dance-single - ----------------
#NOTES:
     dance-single:
     :
     Medium:
     6:
     0.425,0.574,0.136,0.064,0.024:
0000
0000
0000
0000
,
0000
0000
0000
0000
,
0000
0000
0000
0000
,
0000
0000
0000
0000
0000
0100
0010
0000
,
1001
0000
1000
0000
0001
1000
0100
0000
,
1000
0000
0001
0000
1000
0001
0100
0000
,
0010
0000
0100
0000
0001
0010
0100
0000
,
0010
0000
0100
0000
1000
0010
0100
0000
,
0010
0000
1000
0000
0001
1000
0100
0000
,
1000
0000
0010
0000
1000
0001
0100
0000
,
0001
0000
0100
0000
0010
1000
0100
0000
,
0010
0000
0010
0010
0010
0000
0110
0000
,
0001
0100
0001
0000
1000
0100
1000
0000
,
0001
0100
0001
0000
1000
0001
1000
0001
,
0100
0001
0000
1000
0100
1000
0000
0001
,
0100
0001
0000
1000
0100
0100
0000
0010
,
0100
1000
0000
0010
0100
0001
0000
0010
,
0100
1000
0000
0010
0100
0001
1000
0010
,
1000
0000
0001
0010
0001
0000
1000
0000
,
1000
1000
1000
0000
1001
0000
2000
0000
,
0100
0000
3100
0200
,
0001
0000
0301
0002
,
0010
0000
0013
0020
,
1000
0000
0000
0000
1030
0000
0001
1000
,
0100
0000
1000
0001
0100
0000
0001
1000
,
0010
0000
1000
0001
1000
0000
0001
0000
,
1001
1000
1001
0100
,
0100
0000
0100
0000
0100
0000
0000
0000
0110
0000
0000
0000
0001
1000
0000
0000
,
0001
0000
0001
0000
0100
0010
0000
0000
1000
0000
1000
0000
0001
1000
0000
0100
,
0010
0000
0100
1000
0000
0001
1000
0000
0001
0000
1001
0000
0010
0000
0000
0000
,
0000
0010
0000
0000
0000
0000
0000
0000
,
0100
0001
1000
0001
,
0000
0001
0000
0000
0000
0000
0000
0000
,
0000
1000
0100
0010
,
0000
0010
0000
0000
0000
0000
0000
0000
,
0000
0001
0100
0010
,
0000
0010
0000
0000
0000
0000
0000
0000
,
0100
0001
1000
0001
,
0000
1001
0000
0000
0010
0000
0100
0000
,
0100
1000
0001
1000
,
0000
1010
0000
0000
0100
0000
0001
0000
,
0010
0100
0010
0001
,
0000
0011
0000
0000
0001
0000
0100
0000
,
0010
0100
0001
1000
,
0000
1100
0000
0000
1000
0000
0001
0000
,
0001
0001
0001
0000
1001
0000
0010
0000
,
0100
0010
0000
0010
1000
0000
0001
0000
,
0100
0000
0001
1000
0100
0000
1000
0000
,
0100
0010
0000
0010
0001
0000
1000
0000
,
0001
0100
0001
0000
1000
0000
0001
0000
,
0010
0100
0000
0100
1000
0000
0100
0000
,
0010
0001
0100
0000
0010
0000
0100
0000
,
0001
1000
0000
1000
0001
0000
1000
0000
,
0001
1000
0010
0000
0100
0000
0010
0000
,
1000
0010
0000
0010
1000
0000
0001
0000
,
0100
0000
0001
0010
0100
0000
0010
0000
,
0001
0010
0000
0010
0001
0000
0100
0000
,
0001
1000
0100
0000
1000
0000
0010
0000
,
1000
0100
0000
0100
1000
0000
0001
0000
,
1000
0010
0100
0000
0010
0000
1000
0000
,
0001
0100
0000
0100
0001
0000
0010
0000
,
0010
0010
0010
0000
0110
0000
2002
0000
,
0000
0000
0000
0000
,
3003
0100
0000
0010
,
0010
1000
0000
0001
0100
0000
0001
0010
,
0000
0100
1000
0000
1000
0000
0100
0000
,
0010
0001
0010
0000
0001
0100
0000
0001
,
1000
0000
0100
0010
0001
0000
1000
0000
,
0100
0000
1000
0001
0100
0010
0000
1000
,
0010
0000
1000
0100
1000
0000
1001
0000
,
0010
0000
0010
0000
0100
0001
0000
1000
,
0010
0000
1000
0100
0001
0000
0100
0000
,
1000
0000
0010
0000
0100
0010
0000
1000
,
0001
0000
0001
0100
1000
0000
0100
0100
,
0100
0010
0100
0000
0010
0000
1000
1000
,
0010
0100
0010
0000
0010
0000
1000
0010
,
1000
0010
0100
0001
0100
0001
0010
0000
,
0100
0010
0100
0000
0110
0000
2002
0000
,
0000
0000
0000
0000
,
0000
0000
0000
3003
;

//---------------dance-single - ----------------
#NOTES:
     dance-single:
     :
     Hard:
     9:
     0.561,0.766,0.120,0.240,0.204: // measure 1
0000
0000
0000
0000
,  // measure 2
0000
0000
0000
0000
,  // measure 3
0000
0000
0000
0000
,  // measure 4
0000
0000
0000
0000
0000
0100
0010
0000
,  // measure 5
1001
0000
0000
0000
0010
0000
0000
0100
0001
0000
0100
0000
0010
0000
0000
0000
,  // measure 6
1000
0000
0000
0000
0100
0000
0000
0010
0100
0000
1000
0000
0100
0000
1000
0000
,  // measure 7
0001
0000
0000
0000
0100
0000
0000
0001
0100
0000
0001
0000
0010
0000
0000
0000
,  // measure 8
0100
0000
0000
0000
0010
0000
0000
0001
1000
0000
0100
0000
1000
0000
0010
0000
,  // measure 9
0100
0000
0000
0000
0010
0000
0000
1000
0010
0000
0100
0000
0001
0000
0000
0000
,  // measure 10
0010
0000
0000
0000
0100
0000
0000
0010
0001
0000
1000
0000
0100
0000
1000
0000
,  // measure 11
0001
0000
0000
0000
1000
0000
0000
0100
0010
0000
0100
0000
1000
0000
0000
0000
,  // measure 12
0010
0100
0010
0100
0001
1000
0100
0000
,  // measure 13
1000
0000
0100
0000
0010
0000
0000
0001
0100
0000
0010
0000
1000
0000
0000
0100
,  // measure 14
0010
0000
0001
0000
1000
0000
0000
0001
0100
0000
0001
0000
1000
0000
0010
0000
,  // measure 15
0100
0000
0001
0000
0000
0100
0010
0000
1000
0000
0100
0000
0000
1000
0100
0000
,  // measure 16
0010
0000
0001
0000
0000
0100
0010
0000
0010
0000
0100
0000
0100
0000
1001
0000
,  // measure 17
0000
0000
1000
0000
0000
0001
0010
0000
0001
0000
0100
0000
0000
0010
1000
0000
,  // measure 18
0010
0000
0100
0000
0000
0001
1000
0000
0100
0000
1000
0000
0100
0000
0010
0000
,  // measure 19
0001
0000
0000
1000
0100
0000
1000
0000
0001
0000
0000
0100
0010
0000
0010
0000
,  // measure 20
0100
0100
0001
1000
0100
1000
2001
0000
,  // measure 21
3100
0200
0301
0002
,  // measure 22
0013
0020
1030
2000
,  // measure 23
3100
0200
0301
0002
,  // measure 24
0013
0000
0020
0000
1030
0100
0010
0000
,  // measure 25
1100
0000
0000
0001
0100
0000
0001
0000
1000
0000
0000
0001
0100
0000
0001
0000
,  // measure 26
0010
0000
0000
0100
0010
0000
0001
0000
1000
0000
0000
0010
0100
0000
0000
0100
,  // measure 27
0001
0000
0000
0001
1000
0000
0000
1000
0001
0000
0000
0001
1000
0000
1000
0000
,  // measure 28
0100
0000
0100
0000
0001
0000
0100
0000
1000
0000
0001
0000
1000
0010
0000
0010
,  // measure 29
1000
0000
0001
0100
0001
0010
0001
0000
1000
0001
0000
0001
0100
0010
0100
0100
,  // measure 30
0001
0000
1000
0100
0010
0010
0001
1000
0001
0000
1001
0000
0020
0000
0000
0000
,  // measure 31
0000
0130
0000
0000
0000
0000
0000
0000
,  // measure 32
0002
2003
3002
0203
,  // measure 33
0000
0310
0000
0000
0000
0000
0000
0000
,  // measure 34
0000
2000
3200
0320
,  // measure 35
0000
0031
0000
0000
0000
0000
0000
0000
,  // measure 36
0000
0002
0203
0320
,  // measure 37
0000
1030
0000
0000
0000
0000
0000
0000
,  // measure 38
2000
3200
0320
0130
,  // measure 39
0000
0100
0000
0100
,  // measure 40
0020
0032
2003
3001
,  // measure 41
0000
0001
0000
0001
,  // measure 42
0000
0000
2000
0000
3010
0100
0100
0000
,  // measure 43
0100
0000
0100
0000
0100
0010
1000
0000
,  // measure 44
1000
0000
1000
0000
1000
0001
0100
0010
,  // measure 45
1000
0100
0001
0100
1000
0000
0001
0100
,  // measure 46
0100
0010
0100
0001
1000
0000
1001
0000
,  // measure 47
0010
0000
0000
0001
0100
0000
0010
0000
1000
0000
0000
0000
0100
0000
0100
0000
,  // measure 48
0010
0000
0100
0000
1000
0000
0000
0001
0100
0000
0000
0000
0010
0000
0000
0000
,  // measure 49
0100
0000
0000
0010
1000
0000
0100
0000
1000
0000
0000
0000
0100
0000
0100
0000
,  // measure 50
0010
0001
0100
0100
0001
0000
1000
0000
,  // measure 51
0100
0000
0000
1000
0100
0000
1000
0000
0010
0000
0000
0000
0100
0000
0100
0000
,  // measure 52
0001
0000
1000
0000
0001
0000
0000
1000
0001
0000
0000
0000
1000
0000
0000
0000
,  // measure 53
0100
0000
0000
0010
0001
0000
0100
0000
0001
0000
0000
0000
0100
0000
0001
0000
,  // measure 54
0010
0010
0100
1000
0001
0000
1000
0010
,  // measure 55
0100
0000
0000
0010
1000
0000
0001
0000
0100
0000
0000
0000
0001
0000
0001
0000
,  // measure 56
0010
0000
0001
0000
0100
0000
0000
0100
0001
0000
0000
0000
1000
0000
0100
0000
,  // measure 57
0010
0000
0000
0001
1000
0000
0001
0000
0100
0000
0000
0000
0010
0000
0010
0000
,  // measure 58
1000
0001
0100
0100
0001
0000
1000
0001
,  // measure 59
0100
0000
0000
0001
0100
0000
0010
0000
1000
0000
0000
0000
0001
0000
0010
0000
,  // measure 60
0100
0000
0100
0000
0010
0000
0000
0010
0001
0000
0000
0000
0100
0000
0010
0000
,  // measure 61
1000
0000
0000
0010
0100
0000
0001
0000
1000
0000
0000
0000
0001
0000
0010
0000
,  // measure 62
0010
0100
0010
0001
0200
0000
0020
0000
,  // measure 63
0000
0000
0000
0000
,  // measure 64
0330
0100
1001
1010
,  // measure 65
0010
1000
0100
1000
0010
0000
0100
0001
,  // measure 66
0010
0001
0100
0000
0101
0000
1010
0000
,  // measure 67
0010
1000
0001
0100
0001
0010
0000
0010
,  // measure 68
0001
1000
0100
0001
0100
0000
1100
0000
,  // measure 69
0100
0010
0001
0100
1000
0100
0000
0100
,  // measure 70
0001
0010
0001
1000
0001
0000
1001
0000
,  // measure 71
0010
0000
0010
1000
0100
1000
0000
1000
,  // measure 72
0001
0100
0010
0100
0001
0000
0011
0000
,  // measure 73
0001
0010
0100
0010
0001
1000
0000
1000
,  // measure 74
0001
0000
0100
0000
0010
0000
0000
0010
0100
0000
0000
0000
1001
0000
0001
0000
,  // measure 75
0001
0001
0100
0010
1000
0100
1000
1000
,  // measure 76
1000
1000
0100
0010
0001
0100
0010
0100
,  // measure 77
0001
0000
0010
0000
0100
0000
1000
0000
0001
0000
1000
0000
0000
0000
0000
1000
,  // measure 78
0001
0000
0100
0100
0010
0000
0220
0000
,  // measure 79
0000
0000
0000
0000
,  // measure 80
0000
0000
0000
0330
;
