#VERSION:0.81;
#TITLE:Midas Touch;
#SUBTITLE:;
#ARTIST:Ellie Goulding X BURNS;
#TITLETRANSLIT:;
#SUBTITLETRANSLIT:;
#ARTISTTRANSLIT:;
#GENRE:;
#ORIGIN:;
#CREDIT:;
#BANNER:[Mythology] - Midas Touch.png;
#BACKGROUND:[Mythology] - Midas Touch-bg.png;
#PREVIEWVID:;
#JACKET:[Mythology] - Midas Touch-jacket.png;
#CDIMAGE:;
#DISCIMAGE:;
#LYRICSPATH:;
#CDTITLE:;
#MUSIC:[Mythology] - Midas Touch.ogg;
#OFFSET:-2.521;
#SAMPLESTART:48.295;
#SAMPLELENGTH:15.484;
#SELECTABLE:YES;
#BPMS:0.000=61.994,
16.000=123.988,
76.000=61.994,
78.000=123.988,
174.000=61.994;
#STOPS:;
#DELAYS:;
#WARPS:;
#TIMESIGNATURES:0.000=4=4,
76.000=2=4,
78.000=4=4;
#TICKCOUNTS:0.000=4;
#COMBOS:0.000=1;
#SPEEDS:0.000=1.000=0.000=0;
#SCROLLS:0.000=1.000;
#FAKES:;
#LABELS:0.000=Song Start;
#BGCHANGES:;
#KEYSOUNDS:;
#ATTACKS:
;

//---------------dance-single - ----------------
#NOTEDATA:;
#CHARTNAME:;
#STEPSTYPE:dance-single;
#DESCRIPTION:;
#CHARTSTYLE:;
#DIFFICULTY:Hard;
#METER:8;
#RADARVALUES:0.380,0.363,0.059,0.216,0.294,243.000,6.000,22.000,0.000,0.000,0.000,0.000,0.000,0.380,0.363,0.059,0.216,0.294,243.000,6.000,22.000,0.000,0.000,0.000,0.000,0.000;
#CREDIT:;
#NOTES:
// measure 0
0000
0000
0000
0000
,  // measure 1
0000
0000
0000
0000
,  // measure 2
1000
0000
1000
0010
0000
0010
0000
0000
0020
0000
0000
0000
0000
0000
0030
0000
,  // measure 3
0100
0000
0100
0001
0000
0001
0000
0000
0002
0000
0000
0000
0000
0000
0003
0000
,  // measure 4
1000
0000
0000
0100
0000
0000
0010
0000
0001
0000
0000
0000
0000
0000
0000
0000
,  // measure 5
1000
0000
0000
1000
0000
0000
0001
0000
1000
0000
0000
0000
0000
0000
0000
0000
,  // measure 6
0001
0000
0000
0100
0000
0000
0010
0000
0100
0000
0000
0000
0000
0000
0000
0000
,  // measure 7
0010
0000
0000
0000
0000
0000
0000
0000
0000
0100
0000
0000
0000
0000
0000
0000
0000
0000
0010
0000
0000
0000
0000
0000
1000
0000
0000
0000
0000
0000
0000
0000
0001
0000
0000
0000
0000
0000
0000
0000
1000
0000
0000
0000
0000
0000
0000
0000
,  // measure 8
0100
0000
0000
0010
0000
0000
0001
0000
1000
0000
0000
0000
0000
0000
0000
0000
,  // measure 9
0001
0000
0000
0001
0000
0000
1000
0000
0001
0000
0000
0000
0000
0000
0000
0000
,  // measure 10
1000
0000
0000
0010
0000
0000
1000
0000
0010
0000
0100
0000
0010
0000
0010
0000
,  // measure 11
0100
0000
0000
0000
0000
0000
0000
0000
0000
0100
0000
0000
0000
0000
0000
0000
0000
0000
0100
0000
0000
0000
0000
0000
0001
0000
0000
0000
0000
0000
0000
0000
0001
0000
0000
0000
0000
0000
0000
0000
0001
0000
0000
0000
0000
0000
0000
0000
,  // measure 12
1000
0000
0000
0100
0000
0000
0010
0000
0001
0000
1000
0000
0010
0000
0000
0000
,  // measure 13
0100
0000
0000
0010
0000
0000
0100
0000
0001
0000
0000
0000
0000
0000
0000
0000
,  // measure 14
0100
0001
1000
0000
0100
0010
0001
0000
,  // measure 15
1000
0000
0000
0000
0000
0000
0000
0000
0000
0010
0000
0000
0000
0000
0000
0000
0000
0000
1000
0000
0000
0000
0000
0000
0001
0000
0000
0000
0000
0000
0000
0000
1000
0000
0000
0000
0000
0000
0000
0000
0001
0000
0000
0000
0000
0000
0000
0000
,  // measure 16
0010
0100
0010
0100
1000
0000
0000
0000
,  // measure 17
0001
0000
0000
1000
0000
0000
0001
0000
0010
0000
0000
0000
0000
0000
0000
0000
,  // measure 18
0001
0010
0001
0000
1000
0010
1000
0000
,  // measure 19
2002
0000
0000
0000
0000
0000
3003
0000
0001
0000
0000
0010
0000
0000
1000
0000
,  // measure 20
0010
0000
0000
0000
0001
0000
0000
0000
1000
0000
0000
0010
0000
0000
0001
0000
,  // measure 21
0010
0000
0000
0010
1000
0000
0001
0000
0020
0000
0000
0000
0130
0000
0000
0100
,  // measure 22
2000
3001
0102
1003
,  // measure 23
2100
0000
0000
0000
3100
0000
0010
0000
0001
0000
0000
0100
0000
0000
1000
0000
,  // measure 24
0100
0000
0000
0000
0001
0000
0000
0000
1000
0000
1000
0100
0000
0200
0000
0000
,  // measure 25
0310
0000
0001
0000
1000
0000
0010
0000
0100
0000
0000
0100
0002
0000
0000
0000
,  // measure 26
1003
0000
0000
1000
0200
0000
0000
0000
0320
0000
0000
0000
0031
0000
0000
0001
,  // measure 27
0100
0000
0010
0000
1000
0000
0001
0000
0010
0000
0000
1000
0000
0000
0010
0000
,  // measure 28
0001
0000
0000
0000
1000
0000
0000
0000
0010
0000
0010
0200
0000
0000
0301
0000
,  // measure 29
1000
0000
0000
1000
0001
0000
1000
0000
0002
0000
0000
0000
0013
0000
0000
0010
,  // measure 30
0200
1300
2010
3001
,  // measure 31
0012
0000
0000
0000
0013
0000
0100
0000
1000
0000
0000
0010
0000
0000
0001
0000
,  // measure 32
0010
0000
0000
0000
1000
0000
0000
0000
0001
0000
0001
0010
0000
0020
0000
0000
,  // measure 33
0130
0000
0010
0000
0100
0000
1000
0000
0001
0000
0000
0001
0200
0000
0000
0000
,  // measure 34
0310
0000
0000
0010
2000
0000
0000
0000
3002
0000
0000
0000
1003
0000
0000
1000
,  // measure 35
0200
0000
0000
0000
0000
0000
0000
0000
0000
0000
0000
0000
0310
0000
0000
0000
0100
0000
0000
0000
0010
0000
0000
0000
0100
0000
0000
0000
0000
0000
0000
0000
0000
0010
0000
0000
0000
0000
0000
0000
0000
0000
0001
0000
0000
0000
0000
0000
,  // measure 36
1000
0000
0010
0000
0001
0000
0010
0000
1000
0000
0000
0001
0000
0000
0010
0000
,  // measure 37
0100
0000
1000
0100
1000
0100
1000
0100
1000
0000
0000
0010
0000
0000
0100
0000
,  // measure 38
0001
0000
1000
0000
0001
0000
1000
0000
0100
0000
0000
0010
0000
0000
0001
0000
,  // measure 39
1000
0000
0000
0000
0000
0000
0000
0000
0001
0000
0000
0000
0000
0000
0000
0000
1000
0000
0000
0000
0000
0000
0000
0000
0001
0000
0000
0000
0000
0000
0000
0000
0000
0100
0000
0000
0000
0000
0000
0000
0000
0000
0010
0000
0000
0000
0000
0000
,  // measure 40
1000
0000
0100
0000
0001
0000
0100
0000
1000
0000
0000
0010
0000
0000
0100
0000
,  // measure 41
0001
0000
0100
0001
0100
0001
0100
0001
0100
0000
0000
0010
0000
0000
0100
0000
,  // measure 42
0010
0000
1000
0000
0001
0000
1000
0000
0001
0000
0000
0010
0000
0000
0100
0000
,  // measure 43
1000
0000
1001
0000
;

//---------------dance-single - ----------------
#NOTEDATA:;
#CHARTNAME:;
#STEPSTYPE:dance-single;
#DESCRIPTION:;
#CHARTSTYLE:;
#DIFFICULTY:Medium;
#METER:6;
#RADARVALUES:0.230,0.256,0.078,0.039,0.059,152.000,8.000,4.000,0.000,0.000,0.000,0.000,0.000,0.230,0.256,0.078,0.039,0.059,152.000,8.000,4.000,0.000,0.000,0.000,0.000,0.000;
#CREDIT:;
#NOTES:
// measure 0
0000
0000
0000
0000
,  // measure 1
0000
0000
0000
0000
,  // measure 2
0001
0000
0001
0000
0002
0000
0000
0003
,  // measure 3
1000
0000
1000
0000
2000
0000
0000
3000
,  // measure 4
0001
0010
0100
0000
,  // measure 5
1000
0000
0000
0001
0000
0000
0000
0000
1000
0000
0000
0000
0000
0000
0000
0000
,  // measure 6
0001
1000
0010
0000
,  // measure 7
0100
0000
0000
0100
0000
0000
0100
0000
0000
0000
0000
0000
0000
0000
0000
0000
,  // measure 8
0010
0100
0001
0000
,  // measure 9
1000
0000
0000
0001
0000
0000
0000
0000
1000
0000
0000
0000
0000
0000
0000
0000
,  // measure 10
0001
0010
0100
0000
,  // measure 11
0010
0000
0000
0000
0000
0000
0000
0000
0000
0010
0000
0000
0000
0000
0000
0000
0000
0000
0010
0000
0000
0000
0000
0000
0100
0000
0000
0000
0000
0000
0000
0000
0100
0000
0000
0000
0000
0000
0000
0000
0100
0000
0000
0000
0000
0000
0000
0000
,  // measure 12
1000
0000
0010
0000
0100
0010
0100
0001
,  // measure 13
1000
0000
0000
0001
1000
0000
0000
0000
,  // measure 14
0001
0000
0001
0000
0010
0100
0010
0000
,  // measure 15
0100
0000
0000
0100
0000
0000
1000
0000
1000
0000
1000
0000
,  // measure 16
1000
0000
1000
0000
0010
0100
0010
0000
,  // measure 17
0100
0100
0001
0000
,  // measure 18
0100
0001
1000
0000
0001
1000
0100
0000
,  // measure 19
2002
0000
0000
3003
0001
0000
0000
0100
,  // measure 20
0001
0000
0000
0000
1000
0000
1000
0001
,  // measure 21
1000
0000
0100
0000
,  // measure 22
0110
0000
0010
0000
,  // measure 23
0110
0000
0000
0000
0100
0000
0010
0001
,  // measure 24
1000
0000
0001
1000
,  // measure 25
0010
0100
0010
0000
0100
0000
0000
0000
,  // measure 26
0101
0000
0000
0000
0000
0000
0000
0000
0001
0000
0000
0000
1000
0000
0000
1000
,  // measure 27
0001
0000
0000
0000
1000
0000
0100
0010
,  // measure 28
0001
0000
0010
0001
,  // measure 29
1000
0000
0010
0000
,  // measure 30
0110
0000
0100
0000
,  // measure 31
0110
0000
0000
0000
0010
0000
0100
0001
,  // measure 32
1000
0000
0001
0010
,  // measure 33
0100
1000
0001
0000
1000
0000
0000
0000
,  // measure 34
1010
0000
0000
0000
0000
0000
0000
0000
0001
0000
0000
0000
1000
0000
0000
1000
,  // measure 35
0001
0000
1000
0100
,  // measure 36
0010
0000
0100
0010
,  // measure 37
0001
0010
0001
0001
0010
0000
0001
0000
,  // measure 38
1000
0000
0001
0100
,  // measure 39
0001
0000
0001
0000
0001
0000
0001
0000
0000
0100
0000
0000
,  // measure 40
0010
0000
0100
0010
,  // measure 41
1000
0010
1000
1000
0010
0000
1000
0000
,  // measure 42
0100
0000
1000
0100
,  // measure 43
0010
0000
0110
0000
;

//---------------dance-single - ----------------
#NOTEDATA:;
#CHARTNAME:;
#STEPSTYPE:dance-single;
#DESCRIPTION:;
#CHARTSTYLE:;
#DIFFICULTY:Easy;
#METER:3;
#RADARVALUES:0.132,0.107,0.059,0.000,0.000,88.000,6.000,0.000,0.000,0.000,0.000,0.000,0.000,0.132,0.107,0.059,0.000,0.000,88.000,6.000,0.000,0.000,0.000,0.000,0.000,0.000;
#CREDIT:;
#NOTES:
// measure 0
0000
0000
0000
0000
,  // measure 1
0000
0000
0000
0000
,  // measure 2
0001
0000
0001
0000
,  // measure 3
1000
0000
1000
0000
,  // measure 4
0001
0010
0001
0000
,  // measure 5
0010
0000
0010
0000
,  // measure 6
0100
0010
0100
0000
,  // measure 7
0010
0000
0100
0000
,  // measure 8
1000
0100
1000
0000
,  // measure 9
0001
0000
1000
0000
,  // measure 10
0010
0100
0010
0000
,  // measure 11
0100
0000
0010
0000
,  // measure 12
0100
0001
1000
0000
,  // measure 13
1001
0000
0000
0000
,  // measure 14
0001
0000
0001
0000
,  // measure 15
1000
0000
1000
0000
,  // measure 16
0001
0010
0100
0000
,  // measure 17
0110
0000
0000
0000
,  // measure 18
0100
0000
1000
0000
,  // measure 19
0001
0000
1000
0000
,  // measure 20
1000
0000
0010
1000
,  // measure 21
0010
0000
0100
0000
,  // measure 22
0000
0000
0010
0000
,  // measure 23
0000
0000
0100
0001
,  // measure 24
1000
0000
0001
0000
,  // measure 25
0001
0000
1000
0000
,  // measure 26
0000
0000
0001
0000
,  // measure 27
0000
0000
1000
0100
,  // measure 28
0010
0000
0001
0000
,  // measure 29
0010
0000
0011
0000
,  // measure 30
0000
0000
1010
0000
,  // measure 31
0000
0000
0010
1000
,  // measure 32
0010
0000
0100
0000
,  // measure 33
0001
0000
0101
0000
,  // measure 34
0000
0000
1100
0000
,  // measure 35
0000
0000
1000
0000
,  // measure 36
0001
0000
0010
0010
,  // measure 37
0010
0000
0001
0000
,  // measure 38
1000
0000
0010
0010
,  // measure 39
0010
0000
0100
0000
,  // measure 40
0010
0000
1000
0001
,  // measure 41
1000
0000
0100
0000
,  // measure 42
0010
0000
0001
1000
,  // measure 43
0001
0000
1000
0000
;

//---------------dance-single - ----------------
#NOTEDATA:;
#CHARTNAME:;
#STEPSTYPE:dance-single;
#DESCRIPTION:;
#CHARTSTYLE:;
#DIFFICULTY:Beginner;
#METER:1;
#RADARVALUES:0.057,0.064,0.000,0.000,0.000,41.000,0.000,0.000,0.000,0.000,0.000,0.000,0.000,0.057,0.064,0.000,0.000,0.000,41.000,0.000,0.000,0.000,0.000,0.000,0.000,0.000;
#CREDIT:;
#NOTES:
// measure 0
0000
0000
0000
0000
,  // measure 1
0000
0000
0000
0000
,  // measure 2
0000
0000
0000
0000
,  // measure 3
0000
0000
0000
0000
,  // measure 4
1000
0000
0000
0000
,  // measure 5
0001
0000
0000
0000
,  // measure 6
1000
0000
0000
0000
,  // measure 7
1000
0000
0000
0000
,  // measure 8
0100
0000
0000
0000
,  // measure 9
0010
0000
0000
0000
,  // measure 10
0100
0000
0000
0000
,  // measure 11
0100
0000
0000
0000
,  // measure 12
1000
0000
0000
0000
,  // measure 13
0001
0000
0000
0000
,  // measure 14
1000
0000
0000
0000
,  // measure 15
1000
0000
0000
0000
,  // measure 16
0010
0000
0000
0000
,  // measure 17
0100
0000
0000
0000
,  // measure 18
0010
0000
0000
0000
,  // measure 19
0010
0000
1000
0000
,  // measure 20
0000
0000
0001
0000
,  // measure 21
0000
0000
0010
0000
,  // measure 22
0000
0000
0010
0000
,  // measure 23
0000
0000
0001
0000
,  // measure 24
0000
0000
1000
0000
,  // measure 25
0000
0000
0010
0000
,  // measure 26
0000
0000
0010
0000
,  // measure 27
0000
0000
1000
0000
,  // measure 28
0000
0000
0100
0000
,  // measure 29
0000
0000
0010
0000
,  // measure 30
0000
0000
0001
0000
,  // measure 31
0000
0000
1000
0000
,  // measure 32
0000
0000
0010
0000
,  // measure 33
0000
0000
0100
0000
,  // measure 34
0000
0000
0001
0000
,  // measure 35
0000
0000
1000
0000
,  // measure 36
0000
0000
1000
0000
,  // measure 37
0000
0000
0001
0000
,  // measure 38
0000
0000
0001
0000
,  // measure 39
0000
0000
0010
0000
,  // measure 40
0000
0000
0100
0000
,  // measure 41
0000
0000
1000
0000
,  // measure 42
0000
0000
0010
0000
,  // measure 43
0000
0000
0100
0000
;
