#TITLE:Macuilxochitl;
#SUBTITLE:;
#ARTIST:Tomosuke;
#TITLETRANSLIT:;
#SUBTITLETRANSLIT:;
#ARTISTTRANSLIT:;
#GENRE:;
#CREDIT:;
#BANNER:macu.bn.png;
#BACKGROUND:macu.bg.jpg;
#LYRICSPATH:;
#CDTITLE:;
#MUSIC:Macuilxochitl.mp3;
#OFFSET:1.190000;
#SAMPLESTART:1.190000;
#SAMPLELENGTH:12.000000;
#LASTBEATHINT:0.468667;
#SELECTABLE:YES;
#BPMS:0.000000=148.000000
;
#STOPS:
;
#BGCHANGES:;
#KEYSOUNDS:;
#ATTACKS:;

//---------------dance-single - ----------------
#NOTES:
     dance-single:
     :
     Hard:
     9:
     0.589224,0.607385,0.329589,0.178920,0.244837,384.000000,35.000000,19.000000,0.000000,0.000000,0.000000,0.589224,0.607385,0.329589,0.178920,0.244837,384.000000,35.000000,19.000000,0.000000,0.000000,0.000000:
0000
0000
0000
0000
,
0000
0000
0000
0000
,
0000
0000
0000
0000
,
0000
0000
0000
0000
,
0000
0000
0000
0000
,
0000
0000
0000
0000
,
1100
0000
0001
0100
0010
0000
0110
0000
,
1001
0000
1000
0100
1000
0100
0010
0100
,
1000
0010
0100
0001
0100
0000
0101
0000
,
1010
0000
1100
0000
1000
0010
0100
0010
,
1000
0000
0000
1000
0100
0000
0010
0000
0001
0000
0100
0000
0010
0000
0000
1000
,
0100
0000
0000
0001
0000
0000
0100
0000
0001
0020
0000
0000
0000
0000
0000
0000
,
0000
0000
0000
0000
0001
0000
0000
0000
0001
0000
0000
0000
0100
0100
0000
0000
,
0030
0000
0010
0000
0100
0010
0001
0000
,
0011
0000
1010
0000
1000
0010
0100
0000
,
0110
0000
1001
0000
1000
0100
1000
0001
,
0100
0000
0001
0000
1000
0000
0010
0000
1000
0000
0010
0000
1000
0000
0000
0010
,
0100
0001
0001
0010
0100
0010
0001
0100
,
0010
0000
0100
0000
1000
0000
0100
0000
0010
0000
1000
0000
1000
0000
0000
0010
,
1000
0100
1000
0010
0100
0010
1000
0100
,
0001
0000
0000
0000
0000
0000
0011
0000
0000
0000
1000
0000
0100
0000
0000
0010
0000
0000
0100
0000
0000
1000
0000
0000
,
0100
0000
0010
0000
0100
0000
1000
0000
0001
0000
0100
0000
0001
0000
0000
0100
,
0001
0010
0001
0100
0010
1000
0001
1000
,
0100
0000
0000
0000
0000
0000
0010
0000
0000
0000
0000
0000
0100
0000
0000
0000
0000
0000
0000
0000
0001
0000
0000
0000
1000
0000
0000
0000
0000
0000
1000
0000
0000
0000
0000
0000
1000
0000
0000
0001
0000
0000
0000
0000
0000
1001
0000
0000
,
0000
0000
0000
0110
0000
0000
0000
0000
0000
0001
1000
0000
0001
0000
0100
0000
,
0010
0000
0000
0110
0000
0000
0000
0000
1000
0000
1000
0000
0001
0100
0001
0000
,
0001
0100
0000
0000
0110
0000
0100
0000
0010
1000
0010
0000
1000
0000
1000
0000
,
0010
0100
0000
0000
0100
0001
0000
0000
1000
0100
0000
0000
0010
0000
0001
0000
,
0010
0100
1000
0010
0100
0000
0001
0000
0010
0000
0100
0000
1000
0010
0100
0001
,
0010
0000
0100
0000
1000
0000
0010
0000
1000
0000
0010
0000
0100
0000
0000
0001
,
0020
0100
0100
0130
,
0100
0001
0000
0000
1000
0000
0100
0000
1000
0000
0010
0000
0100
0000
0000
0001
,
0010
0000
0000
0010
0100
0000
0100
1000
0010
0100
0001
0010
0100
1000
0010
0100
,
0002
1000
1000
0000
0200
0000
0000
0000
,
0303
0000
0001
0100
0101
0000
1000
0100
,
1100
0000
0001
1000
1001
0000
0110
0000
,
0001
0100
0010
0000
0101
0000
0110
0000
,
1000
0100
0010
0100
1000
0000
1010
0000
,
1000
0100
0001
0100
1000
0010
0100
1000
,
0100
0010
1000
0100
0010
0001
0100
0001
,
0001
1001
0010
0100
1000
0100
0010
0001
,
1000
1001
0100
0010
0001
0010
0100
1000
,
0001
1001
0001
0100
0010
1000
0001
1000
,
1000
1001
1000
0010
0100
0001
0010
0100
,
1000
0000
0000
0000
0000
0000
0000
0000
0000
0000
0000
0000
0010
0000
0000
0000
0000
0000
0000
0000
0100
0000
0000
0000
0000
0000
0000
0000
0001
0000
0000
0000
0000
0000
0000
0000
1000
0000
0000
0001
0000
0000
0000
0000
0000
0000
0000
0000
,
0011
0000
0000
0000
0000
0000
0000
0000
0000
0100
0000
0000
0000
0000
0000
0000
0000
0000
0000
0000
2002
0000
0000
0000
0000
0000
0000
0000
0000
0000
0000
0000
0000
0000
0000
0000
0000
0000
0000
0000
0000
0000
0000
0000
0000
0000
0000
0000
,
3003
0000
2000
0010
3010
0000
0002
0010
,
0013
0000
2000
0100
3100
0000
0002
0100
,
0103
0000
0000
0000
0001
0000
0010
0000
0100
0000
1000
0000
1000
0100
0000
0000
,
0100
0010
0000
0000
0010
0001
0000
0000
0001
0000
0100
0000
0010
0000
1000
0000
,
0010
1000
0000
0000
1000
0000
0100
0000
0010
0000
0001
0000
0010
0001
0000
0000
,
0100
0010
1000
0000
1010
0000
0110
0000
,
0001
0010
0100
0000
0011
0000
0101
0000
,
1000
0001
0000
0000
0001
0100
0000
0000
0100
0010
0000
0000
1000
0000
0100
0000
,
0010
0001
0200
0000
0010
0000
1000
0000
,
0310
0001
2000
0000
0010
0000
0100
0000
,
3010
0100
0002
0000
1000
0000
0010
0000
,
1003
0100
0020
0000
0001
0000
0100
0000
,
0130
0000
0010
0001
0100
1000
0100
0010
,
2000
3020
0230
0302
,
1003
0100
0010
0000
0011
0000
0001
0100
,
0010
0000
0110
0000
1010
0000
1000
0010
,
0001
0000
0010
0000
1000
0000
1000
0000
0000
0000
0000
0000
1000
0100
0010
0001
,
1000
0100
0010
0001
0100
0020
0000
0000
0000
0000
0000
0000
0000
0000
0000
0000
,
0000
0000
0030
0000
;

//---------------dance-single - ----------------
#NOTES:
     dance-single:
     :
     Medium:
     7:
     0.386089,0.387149,0.254254,0.141252,0.000000,245.000000,27.000000,15.000000,0.000000,0.000000,0.000000,0.386089,0.387149,0.254254,0.141252,0.000000,245.000000,27.000000,15.000000,0.000000,0.000000,0.000000:
0000
0000
0000
0000
,
0000
0000
0000
0000
,
0000
0000
0000
0000
,
0000
0000
0000
0000
,
0000
0000
0000
0000
,
0000
0000
0000
0000
,
0011
1000
0100
0110
,
1001
0000
0001
0000
0001
1000
0100
0000
,
0001
0010
0010
1010
,
0101
0011
0001
0010
,
0001
0100
0010
0000
1000
0000
0100
0001
,
0010
0000
1000
0000
,
0000
0000
1000
0001
1000
0000
0010
0000
,
0000
0100
0010
1000
,
1100
0101
0001
0010
,
0110
0000
1001
0000
0001
1000
0001
0000
,
0010
0000
0001
0100
0001
0000
0001
0000
,
0010
0000
1000
0001
0010
0000
1000
0000
,
0100
0000
0001
0000
0100
0000
0001
0010
,
0001
0001
0010
0001
,
1000
0000
1100
0000
0010
0001
0010
0000
,
0010
0100
0010
0000
1000
0000
1000
0010
,
1000
1000
0100
1000
,
0010
0100
0010
0000
0001
0000
0001
0000
,
0000
0000
0000
1000
,
0100
0000
0000
0000
0001
1000
1000
0000
,
1000
0000
0110
0000
0100
1000
0001
0000
,
0100
0000
0010
0000
0001
0010
0100
0000
,
0100
0010
0100
0001
,
0100
0000
0001
0000
0001
0000
0010
1000
,
0200
0010
0010
0310
,
0010
0001
0001
0010
,
0100
0010
0100
0010
,
2000
0000
0002
0000
,
3003
1000
1010
0001
,
0011
1000
1001
0110
,
1000
0100
0100
0000
1010
0000
0110
0000
,
0001
0000
0100
1000
0001
0000
0101
0000
,
0001
0000
1000
0000
0001
0000
0010
0100
,
0010
0000
0001
0000
0100
0000
0010
0001
,
1000
0100
0001
0100
,
0001
0000
0010
0001
1000
0000
0010
0000
,
1000
0100
1000
0000
0100
0000
1000
0000
,
0001
0010
0001
0000
0010
0000
0100
0000
,
0001
0100
0000
0001
,
1001
0000
0000
0000
,
0000
0002
0103
2000
,
3100
0002
0013
2000
,
3010
1000
0010
0001
,
0010
0000
0100
0000
1000
0001
0100
0000
,
0100
0000
0001
0000
0100
0010
0100
0000
,
0010
0001
0101
0110
,
1000
0010
1100
1010
,
0001
0000
1000
0000
0010
0100
0001
0000
,
0100
0020
0100
0001
,
0130
0001
0002
0000
0100
0000
0010
0000
,
0103
2000
0001
0100
,
3001
0100
0200
0000
1000
0000
0010
0000
,
0310
0100
0010
0010
,
0002
0203
0320
2030
,
3001
0000
0100
0000
1100
0000
1000
0010
,
0100
0110
0101
0001
,
1000
0100
0001
0000
0000
0000
0001
0100
,
0001
1000
0010
0000
0000
0000
0000
0000
;

//---------------dance-single - ----------------
#NOTES:
     dance-single:
     :
     Easy:
     5:
     0.273088,0.238245,0.000000,0.113002,0.000000,191.000000,0.000000,12.000000,0.000000,0.000000,0.000000,0.273088,0.238245,0.000000,0.113002,0.000000,191.000000,0.000000,12.000000,0.000000,0.000000,0.000000:
// measure 0
0000
0000
0000
0000
,  // measure 1
0000
0000
0000
0000
,  // measure 2
0000
0000
0000
0000
,  // measure 3
0000
0000
0000
0000
,  // measure 4
0000
0000
0000
0000
,  // measure 5
0000
0000
0000
0000
,  // measure 6
0100
0010
1000
0001
,  // measure 7
0100
0100
0100
1000
,  // measure 8
0100
0001
0001
0001
,  // measure 9
0100
0100
0100
0001
,  // measure 10
0100
0001
0010
1000
,  // measure 11
0001
0000
0010
0000
,  // measure 12
0000
0010
0010
0001
,  // measure 13
0000
1000
0001
0010
,  // measure 14
1000
0100
0100
0001
,  // measure 15
0001
0100
0100
0100
,  // measure 16
0001
0100
0100
0100
,  // measure 17
0001
0010
0001
0010
,  // measure 18
1000
0100
1000
0100
,  // measure 19
0100
0100
0001
0100
,  // measure 20
0010
1000
0001
0001
,  // measure 21
0001
0001
0010
0010
,  // measure 22
0010
0010
1000
0010
,  // measure 23
0001
0001
0100
0100
,  // measure 24
0000
0000
0000
0010
,  // measure 25
1000
0000
0100
0010
,  // measure 26
0010
0001
1000
0100
,  // measure 27
1000
0001
0100
1000
,  // measure 28
1000
0001
1000
0100
,  // measure 29
1000
0100
0100
0001
,  // measure 30
2000
0000
0000
3000
,  // measure 31
0001
0100
0100
0001
,  // measure 32
1000
0001
1000
0001
,  // measure 33
0020
0000
0000
0000
,  // measure 34
0030
0010
0001
0100
,  // measure 35
0100
0010
0100
0001
,  // measure 36
0010
1000
0001
0001
,  // measure 37
0100
1000
0100
0100
,  // measure 38
0100
0010
0100
0001
,  // measure 39
0001
0100
1000
0001
,  // measure 40
0010
1000
0100
1000
,  // measure 41
0100
0001
0010
0001
,  // measure 42
0010
0010
1000
0010
,  // measure 43
0100
0100
0001
1000
,  // measure 44
0100
1000
0000
0100
,  // measure 45
0100
0000
0000
0000
,  // measure 46
0000
0200
0300
0020
,  // measure 47
0030
0200
0300
0020
,  // measure 48
0030
0010
0001
0100
,  // measure 49
0001
1000
0010
1000
,  // measure 50
1000
0100
1000
1000
,  // measure 51
0001
0100
0100
0001
,  // measure 52
0010
0001
1000
0001
,  // measure 53
0100
0010
0001
0100
,  // measure 54
1000
0002
0000
0000
,  // measure 55
0003
0200
0000
0000
,  // measure 56
0300
0020
0000
0000
,  // measure 57
0030
2000
0000
0000
,  // measure 58
3000
1000
0001
0001
,  // measure 59
0200
0300
0002
0003
,  // measure 60
0100
1000
1000
0010
,  // measure 61
1000
0001
0100
0100
,  // measure 62
0010
0100
0000
0100
,  // measure 63
0100
0010
0000
0000
;
