#TITLE:Halcyon;
#SUBTITLE:;
#ARTIST:xi;
#TITLETRANSLIT:;
#SUBTITLETRANSLIT:;
#ARTISTTRANSLIT:;
#GENRE:;
#CREDIT:;
#BANNER:Jalcyon-banner.png;
#BACKGROUND:Jalcyon-bg.png;
#LYRICSPATH:;
#CDTITLE:cdtitle.png;
#MUSIC:Halcyon.mp3;
#OFFSET:0.420000;
#SAMPLESTART:27.872025;
#SAMPLELENGTH:15.000000;
#SELECTABLE:YES;
#DISPLAYBPM:40.000000:191.000000;
#BPMS:0.000000=95.000000
,34.000000=90.000000
,35.000000=85.000000
,36.000000=80.000000
,37.000000=75.000000
,38.000000=70.000000
,39.000000=60.000000
,40.000000=40.000000
,41.000000=191.000000
;
#STOPS:41.000000=0.315000,
300.000000=0.942000
;
#BGCHANGES:0.250=[Mythology] - Halcyon.avi=1.000=0=0=1=====,
99999=-nosongbg-=1.000=0=0=0 // don't automatically add -songbackground-
;
#KEYSOUNDS:;
#ATTACKS:;

//---------------dance-single - ----------------
#NOTES:
     dance-single:
     :
     Hard:
     10:
     0.677222,0.734286,0.342691,0.264157,0.096382,579.000000,48.000000,37.000000,0.000000,0.000000,0.000000,0.677222,0.734286,0.342691,0.264157,0.096382,579.000000,48.000000,37.000000,0.000000,0.000000,0.000000:
0000
0000
0000
0000
,
0000
0000
0000
0000
,
0000
2001
0000
0000
,
0000
3020
0000
0000
,
0000
0230
0000
0000
,
0000
0302
0000
2000
,
3003
0000
0000
0000
1000
0000
0100
0000
0001
0000
0100
1000
0010
0100
0001
0000
,
1000
0000
1000
0000
0001
0000
0100
0000
1000
0000
0100
0001
0010
0100
1000
0000
,
0001
1000
0001
1000
0002
0000
0000
0000
2003
0000
0000
0000
3002
0000
0000
0000
,
0013
0000
0000
0000
0100
0000
0000
0000
0010
0000
0000
0000
0100
0000
0000
0000
0000
0000
1000
0000
0000
0000
0000
0000
1000
0000
0000
0000
0000
0000
0001
0000
0000
0100
0000
0000
0010
0000
0000
0010
0000
0000
1000
0000
0000
0100
0000
0000
,
0010
0100
0010
0001
1001
0000
0000
0000
1000
0000
0100
0000
0001
0000
0100
0000
,
1000
1000
0001
0100
0000
0120
0000
1030
,
0000
1200
0000
0320
0000
0031
1000
1000
,
0001
0001
1000
0010
0000
0210
0000
0301
,
0000
0021
0000
2030
0000
3010
0000
0011
,
0000
0000
0000
0000
0000
0000
0001
0010
0001
0000
1000
0000
1000
0000
0200
0000
,
0000
0302
0000
0203
0000
1300
0001
0001
,
1001
0000
0001
0100
0000
0100
0001
0010
,
0000
0010
0100
1000
0001
0100
1000
0100
,
0001
0001
1000
0100
0000
0120
0000
0031
,
0000
0201
0000
0320
0000
1030
0001
0001
,
1000
1000
0001
0010
0000
0210
0000
1300
,
0000
0000
1020
0000
0000
0000
0032
0000
0000
0000
0013
0000
0000
0000
1000
0010
,
1000
0000
1001
0000
1000
0100
0010
0001
,
0000
0010
0001
0000
0001
0100
0010
1000
,
0000
0010
1000
0000
1001
0000
1001
0000
,
1000
0100
0010
0001
0010
0100
1000
0000
,
1001
0000
1001
0000
1000
0100
0010
0001
,
0000
0011
0000
0101
0000
0100
0010
0000
,
0110
0000
1001
0000
0001
0010
0100
1000
,
0000
0001
0010
0100
1000
0010
0100
0010
,
1000
0000
1001
0000
1000
0100
0001
0100
,
1000
0010
1000
0010
0100
0001
0100
0001
,
1000
0100
0010
0100
0010
0001
1000
1000
,
0001
0100
1000
0100
0001
0010
1000
0010
,
0001
0000
1001
0000
0001
0010
0100
1000
,
0000
1100
0000
1010
0000
0010
0100
0000
,
0110
0000
1001
0000
1000
0100
0010
0001
,
0000
1000
0100
0010
0001
0100
0010
0100
,
0001
0000
1001
0000
0001
0100
1000
0100
,
0001
0010
0001
0010
0100
1000
0100
1000
,
0001
0100
0010
0100
0010
1000
0001
0001
,
1000
0100
0001
0100
1000
0010
0001
0010
,
1000
0000
1001
0000
0000
0001
1000
0001
,
1000
0000
0000
0100
0000
0000
0001
0000
0000
0100
0000
0000
1000
0000
0010
0000
,
0100
0000
0110
0000
0010
1000
0100
0010
,
0001
0100
0000
0100
0001
0010
0100
1000
,
0001
0000
1001
0000
1000
0010
0100
0010
,
1000
0100
0010
0001
0100
0001
0010
0100
,
1000
0000
1010
0000
0010
0100
0001
0010
,
0100
0000
0100
0010
0001
0100
0010
1000
,
0001
0000
1001
0000
0000
1000
0001
1000
,
0001
0000
0000
0100
0000
0000
1000
0000
0000
0100
0000
0000
0001
0000
0010
0000
,
0100
0000
0110
0000
0010
0100
1000
0010
,
0100
0000
0100
0010
1000
0100
0010
0001
,
1000
0000
1001
0000
0001
0100
0010
0100
,
0001
0010
0100
1000
0010
1000
0100
0010
,
0001
0001
1000
0010
0100
0001
0100
0010
,
1000
1001
0000
0000
,
1000
0010
0100
0001
0010
0100
1000
0010
,
0100
0001
0010
0100
1000
0010
0100
0100
,
0001
0100
0010
1000
0100
0010
0001
0100
,
0010
1000
0100
0010
0001
0100
0010
0010
,
1000
0100
1000
0001
0010
0001
1000
0010
,
1000
0001
0100
0001
1000
0100
1000
1000
,
0001
0100
0001
1000
0010
1000
0001
0010
,
0001
1000
0100
1000
0001
0100
0001
0001
,
1000
0100
0001
1000
0010
0001
1000
0010
,
0001
1000
0100
0001
1000
0010
0100
0100
,
0001
0010
1000
0001
0100
1000
0001
0100
,
1000
0001
0010
1000
0001
0010
0100
0100
,
1000
0010
0100
0001
0100
0010
1000
0100
,
0010
0001
1000
1000
0001
0100
1000
0100
,
0001
0010
0100
1000
0100
0010
0001
0100
,
0010
1000
0001
0001
1000
0100
0001
0100
,
1000
0000
1001
0000
1000
0010
0000
0210
,
0000
0301
0000
0021
0000
2030
0000
3010
,
0100
0010
0100
0010
0100
0000
1000
0000
0001
0000
0100
0000
0000
0000
0120
0000
,
0000
1030
0000
1200
0000
0302
0000
0103
,
0000
0000
1100
0000
0000
0000
0000
0000
0000
0000
1000
0100
1000
0000
0001
0000
,
0001
0200
0000
2300
0000
3200
0000
0301
,
1000
1000
1001
0000
1000
0100
0000
0100
,
1000
0000
0010
0000
0000
0000
0010
0000
0100
0000
0001
0000
1000
0001
1000
0001
,
1000
0001
1000
0001
1000
0000
0100
0000
0001
0000
0100
0000
1000
0000
0100
0000
,
0001
0100
1000
0010
0001
0010
1000
0010
,
0001
0010
1000
0100
1000
0100
0010
0001
,
0010
0002
0000
0023
0000
0230
0000
1300
,
0000
0000
1000
0100
1000
0000
0000
0000
1001
0000
0000
0000
0001
0000
0010
0000
,
0100
1000
0000
0100
1000
0000
1000
0010
,
0100
0001
0000
0100
0001
0000
1001
0000
,
1001
0000
0001
0010
0100
1000
0100
0010
,
0001
1001
2002
0000
,
0000
0000
0000
0000
,
0000
0000
3003
0000
;

//---------------dance-single - ----------------
#NOTES:
     dance-single:
     :
     Medium:
     7:
     0.461001,0.567403,0.264157,0.335551,0.000000,368.000000,37.000000,47.000000,0.000000,0.000000,0.000000,0.461001,0.567403,0.264157,0.335551,0.000000,368.000000,37.000000,47.000000,0.000000,0.000000,0.000000:
0000
0000
0000
0000
,
0000
0000
0000
0000
,
0000
1002
0000
0000
,
0000
0023
0000
0000
,
0000
0230
0000
0000
,
0000
2300
0000
0002
,
3003
0002
0000
0203
,
0000
0320
0000
2030
,
0000
3020
0000
0230
,
0000
0302
0000
1003
,
0000
1001
1000
0010
,
0100
0000
0001
0010
0000
0010
0000
0001
,
0000
0100
0000
0010
0000
1000
0001
0000
,
0010
0000
0100
0010
0000
0010
0000
0001
,
0000
0100
0000
0010
0000
1000
0001
0000
,
1001
0000
0001
0100
,
0010
0000
1000
0001
,
1001
0000
0110
0000
,
1001
0000
0001
0010
,
0100
0000
1000
0010
0000
0010
0000
1000
,
0000
0100
0000
0010
0000
0001
1000
0000
,
0010
0000
0100
0010
0000
0010
0000
1000
,
0000
0100
0000
0010
0000
0001
1000
0000
,
1001
0000
0000
0000
0000
0000
1000
0100
,
0001
0000
0000
0000
0000
0000
0001
0100
,
1000
0000
0000
0000
,
0001
0100
0010
1000
0010
0100
0001
0000
,
1001
0000
0001
0000
0010
0000
0000
0100
,
0000
0010
0000
0001
,
1001
0000
1000
0000
0010
0000
0000
0100
,
0000
0010
1000
1001
,
1001
0001
0010
0100
,
1000
0010
0001
0010
,
1000
0100
0010
0000
0100
0000
0010
0000
,
0001
0100
0001
0100
0010
1000
0010
1000
,
1001
0000
1000
0000
0010
0000
0000
0100
,
0000
0010
0000
1000
,
1001
0000
0001
0000
0010
0000
0000
0100
,
0000
0010
0001
1001
,
1001
1000
0010
0100
,
0001
0010
1000
0010
,
0001
0100
0010
0000
0100
0000
0010
0000
,
1000
0100
1000
0100
0010
0001
0010
0001
,
1002
0000
0000
0000
,
0000
0000
0000
0000
0000
0000
0010
0010
,
0023
0000
0000
0000
,
0230
0000
0000
2300
,
0002
0000
0000
3000
,
0200
0000
0003
0320
,
2000
0000
0030
3002
,
2000
0000
0000
3003
,
2001
0000
0000
0000
,
0000
0000
0000
0000
0000
0000
0010
0010
,
3020
0000
0000
0230
,
0002
0000
0300
0000
,
2003
0000
0000
0000
,
0200
3000
0320
0032
,
2000
0000
0000
3003
,
1001
0000
0000
0000
,
1001
0000
0001
0100
1000
0000
0100
0000
,
0010
1000
0100
0000
0001
0100
1000
0000
,
1001
0000
1000
0010
0100
0000
0010
0000
,
1000
0100
0001
0000
1000
0010
0001
0000
,
1001
0000
0001
0100
0010
0000
0100
0000
,
0001
0010
1000
0000
0001
0100
1000
0000
,
1001
0000
1000
0100
0001
0000
0100
0000
,
0010
0001
0100
0000
1000
0100
0001
0000
,
1000
0100
0010
0001
0100
0010
1000
0100
,
0010
0001
0100
0010
1000
0100
0010
0010
,
0001
0010
0100
1000
0010
0100
0001
0010
,
0100
1000
0010
0100
0001
0010
0100
0100
,
1000
0000
0001
0010
0100
1000
0100
0010
,
0001
0000
1000
0010
0100
0001
0100
0010
,
1000
0000
0001
0010
1000
0010
0001
0100
,
0010
0010
1000
0100
0001
0100
1000
0001
,
1001
0000
1001
0000
0001
0100
0000
0120
,
0000
1030
0000
1200
0000
0320
0000
0001
,
0031
0000
1001
0000
1000
0100
0000
0120
,
0000
0031
0000
0201
0000
2300
0000
3200
,
0000
0301
0000
0000
0000
1000
0100
0001
,
0100
2000
0000
3020
0000
0230
0000
0001
,
0301
0000
1001
0000
0001
0010
0000
0010
,
0001
0100
0000
0100
0010
1000
0100
0010
,
0001
0001
1000
0100
0001
0100
1000
0100
,
0001
0100
1000
0010
0001
0010
1000
0010
,
0001
0010
1000
0100
1000
0100
0010
0001
,
0010
0002
0000
0203
0000
0320
0000
2030
,
0000
0001
3001
0000
1001
0000
1000
0100
,
0001
0100
1000
0000
1001
0000
0001
0100
,
1000
0100
0001
0000
1001
0000
0110
0000
,
1001
0000
0001
0010
0100
1000
0100
0010
,
0001
1001
2002
0000
,
0000
0000
0000
0000
,
0000
0000
3003
0000
;

//---------------dance-single - ----------------
#NOTES:
     dance-single:
     :
     Easy:
     4:
     0.247839,0.333766,0.178485,0.014279,0.000000,216.000000,25.000000,2.000000,0.000000,0.000000,0.000000,0.247839,0.333766,0.178485,0.014279,0.000000,216.000000,25.000000,2.000000,0.000000,0.000000,0.000000:
0000
0000
0000
0000
,
0000
0000
0000
0000
,
0000
1000
0000
0000
,
0000
0010
0000
0000
,
0000
0100
0000
0000
,
0000
0001
0000
1000
,
0000
1001
0000
0000
,
0000
0011
0000
0000
,
0000
1100
0000
0000
,
0000
1010
0000
0000
,
0000
0101
0000
0000
,
1000
0000
0000
0000
,
1000
0010
0100
0100
,
0001
0000
0000
0000
,
0001
0010
0100
0100
,
1000
0000
0010
0000
,
0100
0000
0001
0000
,
0011
0000
0000
0000
,
1100
0000
0000
0000
,
1001
0000
0001
0000
,
0100
0000
0010
0000
,
1010
0000
1000
0000
,
0100
0000
0010
0000
,
0011
0000
0000
0000
,
1001
0000
0000
0000
,
0110
0000
0000
0000
,
1001
0000
0000
0000
,
0000
0001
0000
0001
,
0000
0100
0010
1000
,
0000
1000
0000
1000
,
0000
0100
0010
0001
,
0000
1000
0010
0100
,
0001
0100
0010
1000
,
0001
0010
0100
1000
,
0100
0010
0001
1000
,
1001
0000
0000
0000
,
1000
0000
1000
0000
,
1001
0000
0000
0000
,
0001
0000
0001
0000
,
1001
0000
0000
0000
,
0001
0010
0100
1000
,
0100
0010
0001
1000
,
0010
0100
0001
0100
,
0010
1000
0000
0000
,
0001
0000
0000
0000
,
0100
0000
0000
0000
,
0010
1000
0010
1000
,
0100
0000
0000
0000
,
1000
0000
0000
0000
,
0010
0000
0000
0000
,
0100
0000
0001
0100
,
0001
0000
0000
0000
,
0010
0000
0000
0000
,
0100
0000
0000
0000
,
1000
0000
0010
1000
,
0010
0000
1000
0100
,
1000
0000
0100
0010
,
0100
0000
0010
0001
,
0010
0000
0000
0000
,
0001
0000
0100
0000
,
0010
0000
1000
1000
,
0100
0000
0010
0000
,
0001
0000
1000
1000
,
0001
0100
0010
1000
,
0001
0010
0100
1000
,
1000
0010
0100
0001
,
1000
0010
0100
0001
,
0001
0100
0010
0100
,
0001
0010
0100
0010
,
0001
0100
0010
1000
,
0001
0010
0100
1000
,
0010
0100
0010
1000
,
0100
0010
0100
1000
,
0010
0100
0001
1000
,
0100
0010
0001
1000
,
1001
0000
1001
0000
0000
0001
0000
0001
,
0000
0001
0000
0001
0000
0001
0000
0000
,
0000
0000
1001
0000
0000
1000
0000
1000
,
0000
1000
0000
1000
0000
1000
0000
0000
,
0000
1001
0000
0000
0000
0000
1000
0000
,
0000
0010
0000
0100
,
0000
0001
0000
0000
,
0000
0100
0000
0010
,
1000
1000
0100
0010
,
0001
1000
0010
0100
,
0001
0001
0010
0100
,
1000
0001
0100
0010
,
1000
1001
0000
0000
,
0000
0110
0000
0000
,
0000
1001
0000
0000
,
0000
0001
0010
0100
,
1000
1001
2002
0000
,
0000
0000
0000
0000
,
0000
0000
3003
0000
;

//---------------dance-single - ----------------
#NOTES:
     dance-single:
     :
     Beginner:
     3:
     0.198883,0.333766,0.171345,0.014279,0.000000,169.000000,24.000000,2.000000,0.000000,0.000000,0.000000,0.198883,0.333766,0.171345,0.014279,0.000000,169.000000,24.000000,2.000000,0.000000,0.000000,0.000000:
// measure 0
0000
0000
0000
0000
,  // measure 1
0000
0000
0000
0000
,  // measure 2
0000
1000
0000
0000
,  // measure 3
0000
0010
0000
0000
,  // measure 4
0000
0100
0000
0000
,  // measure 5
0000
0001
0000
1000
,  // measure 6
0000
1001
0000
0000
,  // measure 7
0000
0001
0000
0000
,  // measure 8
0000
0010
0000
0000
,  // measure 9
0000
0100
0000
1000
,  // measure 10
0000
1001
0000
0000
,  // measure 11
1000
0000
0000
0000
,  // measure 12
0000
0000
0000
0000
,  // measure 13
0001
0000
0000
0000
,  // measure 14
0000
0000
0000
0000
,  // measure 15
1001
0000
0000
0000
,  // measure 16
0110
0000
0000
0000
,  // measure 17
1001
0000
0000
0000
,  // measure 18
0110
0000
0000
0000
,  // measure 19
1001
0000
0001
0000
,  // measure 20
0010
0000
0100
0000
,  // measure 21
0110
0000
0010
0000
,  // measure 22
0100
0000
1000
0000
,  // measure 23
1001
0000
0000
0000
,  // measure 24
0110
0000
0000
0000
,  // measure 25
1001
0000
0000
0000
,  // measure 26
1000
0000
0010
0000
,  // measure 27
0100
0000
0001
0000
,  // measure 28
1000
0000
0100
0000
,  // measure 29
1000
0000
0010
0000
,  // measure 30
0100
0000
0001
0000
,  // measure 31
1000
0000
0001
0000
,  // measure 32
0010
0010
0100
0100
,  // measure 33
0010
0000
0001
0000
,  // measure 34
0100
0100
0010
0010
,  // measure 35
1010
0000
0000
0000
,  // measure 36
0000
0000
0000
0000
,  // measure 37
0110
0000
0000
0000
,  // measure 38
0000
0000
0000
0000
,  // measure 39
0101
0000
0001
0000
,  // measure 40
0010
0010
0100
0100
,  // measure 41
0010
0001
1000
0010
,  // measure 42
0100
0100
0010
0010
,  // measure 43
1000
0000
0000
0000
,  // measure 44
0000
0000
0000
0000
,  // measure 45
0001
0000
0000
0000
,  // measure 46
0010
0000
0100
0010
,  // measure 47
0100
0000
0000
0000
,  // measure 48
1000
0000
0000
0000
,  // measure 49
0010
0000
0000
0000
,  // measure 50
0100
0000
0010
0100
,  // measure 51
0010
0000
0000
0000
,  // measure 52
0100
0000
0000
0000
,  // measure 53
0001
0000
0000
0000
,  // measure 54
0010
0000
0100
0010
,  // measure 55
0100
0000
1000
0010
,  // measure 56
1000
0000
0010
0100
,  // measure 57
0010
0000
0100
0001
,  // measure 58
0100
0000
0000
0000
,  // measure 59
0001
0000
0000
0000
,  // measure 60
0001
0000
0000
0000
,  // measure 61
0001
0000
0000
0000
,  // measure 62
0001
0000
0001
0010
,  // measure 63
0100
0000
0000
0000
,  // measure 64
0100
0000
0000
0000
,  // measure 65
0100
0000
0000
0000
,  // measure 66
0100
0000
0100
1000
,  // measure 67
0010
1000
0100
0010
,  // measure 68
0001
0100
0001
0010
,  // measure 69
0100
1000
0010
0100
,  // measure 70
0001
0100
0010
1000
,  // measure 71
1001
0000
0000
0000
,  // measure 72
0110
0000
0000
0000
,  // measure 73
1001
0000
0000
0000
,  // measure 74
0110
0000
0000
0000
,  // measure 75
1001
0001
0000
0000
,  // measure 76
0000
0001
0000
0001
,  // measure 77
0010
0100
0000
0000
,  // measure 78
0000
0100
0000
0100
,  // measure 79
1000
0010
0000
0010
,  // measure 80
1000
0100
0000
0100
,  // measure 81
0010
0001
0000
0010
,  // measure 82
0000
0100
0000
1000
,  // measure 83
0000
0001
0100
0010
,  // measure 84
1000
0001
0010
0100
,  // measure 85
1000
0001
0100
0010
,  // measure 86
1000
0001
0010
0100
,  // measure 87
1000
1001
0000
0000
,  // measure 88
0000
0110
0000
0000
,  // measure 89
0000
1001
0000
0000
,  // measure 90
0000
0001
0010
0100
,  // measure 91
1000
1001
2002
0000
,  // measure 92
0000
0000
0000
0000
,  // measure 93
0000
0000
3003
0000
;
