#VERSION:0.81;
#TITLE:HYDRA;
#SUBTITLE:;
#ARTIST:96;
#TITLETRANSLIT:;
#SUBTITLETRANSLIT:;
#ARTISTTRANSLIT:;
#GENRE:;
#ORIGIN:;
#CREDIT:;
#BANNER:[Mythology] - HYDRA.png;
#BACKGROUND:[Mythology] - HYDRA-bg.png;
#PREVIEWVID:;
#JACKET:[Mythology] - HYDRA-jacket.png;
#CDIMAGE:;
#DISCIMAGE:;
#LYRICSPATH:;
#CDTITLE:cdtitle.png;
#MUSIC:[Mythology] - HYDRA.ogg;
#OFFSET:0.000000;
#SAMPLESTART:22.514874;
#SAMPLELENGTH:13.862816;
#SELECTABLE:YES;
#BPMS:0.000=138.500,
36.000=277.000;
#STOPS:;
#DELAYS:;
#WARPS:;
#TIMESIGNATURES:0.000=4=4;
#TICKCOUNTS:0.000=4;
#COMBOS:0.000=1;
#SPEEDS:0.000=1.000=0.000=0;
#SCROLLS:0.000=1.000;
#FAKES:;
#LABELS:0.000=Song Start;
#BGCHANGES:;
#KEYSOUNDS:;
#ATTACKS:
;

//---------------dance-single - S-EXPERT----------------
#NOTEDATA:;
#CHARTNAME:xRGTMx-EXP;
#STEPSTYPE:dance-single;
#DESCRIPTION:S-EXPERT;
#CHARTSTYLE:;
#DIFFICULTY:Challenge;
#METER:11;
#RADARVALUES:0.894501,0.967175,0.560732,0.280366,0.060746,580.000000,60.000000,30.000000,0.000000,0.000000,0.000000,0.000000,0.000000,0.894501,0.967175,0.560732,0.280366,0.060746,580.000000,60.000000,30.000000,0.000000,0.000000,0.000000,0.000000,0.000000;
#CREDIT:xRGTMx;
#NOTES:
// measure 0
0000
0000
0000
0000
,  // measure 1
0000
0000
0000
0000
,  // measure 2
0000
0000
0000
0000
,  // measure 3
0000
0000
0000
0000
,  // measure 4
0000
0000
0000
0000
,  // measure 5
0012
0000
0000
1000
0000
0000
0100
0000
0000
1000
0003
0000
0001
0000
1000
0000
,  // measure 6
2010
0000
0000
0001
0000
0000
0100
0000
0000
0001
3000
0000
1000
0000
0001
0000
,  // measure 7
0201
0000
0000
1000
0000
0000
0001
0000
0000
0010
0000
0000
0301
0000
1000
0000
,  // measure 8
1100
0000
0000
0011
0000
0000
1010
0000
0000
0010
1000
0001
1000
0100
1000
0100
,  // measure 9
0010
0000
0001
0010
0001
0100
0001
0000
,  // measure 10
0100
0010
1000
0010
0100
0000
0001
1000
,  // measure 11
0100
0000
1000
0001
0000
1000
0010
0000
,  // measure 12
1000
0100
0000
1000
0010
0100
0001
0000
,  // measure 13
1000
0000
0100
0010
0001
0010
0100
0000
,  // measure 14
1000
0010
0100
0010
1000
0000
0001
1000
,  // measure 15
0001
0000
0100
0010
0000
0100
0001
0000
,  // measure 16
0010
0001
1000
0010
1000
0010
0100
0000
,  // measure 17
0001
0000
0010
0100
1000
0100
0010
0000
,  // measure 18
0001
0100
0010
1000
0010
0000
0100
0001
,  // measure 19
1000
0000
0100
0010
0000
0100
0001
0000
,  // measure 20
0100
0010
0000
0100
1000
0001
0100
0001
,  // measure 21
1000
0000
0010
0100
0001
0100
0010
0000
,  // measure 22
1000
0100
0010
0001
0010
0000
0100
1000
,  // measure 23
0001
0000
0100
0010
0000
0100
1000
0000
,  // measure 24
0100
0010
0000
0100
0001
1000
0100
0000
,  // measure 25
1001
0000
1000
0001
0010
0000
0100
0000
,  // measure 26
0010
0001
0010
0000
0100
0000
1000
0001
,  // measure 27
0200
0000
0310
0100
0002
0000
1003
0100
,  // measure 28
0020
0000
0031
0100
0010
0000
0110
0000
,  // measure 29
1001
0000
0001
1000
0100
0000
0010
0000
,  // measure 30
0100
1000
0100
0000
0010
0000
0001
1000
,  // measure 31
0020
0000
0130
0010
2000
0000
3001
0010
,  // measure 32
0100
1000
0001
0100
0001
0000
0110
0000
,  // measure 33
1001
0000
1000
0010
0100
0000
0001
0000
,  // measure 34
1000
0100
0010
0000
0100
0000
1000
0001
,  // measure 35
0200
0000
0310
0100
0002
0000
0013
0100
,  // measure 36
2000
0000
3001
1000
0010
0000
0110
0000
,  // measure 37
1001
0000
0001
0100
0010
0000
1000
0000
,  // measure 38
0001
0010
0100
0000
0010
0000
0001
1000
,  // measure 39
0020
0000
0130
0010
2000
0000
3100
0010
,  // measure 40
0002
0000
1003
0001
0100
0010
0100
0010
,  // measure 41
1000
0001
0000
0001
0010
0100
0010
0000
,  // measure 42
0001
0000
0001
0100
0000
0100
0010
0000
,  // measure 43
1000
0000
1000
0100
0000
0100
0001
0000
,  // measure 44
0100
1000
0100
1000
0000
0001
0100
0000
,  // measure 45
0001
1000
0000
1000
0010
0100
0010
0000
,  // measure 46
1000
0000
1000
0100
0000
0100
0010
0000
,  // measure 47
0001
0100
0010
1000
0000
0001
0100
0000
,  // measure 48
0001
0010
0000
0010
0100
0000
1000
0100
,  // measure 49
1000
0010
0000
0010
0100
0001
1000
0000
,  // measure 50
0001
0000
0001
0010
0000
0010
1000
0000
,  // measure 51
0010
0100
0010
0100
0000
1000
0001
0000
,  // measure 52
0100
0010
0100
1000
0100
0001
0100
0000
,  // measure 53
0001
0010
0000
0010
0100
1000
0001
0000
,  // measure 54
1000
0000
1000
0010
0000
0010
0001
0000
,  // measure 55
0020
0000
0000
0130
0010
0100
0001
1000
,  // measure 56
0001
1000
0001
0100
0000
0000
0110
0000
,  // measure 57
1010
0000
1000
0001
0000
0001
0010
0000
,  // measure 58
0011
0000
0001
0000
0100
0010
0100
0000
,  // measure 59
0002
0000
0010
1000
,  // measure 60
0103
0000
1010
0000
1000
0100
0010
0000
,  // measure 61
0011
0000
0001
1000
0010
1000
0100
0000
,  // measure 62
1000
0100
0010
0100
1000
0000
0101
0000
,  // measure 63
2100
0000
3002
0000
,  // measure 64
0203
0000
0310
0100
0000
0010
0100
0000
,  // measure 65
1001
0000
1000
0001
0000
0001
0100
0000
,  // measure 66
0101
0000
0001
0000
0010
0100
0010
0000
,  // measure 67
0002
0000
1000
0000
,  // measure 68
0023
0000
0000
0000
0000
0000
0031
1000
,  // measure 69
0100
0000
1000
0010
0100
0001
0010
0000
,  // measure 70
0021
0130
2100
3001
,  // measure 71
0201
0000
0000
0000
0310
0000
0100
0001
,  // measure 72
1000
0000
0100
0010
0000
0010
0001
0100
,  // measure 73
0001
0000
1000
0100
0010
0001
0100
0000
,  // measure 74
0101
0000
0001
1000
0000
1000
0100
0000
,  // measure 75
0110
0000
0000
0011
0000
0000
1010
0000
,  // measure 76
2001
0000
0000
0000
3100
1000
0100
1000
,  // measure 77
0001
0100
0001
0100
1000
0100
1000
0100
,  // measure 78
0010
0100
0010
0100
0001
0010
0100
1000
,  // measure 79
0001
0000
0010
0100
0000
1000
0010
0000
,  // measure 80
0001
0010
0000
1000
0100
0000
1001
0000
,  // measure 81
1000
0100
1000
0100
0001
0100
0001
0100
,  // measure 82
0010
0100
0010
0100
1000
0010
0100
0001
,  // measure 83
1000
0000
0010
0100
0000
0001
0010
0000
,  // measure 84
1000
0010
0000
0001
0100
0000
1001
0000
,  // measure 85
0001
0010
0100
0010
0001
0100
0010
0100
,  // measure 86
0001
0010
1000
0010
0001
0100
1000
0100
,  // measure 87
0001
0000
0010
0100
0000
1000
0010
0000
,  // measure 88
0001
1000
0000
0100
0001
0000
1001
0000
,  // measure 89
1000
0010
0100
0010
1000
0100
0010
0100
,  // measure 90
1000
0010
0001
0010
1000
0100
0001
0100
,  // measure 91
1000
0000
0010
0100
0000
0001
0010
0000
,  // measure 92
1000
0001
0000
0100
1000
0000
0110
0000
,  // measure 93
1001
0000
0100
0010
0001
0000
0101
0000
,  // measure 94
0100
0010
1000
0000
1100
0000
0100
0010
,  // measure 95
0001
0000
1001
0000
1000
0010
1000
0010
,  // measure 96
0100
0001
0100
0001
1000
0000
0001
0100
,  // measure 97
0010
0000
1010
0000
1000
0100
0010
0000
,  // measure 98
0011
0000
0001
0100
0010
0000
1001
0000
,  // measure 99
0011
1010
0220
0330
,  // measure 100
1001
0000
1000
0010
0110
0000
1001
0000
,  // measure 101
0001
0010
0110
0000
1001
0000
1000
0010
,  // measure 102
0110
0000
1001
0000
1000
0100
0010
0001
,  // measure 103
1000
0010
0100
0001
1000
0000
0001
0100
,  // measure 104
0110
0000
1001
0000
1000
0100
0110
0000
,  // measure 105
1001
0000
0001
0100
0110
0000
1001
0000
,  // measure 106
0101
1100
2002
3003
,  // measure 107
0020
0000
0000
0000
,  // measure 108
0000
0000
0000
0000
0000
0000
0000
0000
0030
0000
0000
0000
0000
0010
0000
0100
;

//---------------dance-single - S-HARD----------------
#NOTEDATA:;
#CHARTNAME:xRGTMx-HRD;
#STEPSTYPE:dance-single;
#DESCRIPTION:S-HARD;
#CHARTSTYLE:;
#DIFFICULTY:Hard;
#METER:9;
#RADARVALUES:0.674213,0.762683,0.439240,0.242984,0.046728,432.000000,47.000000,26.000000,0.000000,0.000000,0.000000,0.000000,0.000000,0.674213,0.762683,0.439240,0.242984,0.046728,432.000000,47.000000,26.000000,0.000000,0.000000,0.000000,0.000000,0.000000;
#CREDIT:xRGTMx;
#NOTES:
0000
0000
0000
0000
,
0000
0000
0000
0000
,
0000
0000
0000
0000
,
0000
0000
0000
0000
,
0000
0000
0000
0000
,
0010
0000
0000
1000
0000
0000
0001
0000
0000
1000
0000
0000
0100
0000
1000
0000
,
0010
0000
0000
0100
0000
0000
0001
0000
0000
1000
0000
0000
0001
0000
0010
0000
,
0100
0000
0000
1000
0000
0000
0001
0000
0000
0100
0000
0000
0001
0000
1000
0000
,
0010
0000
0000
1010
0000
0000
0101
0000
0000
0001
1000
0100
1000
0100
0010
0000
,
0001
0100
0010
0100
,
0001
0000
0010
0000
0100
0000
1000
0100
,
1000
0000
0000
0001
0000
0000
0100
0000
,
0000
0010
0000
0010
0100
0000
1001
0000
,
1000
0100
0010
0100
,
1000
0000
0010
0000
0100
0000
0001
0100
,
0001
0000
0000
1000
0000
0000
0100
0000
,
0000
0010
0000
0010
0100
0000
1001
0000
,
0001
0010
1000
0010
,
0001
0000
0100
0000
0010
0000
1000
0010
,
1000
0000
0100
0010
0000
0010
0100
0000
,
0000
1000
0000
0001
0100
0000
1001
0000
,
1000
0010
0001
0010
,
1000
0000
0100
0000
0010
0000
0001
0010
,
0001
0000
0100
0010
0000
0010
0100
0000
,
0001
1000
0000
0100
1000
0000
1001
0000
,
0001
0100
0100
1000
,
0100
0000
0100
0000
0001
0000
1000
0100
,
1000
0000
0001
0100
0001
0000
0010
0000
,
0010
0000
0100
0010
0100
0000
1001
0000
,
1000
0100
0100
0001
,
0100
0000
0100
0000
1000
0000
0001
0100
,
0001
0000
1000
0100
1000
0000
0010
0000
,
0100
0010
0100
0010
0100
0000
1001
0000
,
0001
0010
0010
1000
,
0010
0000
0010
0000
0001
0000
1000
0010
,
1000
0000
0001
0010
0001
0000
0100
0000
,
0100
0000
0010
0100
0010
0000
1001
0000
,
1000
0010
0010
0001
,
0010
0000
0010
0000
1000
0000
0001
0010
,
0001
0000
1000
0010
1000
0000
0100
0000
,
0110
0000
1000
0001
1000
0010
0100
0010
,
2000
0000
0000
0100
0000
0000
0001
0000
,
3020
0000
0000
1000
0000
0000
0001
0000
,
0230
0000
0000
1000
0000
0000
0010
0000
,
0302
0000
0000
0100
0000
0000
0010
0000
,
2003
0000
0000
0010
0000
0000
0001
0000
,
3200
0000
0000
1000
0000
0000
0001
0000
,
0310
0000
0010
0001
0000
0001
0100
0000
,
0010
1000
0000
0000
1001
0000
0001
1000
,
0002
0000
0000
0010
0000
0000
1000
0000
,
0203
0000
0000
0001
0000
0000
1000
0000
,
0320
0000
0000
0001
0000
0000
0100
0000
,
2030
0000
0000
0010
0000
0000
0100
0000
,
3002
0000
0000
0100
0000
0000
1000
0000
,
0023
0000
0000
0001
0000
0000
1000
0000
,
0130
0010
0100
0010
0000
0000
0001
1000
,
0010
0000
0010
0100
0000
0000
1001
0000
,
1000
0000
0000
0001
0000
0000
0100
0000
,
0002
0000
0013
0001
,
0200
0000
1300
0100
,
0001
0000
0010
0100
0010
0000
0100
0000
,
1000
0000
0000
0001
0000
0000
0010
0000
,
0002
0000
0103
0001
,
0020
0000
0032
0000
,
1003
0000
0001
0010
0100
0000
1001
0000
,
1000
0000
1000
0001
0000
0001
0100
0000
,
0002
0000
0013
0001
,
1001
0000
0110
0000
,
2002
0000
0000
0000
3003
0000
1000
0001
,
1000
0000
1000
0001
0000
0001
0010
0000
,
0002
0000
0103
0001
,
0020
0000
0000
0000
0000
0000
0130
0010
,
0100
0000
1000
0100
0000
0000
1000
0001
,
1000
0000
1000
0010
0000
0010
0001
0000
,
0010
0000
0010
1000
0000
1000
0001
0000
,
0010
0000
0000
0011
0000
0000
1001
0000
,
1020
0000
0230
0000
,
0301
0100
0010
0100
,
0001
0000
0010
0000
0100
0000
1000
0100
,
1000
0000
0000
0001
0000
0000
0100
0000
,
0000
0010
0000
0010
0100
0000
1001
0000
,
1000
0100
0010
0100
,
1000
0000
0010
0000
0100
0000
0001
0100
,
0001
0000
0000
1000
0000
0000
0100
0000
,
0000
0010
0000
0010
0100
0000
1001
0000
,
0001
0010
1000
0010
,
0001
0000
0100
0000
0010
0000
1000
0010
,
1000
0000
0100
0010
0000
0010
0100
0000
,
0000
1000
0000
0001
0100
0000
1001
0000
,
1000
0010
0001
0010
,
1000
0000
0100
0000
0010
0000
0001
0010
,
0001
0000
0100
0010
0000
0010
0100
0000
,
0001
1000
0000
0100
1000
0000
1001
0000
,
0001
0100
0101
1000
,
0100
1100
0001
0010
,
0011
0000
1000
0000
0010
0100
0010
0100
,
0010
0100
0010
0000
1000
0000
0010
0000
,
1010
0001
0010
0011
,
1000
0100
1100
0001
,
0100
0110
1001
0000
,
0001
0011
1001
1000
,
1010
1001
0001
0101
,
1001
0000
1000
0000
0100
0010
0100
0010
,
0100
0010
0100
0000
1000
0000
1010
0000
,
1001
0001
0011
1001
,
1000
1100
1001
0001
,
0101
0110
1001
0000
,
0220
0000
0000
0000
,
0000
0000
0000
0000
0000
0000
0000
0000
0000
0000
0000
0000
0000
0330
0000
0000
;

//---------------dance-single - S-MEDIUM----------------
#NOTEDATA:;
#CHARTNAME:xRGTMx-MED;
#STEPSTYPE:dance-single;
#DESCRIPTION:S-MEDIUM;
#CHARTSTYLE:;
#DIFFICULTY:Medium;
#METER:7;
#RADARVALUES:0.435235,0.559301,0.205602,0.074764,0.009346,296.000000,22.000000,8.000000,0.000000,0.000000,0.000000,0.000000,0.000000,0.435235,0.559301,0.205602,0.074764,0.009346,296.000000,22.000000,8.000000,0.000000,0.000000,0.000000,0.000000,0.000000;
#CREDIT:xRGTMx;
#NOTES:
0000
0000
0000
0000
,
0000
0000
0000
0000
,
0000
0000
0000
0000
,
0000
0000
0000
0000
,
0000
0000
0000
0000
,
1010
1000
1000
1000
,
0011
0001
0001
0001
,
1001
1000
1001
0001
,
0100
0000
0000
0010
0000
0000
0100
0000
0000
0001
0000
0000
1000
0000
0000
0000
,
0001
0010
0001
0000
,
0100
0010
0100
0000
,
0001
0000
0000
0001
0000
0000
0100
0000
,
0000
0100
0000
0000
0010
0000
0000
0000
,
1000
0010
1000
0000
,
0100
0010
0100
0000
,
1000
0000
0000
1000
0000
0000
0100
0000
,
0000
0100
0000
0000
0010
0000
0000
0000
,
0001
0100
0010
0000
,
0100
0001
1000
0000
,
0001
0000
0000
0010
0000
0000
0100
0000
,
0000
1000
0000
0000
0001
0000
0000
0000
,
1000
0100
0010
0000
,
0100
1000
0001
0000
,
1000
0000
0000
0010
0000
0000
0100
0000
,
0000
0001
0000
0000
1001
0000
0000
0000
,
1000
0010
0010
0000
,
0001
0010
0000
0010
,
1000
0100
1000
0100
,
1000
0010
0010
0100
,
0001
0010
0010
0000
,
1000
0010
0000
0010
,
0001
0100
0001
0100
,
0001
0010
0010
0100
,
1000
0100
0100
0000
,
0001
0100
0000
0100
,
1000
0010
1000
0010
,
1000
0100
0100
0010
,
0001
0100
0100
0000
,
1000
0100
0000
0100
,
0001
0010
0001
0010
,
0002
0100
0000
0000
,
1003
0000
0000
0010
0000
0000
0010
0000
,
0100
0000
0000
0100
0000
0000
0001
0000
,
1000
0000
0000
0100
0000
0000
0100
0000
,
0010
0000
0000
0010
0000
0000
0001
0000
,
1000
0000
0000
0010
0000
0000
1000
0000
,
0100
0000
0000
1000
0000
0000
0001
0000
,
0020
0000
0001
0000
,
0130
0000
1001
0000
,
0001
0000
0000
0010
0000
0000
0010
0000
,
0100
0000
0000
0100
0000
0000
1000
0000
,
0001
0000
0000
0100
0000
0000
0100
0000
,
0010
0000
0000
0010
0000
0000
1000
0000
,
0001
0000
0000
0010
0000
0000
0001
0000
,
0100
0000
0000
0001
0000
0000
1000
0000
,
0020
0000
1000
0000
,
0130
0000
0000
1001
,
1000
0000
0000
0100
0000
0000
0001
0000
,
0100
0000
1000
0001
,
0100
0000
0010
0100
,
0002
0000
1003
0000
,
0001
0000
0000
0100
0000
0000
1000
0000
,
0100
0000
0001
1000
,
0100
0000
0010
0000
,
0110
0000
1001
0000
,
1000
0000
0000
0010
0000
0000
0001
0000
,
0010
0000
1000
0001
,
0010
0000
0110
0000
,
1001
0000
0000
1000
,
0001
0000
0000
0010
0000
0000
1000
0000
,
0010
0000
0001
0000
,
0100
0001
0000
1000
,
0100
0000
1001
0000
,
0001
0000
0000
0010
0000
0000
0100
0000
,
1000
0000
0000
0010
0000
0000
0100
0000
,
0001
0000
0000
0010
0000
0000
0100
0000
,
2002
0000
3003
0000
,
1000
0100
1000
0000
,
0010
0100
0010
0000
,
1000
0000
0000
1000
0000
0000
0010
0000
,
0000
0010
0000
0000
0100
0000
0000
0000
,
0001
0100
0001
0000
,
0010
0100
0010
0000
,
0001
0000
0000
0001
0000
0000
0010
0000
,
0000
0010
0000
0000
0100
0000
0000
0000
,
1000
0010
0100
0000
,
0010
1000
0001
0000
,
1000
0000
0000
0100
0000
0000
0010
0000
,
0000
0001
0000
0000
1000
0000
0000
0000
,
0001
0010
0100
0000
,
0010
0001
1000
0000
,
0001
0000
0000
0100
0000
0000
0010
0000
,
0000
1000
0000
0000
1001
0000
0000
0000
,
1000
0010
0010
0000
,
1000
1000
0000
0100
,
0100
0000
0010
0100
,
0010
0000
0001
0010
,
0010
0000
0001
0001
,
0000
0100
0100
0000
,
0010
0100
1001
0000
,
1000
0100
0110
0000
,
0010
0011
0000
0001
,
1001
0000
1000
0001
,
1000
0000
0001
0100
,
0110
0000
0010
1010
,
0000
1000
1001
0001
,
0010
0100
1000
0000
,
0220
0000
0000
0000
,
0000
0000
0000
0000
0000
0000
0000
0000
0000
0000
0000
0000
0000
0330
0000
0000
;

//---------------dance-single - S-EASY----------------
#NOTEDATA:;
#CHARTNAME:xRGTMx-EAS;
#STEPSTYPE:dance-single;
#DESCRIPTION:S-EASY;
#CHARTSTYLE:;
#DIFFICULTY:Easy;
#METER:5;
#RADARVALUES:0.344450,0.406764,0.280366,0.121492,0.000000,215.000000,30.000000,13.000000,0.000000,0.000000,0.000000,0.000000,0.000000,0.344450,0.406764,0.280366,0.121492,0.000000,215.000000,30.000000,13.000000,0.000000,0.000000,0.000000,0.000000,0.000000;
#CREDIT:xRGTMx;
#NOTES:
0000
0000
0000
0000
,
0000
0000
0000
0000
,
0000
0000
0000
0000
,
0000
0000
0000
0000
,
0000
0000
0000
0000
,
0001
0001
0001
0001
,
1000
1000
1000
1000
,
0010
0100
0010
0100
,
0001
0000
0000
1000
0000
0000
1001
0000
,
1000
0000
1000
0000
,
0100
0000
0100
0000
,
0010
0000
0100
0000
,
0010
0000
0010
0000
,
0001
0000
0001
0000
,
0100
0000
0100
0000
,
0010
0000
0100
0000
,
0010
0000
1001
0000
,
1000
0000
1000
0000
,
0100
0000
0100
0000
,
0010
0000
0001
0000
,
0100
0000
0100
0000
,
0001
0000
0001
0000
,
0100
0000
0100
0000
,
0010
0000
1000
0000
,
0100
0000
1001
0000
,
1000
0000
0000
0010
,
0000
0000
0100
0000
,
0000
0001
0000
0000
,
1000
0001
1000
0000
,
0001
0000
0000
0010
,
0000
0000
0100
0000
,
0000
1000
0000
0000
,
0001
1000
0001
0000
,
0000
1000
1000
0000
,
0100
0100
0000
0010
,
0010
0000
0001
0000
,
1000
0100
1000
0000
,
0000
0001
0001
0000
,
0100
0100
0000
0010
,
0010
0000
1000
0000
,
2002
0000
3003
0000
,
0001
0000
0010
0000
,
0001
0000
0010
0000
,
0100
0000
1000
0000
,
0100
0000
1000
0000
,
0001
0000
0100
0000
,
0001
0000
0100
0000
,
0010
0000
1000
0000
,
0010
1000
0010
0000
,
1000
0000
0100
0000
,
1000
0000
0100
0000
,
0010
0000
0001
0000
,
0010
0000
0001
0000
,
1000
0000
0010
0000
,
1000
0000
0010
0000
,
0100
0000
0001
0000
,
0100
0001
0100
0000
,
0001
0000
1000
0000
,
1010
0000
0011
0000
,
1100
0000
0101
0000
,
0001
0000
1000
0000
,
1000
0000
0001
0000
,
0011
0000
1010
0000
,
0101
0000
1100
0000
,
1000
0001
1000
0000
,
0001
0000
1000
0000
,
1100
0000
0101
0000
,
1010
0000
0011
0000
,
2002
0000
3003
0000
,
1000
0000
0001
0000
,
0101
0000
1100
0000
,
0011
0000
1010
0000
,
1000
0001
1000
0000
,
0001
0000
0011
0000
,
0110
0000
1100
0000
,
2000
0000
0000
3000
0000
0000
0010
0000
,
0010
0000
1001
0000
,
1000
0000
1000
0000
,
0010
0000
0010
0000
,
0100
0000
0010
0000
,
0100
0000
0100
0000
,
0001
0000
0001
0000
,
0010
0000
0010
0000
,
0100
0000
0010
0000
,
0100
0000
1001
0000
,
1000
0000
1000
0000
,
0010
0000
0010
0000
,
0100
0000
0001
0000
,
0010
0000
0010
0000
,
0001
0000
0001
0000
,
0010
0000
0010
0000
,
0100
0000
1000
0000
,
0010
0000
1001
0000
,
0000
2000
3000
0000
,
0200
0300
0000
0020
,
0030
0000
0001
0000
,
1000
0000
0000
0002
,
0003
0000
0200
0300
,
0000
0020
0030
0100
,
0010
0000
1001
0000
,
0000
1000
0100
0000
,
0100
0010
0000
0010
,
0001
0000
1000
0001
,
1000
0000
0000
0001
,
0100
0000
0100
0010
,
0000
0010
1000
0000
,
0100
0000
0110
0000
,
2002
0000
0000
0000
,
0000
0000
0000
0000
0000
0000
0000
0000
0000
0000
0000
0000
0000
3003
0000
0000
;

//---------------dance-single - S-NOVICE----------------
#NOTEDATA:;
#CHARTNAME:xRGTMx-NOV;
#STEPSTYPE:dance-single;
#DESCRIPTION:S-NOVICE;
#CHARTSTYLE:;
#DIFFICULTY:Beginner;
#METER:1;
#RADARVALUES:0.089450,0.149996,0.009346,0.000000,0.000000,66.000000,1.000000,0.000000,0.000000,0.000000,0.000000,0.000000,0.000000,0.089450,0.149996,0.009346,0.000000,0.000000,66.000000,1.000000,0.000000,0.000000,0.000000,0.000000,0.000000,0.000000;
#CREDIT:xRGTMx;
#NOTES:
0000
0000
0000
0000
,
0000
0000
0000
0000
,
0000
0000
0000
0000
,
0000
0000
0000
0000
,
0000
0000
0000
0000
,
1000
0000
0000
0000
,
0000
0000
0000
0000
,
0001
0000
0000
0000
,
0000
0000
0000
0000
,
1000
0000
0000
0000
,
0000
0000
0000
0000
,
0100
0000
0000
0000
,
0000
0000
0000
0000
,
0010
0000
0000
0000
,
0000
0000
0000
0000
,
0001
0000
0000
0000
,
0000
0000
0000
0000
,
1000
0000
0000
0000
,
0000
0000
0000
0000
,
0010
0000
0000
0000
,
0000
0000
0000
0000
,
0100
0000
0000
0000
,
0000
0000
0000
0000
,
0001
0000
0000
0000
,
0000
0000
0000
0000
,
1000
0000
0000
0000
,
1000
0000
0000
0000
,
1000
0000
0000
0000
,
0000
0000
0000
0000
,
0001
0000
0000
0000
,
0001
0000
0000
0000
,
0001
0000
0000
0000
,
0000
0000
0000
0000
,
0100
0000
0000
0000
,
0100
0000
0000
0000
,
0100
0000
0000
0000
,
0000
0000
0000
0000
,
0010
0000
0000
0000
,
0010
0000
0000
0000
,
0010
0000
0000
0000
,
0000
0000
0000
0000
,
1000
0000
0000
0000
,
0000
0000
0000
0000
,
0100
0000
0000
0000
,
0000
0000
0000
0000
,
0001
0000
0000
0000
,
0000
0000
0000
0000
,
0010
0000
0000
0000
,
0000
0000
0000
0000
,
1000
0000
0000
0000
,
0000
0000
0000
0000
,
0010
0000
0000
0000
,
0000
0000
0000
0000
,
0001
0000
0000
0000
,
0000
0000
0000
0000
,
0100
0000
0000
0000
,
0000
0000
0000
0000
,
1000
0000
0000
0000
,
0010
0000
0000
0000
,
0010
0000
0000
0000
,
0000
0000
0000
0000
,
0001
0000
0000
0000
,
0010
0000
0000
0000
,
0010
0000
0000
0000
,
0000
0000
0000
0000
,
1000
0000
0000
0000
,
0100
0000
0000
0000
,
0100
0000
0000
0000
,
0000
0000
0000
0000
,
0001
0000
0000
0000
,
0100
0000
0000
0000
,
0100
0000
0000
0000
,
0000
0000
0000
0000
,
1000
0000
0000
0000
,
0001
0000
0000
0000
,
1000
0000
0000
0000
,
0000
0000
0000
0000
,
0001
0000
0000
0000
,
0000
0000
0000
0000
,
0010
0000
0000
0000
,
0000
0000
0000
0000
,
0100
0000
0000
0000
,
0000
0000
0000
0000
,
1000
0000
0000
0000
,
0000
0000
0000
0000
,
0001
0000
0000
0000
,
0000
0000
0000
0000
,
0100
0000
0000
0000
,
0000
0000
0000
0000
,
0010
0000
0000
0000
,
0000
0000
0000
0000
,
1000
0000
0000
0000
,
0000
0000
0000
0000
,
0000
0001
0000
0000
,
0001
0000
0000
0001
,
0000
0000
0000
0000
,
0000
0000
0000
0100
,
0000
0000
0100
0000
,
0000
0100
0000
0000
,
0000
0000
0000
0000
,
0000
0010
0000
0000
,
0010
0000
0000
0010
,
0000
0000
0000
0000
,
0000
0000
0000
1000
,
0000
0000
1000
0000
,
0000
1000
0000
0000
,
0000
0000
0000
0000
,
1001
0000
0000
0000
;
