#TITLE:公孫胜;
#SUBTITLE:;
#ARTIST:Data East;
#TITLETRANSLIT:Gongsun Sheng;
#SUBTITLETRANSLIT:;
#ARTISTTRANSLIT:;
#GENRE:;
#CREDIT:水滸演武;
#BANNER:Gongsun Shen-banner.png;
#BACKGROUND:Gongsun Shen-bg.png;
#LYRICSPATH:;
#CDTITLE:cdtitle2014.png;
#MUSIC:Gongsun Sheng.ogg;
#OFFSET:-3.008000;
#SAMPLESTART:66.559998;
#SAMPLELENGTH:15.860024;
#SELECTABLE:YES;
#BPMS:0.000000=120.809999
,192.000000=119.809999
;
#STOPS:
;
#DISPLAYBPM:120;
#BGCHANGES:;
#KEYSOUNDS:;
#ATTACKS:;

//---------------dance-single - Steps By CMG-UTOPIA----------------
#NOTES:
     dance-single:
     Steps By CMG-UTOPIA:
     Beginner:
     1:
     0.163562,0.192467,0.039480,0.157922,0.000000,96.000000,4.000000,16.000000,0.000000,0.000000,0.000000,0.163562,0.192467,0.039480,0.157922,0.000000,96.000000,4.000000,16.000000,0.000000,0.000000,0.000000:
2000
0000
3000
0000
,
1000
1000
1000
0000
,
0002
0000
0003
0000
,
0001
0001
0001
0000
,
0200
0000
0300
0000
,
0100
0100
0100
0000
,
0020
0000
0030
0000
,
0010
0010
0010
0000
,
2000
0000
3000
0000
,
0002
0000
0003
0000
,
2000
0000
3000
0000
,
0002
0000
0003
0000
,
0200
0000
0300
0000
,
0020
0000
0030
0000
,
0200
0000
0300
0000
,
0020
0000
0030
0000
,
0000
0000
1000
1000
,
0000
0000
0001
0001
,
0000
0000
1000
1000
,
0000
0000
0001
0001
,
0000
0000
1000
1000
,
0000
0000
0001
0001
,
0000
0000
1000
1000
,
0000
0000
0001
0001
,
0000
0000
0100
0100
,
0000
0000
0010
0010
,
0000
0000
0100
0100
,
0000
0000
0010
0010
,
0000
0000
0100
0100
,
0000
0000
0010
0010
,
0000
0000
0100
0100
,
0000
0000
0010
0010
,
0010
0000
0010
0000
,
0010
0010
0010
0000
,
0100
0000
0100
0000
,
0100
0100
0100
0000
,
0001
0000
0001
0000
,
0001
0001
0001
0000
,
1000
0000
1000
0000
,
1000
1000
1000
0000
,
2000
0000
3000
0000
,
1000
1000
1000
0000
,
0002
0000
0003
0000
,
0001
0001
0001
0000
,
0200
0000
0300
0000
,
0100
0100
0100
0000
,
0020
0000
0030
0000
,
0010
0010
0010
0000
,
1001
1001
1001
1001
;

//---------------dance-single - ----------------
#NOTES:
     dance-single:
     Steps By CMG-UTOPIA:
     Easy:
     3:
     0.349684,0.291662,0.493505,0.690908,0.000000,128.000000,50.000000,70.000000,0.000000,0.000000,0.000000,0.349684,0.291662,0.493505,0.690908,0.000000,128.000000,50.000000,70.000000,0.000000,0.000000,0.000000:
2100
0000
0010
0000
,
0001
3001
2200
3300
,
0102
0000
0010
0000
,
1000
1003
0202
0303
,
2010
0000
0100
0000
,
0001
3001
2020
3030
,
0012
0000
0100
0000
,
1000
1003
0022
0033
,
0002
0003
0020
0030
,
0200
0300
1000
1000
,
2000
3000
0200
0300
,
0020
0030
0001
0001
,
0002
0003
0200
0300
,
0020
0030
1000
1000
,
2000
3000
0020
0030
,
0200
0300
0001
0001
,
0002
0003
0001
0100
,
2000
3000
1000
0100
,
0002
0003
0001
1000
,
2000
3000
2002
3003
,
2000
3000
1000
0010
,
0002
0003
0001
0010
,
2000
3000
1000
0001
,
0002
0003
2002
3003
,
0002
0003
0001
0101
,
0200
0300
0100
0110
,
0020
0030
0010
1010
,
2000
3000
2002
3003
,
2000
3000
1000
1100
,
0200
0300
0100
0110
,
0020
0030
0010
0011
,
0002
0003
2002
3003
,
0101
0000
0101
0000
,
0101
0101
0202
0303
,
1010
0000
1010
0000
,
1010
1010
2020
3030
,
1100
0000
1100
0000
,
1100
1100
2200
3300
,
0011
0000
0011
0000
,
0011
0011
0022
0033
,
0012
0000
0100
0000
,
1000
1003
0022
0033
,
0102
0000
0010
0000
,
1000
1003
0202
0303
,
2100
0000
0010
0000
,
0001
3001
2200
3300
,
2010
0000
0100
0000
,
0001
3001
2020
3030
,
1001
0110
1001
0220
,
0000
0330
0000
0000
;

//---------------dance-single - ----------------
#NOTES:
     dance-single:
     Steps By CMG-UTOPIA:
     Medium:
     6:
     0.397624,0.291662,0.779739,0.493505,0.000000,153.000000,79.000000,50.000000,102.000000,0.000000,0.000000,0.397624,0.291662,0.779739,0.493505,0.000000,153.000000,79.000000,50.000000,102.000000,0.000000,0.000000:
1100
MMMM
0101
MMMM
,
1100
0101
2002
3003
,
1010
MMMM
0011
MMMM
,
1010
0011
2002
3003
,
1100
MMMM
0011
MMMM
,
1100
0011
0220
0330
,
0101
MMMM
1010
MMMM
,
0101
1010
0220
0330
,
1000
1000
0001
0001
,
1000
1000
0101
1100
,
0001
0001
1000
1000
,
0001
0001
1100
0101
,
1000
1000
0001
0001
,
1000
1000
0011
1010
,
0001
0001
1000
1000
,
0001
0000
0001
0000
2020
0000
0000
3030
,
M2M2
0000
0300
0000
0010
0010
0010
0000
,
0200
0000
0300
0000
0010
0010
0010
0000
,
0200
0000
0300
0000
0010
0010
0010
0000
,
0200
0000
0300
0000
2000
0000
0000
3003
,
M22M
0000
0030
0000
0001
0001
0001
0000
,
0020
0000
0030
0000
0001
0001
0001
0000
,
0020
0000
0030
0000
0001
0001
0001
0000
,
0020
0330
1010
0101
,
2200
0000
0300
0000
0010
0010
0010
0000
,
0200
0000
0300
0000
0010
0010
0010
0000
,
0200
0000
0300
0000
0010
0010
0010
0000
,
0200
0000
0300
0000
0002
0000
0000
3003
,
M22M
0000
0300
0000
1000
1000
1000
0000
,
0200
0000
0300
0000
1000
1000
1000
0000
,
0200
0000
0300
0000
1000
1000
1000
0000
,
0200
0330
0101
0011
,
1001
MMMM
0110
MMMM
,
1001
0110
0202
0303
,
0110
MMMM
1001
MMMM
,
0110
1001
2020
3030
,
1001
MMMM
0110
MMMM
,
1001
0110
2200
3300
,
0110
MMMM
1001
MMMM
,
0110
1001
0022
0033
,
0101
MMMM
1010
MMMM
,
1100
0011
0220
0330
,
1001
MMMM
1100
MMMM
,
0101
0011
2020
3030
,
1001
MMMM
0110
MMMM
,
0101
0011
2200
3300
,
1010
MMMM
0110
MMMM
,
0101
1001
2020
3030
,
0011
0101
1010
2200
,
0000
3300
0000
0000
;

//---------------dance-single - ----------------
#NOTES:
     dance-single:
     Steps By CMG-UTOPIA:
     Hard:
     9:
     0.428645,0.413712,0.227013,0.404674,0.004935,224.000000,23.000000,41.000000,26.000000,48.000000,0.000000,0.428645,0.413712,0.227013,0.404674,0.004935,224.000000,23.000000,41.000000,26.000000,48.000000,0.000000:
// measure 0
2000
0000
0200
0000
,  // measure 1
0001
0000
3301
0000
1000
0100
1000
0000
,  // measure 2
2000
0000
0002
0000
,  // measure 3
0010
0000
3013
0000
0001
1000
0001
0000
,  // measure 4
0002
0000
0200
0000
,  // measure 5
1000
0000
1303
0000
0001
0100
0001
0000
,  // measure 6
0200
0000
0020
0000
,  // measure 7
1000
0000
1330
0000
0010
0100
0010
0000
,  // measure 8
0010
1000
0100
0000
0100
1000
0001
0000
,  // measure 9
0001
0010
0200
0000
1000
1000
1300
0000
,  // measure 10
1000
0010
0100
0000
0100
0001
0010
0000
,  // measure 11
0010
0001
2000
0000
0001
0001
3001
0000
,  // measure 12
0001
0010
0100
0000
1000
0001
0100
0000
,  // measure 13
0010
1000
0200
0000
1000
1000
1300
0000
,  // measure 14
0100
1000
0001
0000
0010
0100
1000
0000
,  // measure 15
0001
0100
0010
0000
0220
0000
0000
0330
,  // measure 16
1MM0
0001
0100
0000
0100
0001
1000
0000
,  // measure 17
1000
0001
0010
0000
0010
0001
1000
0000
,  // measure 18
1000
0100
0001
0000
0001
0100
1000
0000
,  // measure 19
1000
0001
1000
0000
2002
0000
0000
3003
,  // measure 20
M10M
0010
1000
0000
1000
0010
0100
0000
,  // measure 21
0100
0001
0010
0000
0010
0001
0100
0000
,  // measure 22
0100
0001
0100
0000
0010
1000
0010
0000
,  // measure 23
0100
0010
0100
0000
0202
0000
1010
0303
,  // measure 24
0001
0100
1000
0000
1000
0100
0001
0000
,  // measure 25
0001
0010
1000
0000
1000
0010
0001
0000
,  // measure 26
0001
0100
0010
0000
0010
1000
0100
0000
,  // measure 27
0100
1000
0100
0000
2200
0000
0000
3300
,  // measure 28
MM10
0001
0100
0000
0010
1000
0100
0000
,  // measure 29
0010
0001
0100
0000
0010
1000
0100
0000
,  // measure 30
0010
0001
0010
0000
0100
1000
0100
0000
,  // measure 31
0010
0100
0010
0000
0220
0000
1001
0330
,  // measure 32
111M
0000
M111
0000
,  // measure 33
1M11
0000
22M1
0000
0010
0001
0010
3300
,  // measure 34
M111
0000
1M11
0000
,  // measure 35
11M1
0000
122M
0000
0001
1000
0001
0330
,  // measure 36
1M11
0000
11M1
0000
,  // measure 37
111M
0000
M122
0000
1000
0100
1000
0033
,  // measure 38
11M1
0000
111M
0000
,  // measure 39
M111
0000
2M12
0000
0100
0010
0100
3003
,  // measure 40
2000
0000
0020
0000
,  // measure 41
0100
0000
3130
0000
0010
1000
0010
0000
,  // measure 42
0020
0000
0200
0000
,  // measure 43
0001
0000
0331
0000
0100
0010
0100
0000
,  // measure 44
0200
0000
0002
0000
,  // measure 45
0010
0000
0313
0000
0001
0100
0001
0000
,  // measure 46
0002
0000
2000
0000
,  // measure 47
0100
0000
3103
0000
1000
0001
1000
0000
,  // measure 48
2000
0200
0020
0002
,  // measure 49
0000
0000
0000
0000
3333
MMMM
0000
0000
0000
0000
0000
0000
0000
0000
0000
0000
;
