#TITLE:Dragon Spirit;
#SUBTITLE:;
#ARTIST:Yuji Masubuchi;
#TITLETRANSLIT:;
#SUBTITLETRANSLIT:;
#ARTISTTRANSLIT:;
#GENRE:;
#CREDIT:;
#BANNER:[Mythology] - Dragon Spirit-bn.png;
#BACKGROUND:[Mythology] - Dragon Spirit-bg.png;
#LYRICSPATH:;
#CDTITLE:;
#MUSIC:Dragon Spirit Medley.mp3;
#OFFSET:-0.662816;
#SAMPLESTART:99.412033;
#SAMPLELENGTH:12.000000;
#SELECTABLE:YES;
#BPMS:0.000000=185.001999
;
#STOPS:
;
#BGCHANGES:;
#KEYSOUNDS:;
#ATTACKS:;

//---------------dance-single - ----------------
#NOTES:
     dance-single:
     :
     Hard:
     9:
     0.706802,0.719341,0.318109,0.223353,0.108292,651.000000,47.000000,33.000000,0.000000,0.000000,0.000000,0.706802,0.719341,0.318109,0.223353,0.108292,651.000000,47.000000,33.000000,0.000000,0.000000,0.000000:
0000
0000
0000
0000
,
1001
0000
0000
0000
0000
0000
0000
0000
0001
1000
0001
1000
0001
1000
0001
1000
,
0001
0000
0010
0000
0001
0010
0001
1000
,
0010
0100
0010
1000
0010
0001
0010
0100
,
0010
0000
0100
0000
1000
0100
0001
0100
,
0010
0100
0001
1000
0001
0001
0010
0001
,
0100
0000
0001
0000
1000
0100
0010
0001
,
0100
0010
0100
1000
0100
0001
0010
0100
,
1000
0000
0100
0000
0010
0001
1000
0001
,
0100
0010
0100
0001
1000
0100
0010
0001
,
1000
0000
0100
0000
1000
0010
0100
0001
,
0010
0100
1000
0001
0010
1000
0010
0001
,
1000
0000
0010
0000
0100
0001
1000
0010
,
0100
1000
0100
0001
1000
0100
0010
0001
,
0100
0000
0010
0000
1000
0100
1000
0001
,
1000
0100
0001
0100
1000
0010
0100
0001
,
0020
0230
2300
3001
,
0011
0101
1010
1100
,
0011
0010
1000
1000
,
0010
0010
0001
0001
,
1000
1000
0010
0010
,
0001
0000
0001
0000
0010
1000
0001
1000
,
0100
0100
0001
0001
,
0100
0100
1000
1000
,
0010
1000
0001
0000
0100
0001
1000
0000
,
0100
1000
0001
0000
0001
1000
1000
0001
,
0200
0000
0310
0000
1000
0100
0010
0000
,
0002
0000
0103
0000
0020
0000
1030
0001
,
0000
1000
0100
0000
1000
0100
0001
0000
,
0100
1000
0001
1000
0100
0000
1001
0000
,
0000
0001
0010
1000
0001
0100
1000
0001
,
0100
0000
0001
0100
0000
1000
0100
0000
,
0020
0000
1030
0000
0100
1000
0001
0000
,
0010
0100
0001
0100
1000
0000
1001
0000
,
0100
0001
0010
0000
0022
0000
0033
0000
,
0100
1000
0010
0000
2020
0000
3030
0000
,
0001
0100
1000
0000
1000
0100
0001
0000
,
0001
0000
0010
0000
0100
0000
1000
0000
0001
0000
0100
0000
1000
0100
1000
0000
,
0100
0100
0000
0000
0000
1000
0100
0001
,
0010
0000
0010
0000
0000
0000
0000
0000
0000
0000
0100
0000
0010
0001
0010
0000
,
0100
1001
0100
0010
,
0100
1000
0001
1000
0100
0000
1001
0000
,
0100
1001
0100
0010
,
0100
0001
1000
0001
0100
0000
0110
0000
,
1000
0110
0001
1000
,
0100
1000
0001
1000
0010
0000
1000
0000
,
0001
0100
0010
0000
0010
0100
0001
0000
,
1000
0100
0001
0100
1000
0001
1000
0001
,
0000
0001
0000
1000
0000
0001
0020
0000
,
0130
1000
0000
1000
0001
0000
0001
0102
,
0000
0000
0000
1000
0000
0000
0010
0000
,
0103
0000
0001
1000
0100
1000
0000
1001
,
0000
0001
0000
1000
0000
0001
0200
0000
,
0310
1000
0000
1000
0001
0000
0001
0021
,
0000
0031
0010
1000
0001
0100
1000
0001
,
0000
1000
0001
0100
0000
1010
0000
0201
,
0000
0301
1000
0000
0010
1000
0001
0000
,
0010
0001
1000
0000
0100
1000
0001
0102
,
0000
0103
0010
0000
0100
0010
1000
0000
,
0010
1000
0001
0000
1000
0001
1000
1200
,
0000
1300
0001
0000
0100
0001
0010
0000
,
0100
1000
0010
0000
0100
0001
1000
2001
,
0000
3001
0010
1000
0001
0100
1000
0002
,
0000
0103
2002
3003
,
2100
0010
0002
3003
,
0012
0100
2000
3003
,
0001
0000
0100
0000
1000
0000
0100
0000
0001
0000
0010
0000
0100
1000
0100
0000
,
0020
0000
0000
0000
0000
0000
0030
0000
0001
0000
0000
1000
0000
0000
0100
0000
,
0110
0000
0000
0000
,
0000
0000
0000
0000
,
0010
0000
0010
0100
0000
1000
0000
0100
,
1000
0000
0001
0000
0000
0000
0100
0000
0001
0000
0100
0010
0100
0000
0010
0000
,
0110
0000
0000
0000
,
0001
0000
0001
0010
0001
0010
0100
1000
0010
0100
0001
0010
,
0100
0110
0000
1100
0000
1001
0000
0000
,
0220
0000
0000
0000
0330
0000
0001
0100
0010
0000
0100
0000
0100
0000
0100
0000
,
0010
0100
0001
0000
1000
0100
0010
0100
,
0000
0100
1000
0000
0100
1000
0001
0100
,
0000
0100
0010
0000
1000
0001
0000
0011
,
0000
0010
0100
0000
0110
0000
1000
0010
,
0001
0000
0100
0000
0010
0100
0001
0010
,
0000
0010
0100
0000
1000
0001
0100
0000
,
0110
0000
0010
0000
0100
0101
0000
0101
,
0000
0000
1000
0000
0001
1000
0001
0000
1000
0001
1000
0000
0001
1000
0001
1000
,
0100
0000
1100
0000
1000
0001
0100
0010
,
0000
0010
0100
0000
0010
0100
0001
1000
,
0000
1000
0100
0000
1000
0001
0000
0110
,
0000
1000
0010
0000
0110
0000
1000
0100
,
0110
0000
0000
0000
0000
0000
0011
0210
,
0000
0310
0001
0000
1000
0001
0100
0000
,
0110
0000
0000
0000
0000
1001
0000
2001
,
0000
3001
0100
0000
0010
1000
0001
0000
,
1000
0000
0001
0100
0001
0000
1000
0000
0001
0100
0001
0000
0100
0010
0100
0010
,
1000
0000
0100
0000
1000
0010
0001
0010
,
1000
0001
0010
0100
0010
0100
0001
0100
,
1000
0000
0010
0000
0100
0001
0100
1000
,
0100
0010
0100
0010
1000
0001
0010
0001
,
0100
0000
0010
0000
1000
0100
0010
0001
,
0100
1000
0100
0001
1000
0100
0010
0001
,
0010
0000
0100
0000
1000
0100
1000
0001
,
1000
0001
0001
0100
0001
1000
1000
0001
,
1000
0100
0010
0000
0001
0100
0010
1000
,
0100
0001
0100
1000
0010
0100
0001
0010
,
0100
1000
0001
0000
0100
0001
1000
0001
,
0010
0100
0001
0100
1000
0010
0100
0001
,
0010
0001
0100
0000
1000
0100
0001
1000
,
0100
0010
0001
0010
1000
0010
0001
0100
,
0010
1000
0010
0001
0010
1000
0010
0001
,
0010
1000
0100
0001
0100
1000
0010
0000
,
1000
0000
0000
0100
0000
0000
1000
0000
0000
0000
0000
0000
0001
0000
0000
0100
0000
0000
0001
0000
0000
0000
0000
0000
0100
0000
0000
0000
0000
0000
0000
0000
0100
0000
0000
0000
0000
0000
0000
0000
0100
0000
0000
0000
0000
0000
0000
0000
,
0010
0000
0000
0000
1000
0001
1000
0001
0000
0000
0000
0000
0000
0000
0000
0000
,
2002
0000
0000
0000
0000
0000
0000
0000
3003
0000
0000
0000
0001
0100
1000
0000
;

//---------------dance-single - ----------------
#NOTES:
     dance-single:
     :
     Medium:
     7:
     0.546297,0.603731,0.169207,0.812194,0.000000,420.000000,25.000000,120.000000,0.000000,0.000000,0.000000,0.546297,0.603731,0.169207,0.812194,0.000000,420.000000,25.000000,120.000000,0.000000,0.000000,0.000000:
0000
0000
0000
0000
,
1001
0000
0000
0000
0001
1000
0001
1000
,
0002
0100
0103
0010
,
1000
0200
0320
0032
,
0203
0310
1000
0010
,
0001
0000
0010
0000
0100
0010
0100
0010
,
2000
3100
0001
0100
,
1000
0000
0010
0000
0100
0001
0100
0001
,
2000
3002
0203
0000
,
0302
0000
0003
0010
0200
0000
0300
1000
,
0002
0010
0013
0100
,
1000
0002
0023
0230
,
2300
3010
0001
0010
,
1000
0100
1000
0000
0001
0100
0001
0000
,
0020
0100
0130
1000
,
0001
0000
1000
0000
0010
0100
0010
0100
,
0002
2003
3200
0320
,
0230
2300
3020
0230
,
0302
1000
1000
1000
,
0100
0100
0100
0100
,
0023
0130
2000
3002
,
0203
0010
0010
0310
,
2001
0001
0001
0001
,
0100
0100
0100
3100
,
0010
0011
0100
1100
,
0001
0101
1000
1001
,
0101
0010
1100
0010
,
1001
0100
0110
0002
,
0000
0013
0100
0000
1000
0000
1001
0000
,
0100
0001
0100
0001
0100
0000
0010
0000
,
0000
0010
0100
0000
0010
0100
0000
0010
,
0100
0000
0001
1000
0000
0001
1000
0000
,
0200
0010
0310
0001
,
1000
0001
1000
0001
1000
0000
0001
0000
,
2000
0100
3002
0000
,
0023
1000
0032
0000
,
0203
0000
1300
0100
,
0002
0000
0003
0000
,
1000
1000
0000
0000
0000
0001
1000
0001
,
0100
0100
0000
0000
0000
0000
0000
0000
,
0002
0000
0000
0023
0000
0000
0032
0000
,
1000
0100
1000
1000
,
0023
0000
0000
0230
0000
0000
0320
0000
,
1000
0001
0100
0100
,
0230
0000
0000
2300
0000
0000
3020
0000
,
0001
1000
0100
0130
,
0001
0100
0001
0000
1000
0100
1000
0000
,
0001
0100
0001
0000
1000
0000
0010
0100
,
0020
0000
0000
2030
0000
0000
3001
0010
,
0002
0000
0000
0000
1003
0000
0000
0200
,
0000
0000
0000
1000
0000
0000
0001
0000
,
0320
0000
0000
0001
0000
1000
0000
0032
,
0000
0000
0000
0203
0000
0000
1000
0000
,
0302
0000
0000
1003
0001
0000
0000
0020
,
0000
0000
0000
0230
0000
0000
1300
0100
,
0000
1000
0001
0100
0000
0101
0000
2001
,
0000
3020
0000
2030
0000
3002
0023
0000
,
1000
0000
0100
0000
0001
0000
0130
0020
,
0000
1000
0001
0100
,
0001
0000
1000
0000
0031
1000
0100
2000
,
0000
3002
0000
2003
0000
3002
0203
0000
,
1000
0000
0010
0000
0001
0000
0310
0200
,
0000
0301
1000
0000
0001
1000
0001
2000
,
0000
0000
0000
0000
0002
0000
0000
3003
,
2000
0000
0000
0000
0002
0000
0000
3003
,
0020
0000
0000
0000
0002
0000
0000
0033
,
0200
0000
2300
3020
,
0032
0000
0000
0003
,
0110
0000
0000
0000
,
0000
0000
0000
0000
,
0000
0000
0000
0000
,
0000
0000
0000
0000
,
0110
0000
0000
0000
,
0000
0000
0000
0000
,
0100
0100
0000
0010
0000
1001
0000
0000
,
0200
0000
0000
0301
0020
0000
0000
0030
,
0200
0000
0010
0000
0320
0000
0031
2000
,
0000
0100
0000
3001
0000
0010
0001
0200
,
0000
1000
0000
0301
0000
1001
0000
0101
,
0000
0100
1000
0000
0100
0000
1000
0100
,
0002
0000
1000
0000
2003
0000
3001
0020
,
0000
1000
0000
0100
0000
0031
0000
0001
,
2000
0000
0010
0000
3010
0100
0000
0200
,
0000
0000
0000
0000
0301
1000
0001
1000
,
0002
0000
1003
0000
2000
0000
3001
0020
,
0000
0100
0000
0100
0030
0010
0001
2000
,
0000
0100
0000
0100
3000
1001
0000
0100
,
0000
0100
1000
0000
0001
0000
1000
0100
,
0010
0000
0000
0000
0000
0000
0010
0200
,
0000
0000
0000
0000
0000
0300
0000
0000
,
1000
0000
0000
0000
0000
0001
0000
2002
,
0000
0000
0000
0000
0000
0000
0000
3003
,
0001
0100
0010
1000
0001
0010
0100
0010
,
0002
0103
0010
1000
,
0100
0020
0230
0320
,
0032
0103
1000
0100
,
0010
0000
1000
0000
0100
0001
0100
1000
,
0200
1300
0010
0100
,
0001
0000
1000
0000
0010
0100
1000
0100
,
0020
2030
3200
0000
,
0302
0000
0000
0103
2000
0000
0000
3001
,
0200
0000
0310
0000
1000
0100
0010
0000
,
0001
0200
0320
2030
,
3002
0000
0013
0000
0100
1000
0010
0000
,
0100
0001
0100
0001
1000
0001
1000
0001
,
0020
0100
0100
0130
,
1000
0000
0010
0000
0100
0001
0010
0100
,
2000
3200
0320
0031
,
0011
0110
1100
1001
,
0000
0000
0000
0000
,
0000
0000
0000
0000
,
2002
0000
3003
0000
;

//---------------dance-single - ----------------
#NOTES:
     dance-single:
     :
     Easy:
     5:
     0.346149,0.415065,0.115061,0.379024,0.000000,285.000000,17.000000,56.000000,0.000000,0.000000,0.000000,0.346149,0.415065,0.115061,0.379024,0.000000,285.000000,17.000000,56.000000,0.000000,0.000000,0.000000:
// measure 0
0000
0000
0000
0000
,  // measure 1
1001
0000
0001
1000
,  // measure 2
1001
0000
0100
0000
,  // measure 3
0010
1000
0010
1000
,  // measure 4
0001
0000
0010
0000
,  // measure 5
0100
0000
0010
0010
,  // measure 6
0001
0000
0100
0000
,  // measure 7
0010
0000
1000
0001
,  // measure 8
0100
0010
0100
0000
,  // measure 9
0001
0000
0010
0000
,  // measure 10
0100
0000
1000
0000
,  // measure 11
0001
0100
0001
0100
,  // measure 12
0010
0000
1000
0000
,  // measure 13
0100
1000
0001
1000
,  // measure 14
0010
0000
0100
0000
,  // measure 15
0001
0000
1000
0100
,  // measure 16
1000
1000
1000
1000
,  // measure 17
0001
0001
0001
0001
,  // measure 18
0020
0000
0000
0000
,  // measure 19
0230
0000
0000
0000
,  // measure 20
2300
0000
3001
1000
,  // measure 21
0002
0000
0000
0000
,  // measure 22
0203
0000
0000
0000
,  // measure 23
0320
0000
0000
0000
,  // measure 24
1030
1000
0001
0001
,  // measure 25
0100
0100
0001
1000
,  // measure 26
0100
0000
1000
0000
,  // measure 27
0010
0000
0100
0001
,  // measure 28
0000
1000
0000
0001
,  // measure 29
0000
1000
0001
0100
,  // measure 30
0000
0001
1000
0001
,  // measure 31
1000
0001
0000
1000
,  // measure 32
0100
0000
0010
0000
,  // measure 33
0100
1000
0001
0000
,  // measure 34
0200
0000
0310
0000
,  // measure 35
2000
0000
3001
0000
,  // measure 36
0020
0000
0130
0010
,  // measure 37
0002
0000
0003
0000
,  // measure 38
1001
0000
0000
0000
,  // measure 39
0110
0000
0000
0000
,  // measure 40
0002
0000
1003
0000
,  // measure 41
0010
0100
0001
0000
,  // measure 42
2000
0000
3001
0000
,  // measure 43
0010
0100
1000
0000
,  // measure 44
0002
0000
0103
0000
,  // measure 45
0010
1000
0100
0000
,  // measure 46
0020
0000
0001
0000
,  // measure 47
0230
0000
1000
0000
,  // measure 48
0300
1000
0000
0001
0000
0000
2000
0000
,  // measure 49
0000
3000
0000
0000
0000
0000
0000
0002
,  // measure 50
0000
0000
0000
0000
,  // measure 51
0003
0000
0000
0000
,  // measure 52
0000
1000
0000
0001
0000
0000
0200
0000
,  // measure 53
0000
0300
0000
0000
0000
0000
0000
0002
,  // measure 54
0000
0000
0003
0000
0020
0000
0000
0130
,  // measure 55
0000
1000
0000
0001
0000
0100
0000
0110
,  // measure 56
0000
0001
1000
0001
,  // measure 57
0010
0000
0100
0000
1000
0000
0000
1200
,  // measure 58
0000
1300
0001
0100
,  // measure 59
0010
0000
0100
0000
0001
0000
0000
0201
,  // measure 60
0000
0301
1000
0001
,  // measure 61
0010
0000
0100
0000
0010
0000
0000
0210
,  // measure 62
0000
0000
1300
0000
0001
0000
0100
0200
,  // measure 63
0000
0000
0301
0000
,  // measure 64
2000
0000
3001
0000
,  // measure 65
0200
0000
0301
0000
,  // measure 66
0020
0000
1030
0010
,  // measure 67
0002
0000
0000
0003
,  // measure 68
2002
0000
0000
0000
,  // measure 69
0000
0000
0000
3003
,  // measure 70
0000
0000
0000
0000
,  // measure 71
0000
0000
0000
0000
,  // measure 72
0220
0000
0000
0000
,  // measure 73
0000
0330
0000
0000
,  // measure 74
0010
0100
0000
0010
0000
1001
0000
0000
,  // measure 75
2000
0000
0001
3001
,  // measure 76
1001
0100
0010
0001
,  // measure 77
1000
0001
0100
0100
,  // measure 78
0010
1000
0100
1000
,  // measure 79
0001
1000
0010
0010
,  // measure 80
1001
0100
0010
0100
,  // measure 81
0001
0010
0100
1000
,  // measure 82
0110
0000
0100
0000
1000
0001
0000
0002
,  // measure 83
0000
0000
0003
0000
,  // measure 84
1000
0100
0010
0100
,  // measure 85
0100
1000
0010
0100
,  // measure 86
0100
0001
1000
0001
,  // measure 87
0010
0100
1000
0010
,  // measure 88
0100
0000
0000
0000
0000
0000
0100
0100
,  // measure 89
0000
0100
0010
0100
,  // measure 90
1001
0000
0000
0000
0000
0001
0000
2000
,  // measure 91
0000
0000
0000
0000
0000
0000
0000
3000
,  // measure 92
0001
0001
1000
1000
,  // measure 93
1001
0001
0100
0000
,  // measure 94
0010
2000
3200
0320
,  // measure 95
0130
1000
0001
0000
,  // measure 96
0100
0000
0001
0000
1000
0001
1000
0000
,  // measure 97
0100
0010
0001
0000
,  // measure 98
1000
0000
0010
0000
0100
0001
0100
0000
,  // measure 99
0002
2003
3200
0300
,  // measure 100
0020
0000
0000
0030
0002
0000
0000
0003
,  // measure 101
1000
0010
0100
0000
,  // measure 102
0100
0002
0023
0230
,  // measure 103
1300
0010
0100
0000
,  // measure 104
0001
1000
1000
0001
,  // measure 105
2000
0000
0000
3000
,  // measure 106
0000
0000
0000
0000
1000
0100
1000
0000
,  // measure 107
0200
0320
0032
2003
,  // measure 108
3002
0023
0230
0310
,  // measure 109
0000
0000
0000
0000
,  // measure 110
0000
0000
0000
0000
,  // measure 111
2002
0000
3003
0000
;
