#TITLE:Clocktower;
#SUBTITLE:Sound Remedy Remix;
#ARTIST:Noosa;
#CREDIT:crusher189;
#MUSIC:[Mythology] - Clocktower.ogg;
#SELECTABLE:YES;
#BACKGROUND:[Mythology] - Clocktower-bg.png;
#BANNER:[Mythology] - Clocktower.png;
#CDTITLE:[Mythology] - Clocktower-jacket.png;
#OFFSET:-0.132426;
#SAMPLESTART:112.666;
#SAMPLELENGTH:9.362;
#BPMS:0=64.0244,2=64.0228,3=64.0244,6=64.0228,7=64.0244,10=64.0228,11=64.0244,14=64.0228,15=64.0244,18=64.0228,19=64.0244,22=64.0228,23=64.0244,26=64.0228,27=64.0244,30=64.0228,31=64.0244,34=64.0228,35=64.0244,37=63.6302,38=64.0228,39=61.7301,40=64.0244,42=64.0228,43=64.0244,46=64.0228,47=63.6302,48=64.0244,49=64.0228,50=64.0244,53=64.0228,54=64.0244,57=64.0228,58=64.0244,60=63.6302,61=64.0228,62=64.0244,65=64.0228,66=64.0244,69=64.0228,70=64.0244,73=64.4219,74=64.0244,77=64.0228,78=64.0244,81=64.0228,82=64.0244,85=64.0228,86=64.0244,89=64.0228,90=64.0244,93=64.0228,94=64.0244,96=63.2409,97=64.0228,98=64.0244,100=64.0228,101=64.0244,102=64.0228,103=64.0244,104=62.8548,105=64.0244,106=128.049,107=128.043,108=128.049,111=128.043,112=128.049,115=128.043,116=128.049,119=128.043,120=128.049,123=128.043,124=128.049,127=128.043,128=128.049,131=128.043,132=128.049,135=128.043,136=128.049,139=128.043,140=128.049,143=128.043,144=128.049,147=128.043,148=128.049,151=128.043,152=128.049,155=128.043,156=128.049,159=128.043,160=128.049,163=128.043,164=128.049,167=128.043,168=128.049,171=128.043,172=128.049,175=128.043,176=128.049,179=128.043,180=128.049,183=128.043,184=128.049,187=128.043,188=128.049,191=128.043,192=128.049,195=128.043,196=128.049,199=128.043,200=128.049,203=128.043,204=128.049,207=128.043,208=128.049;
#STOPS:;

//---------------dance-single - ----------------
#NOTES:
     dance-single:
     :
     Beginner:
     1:
     0.000,0.000,0.000,0.000,0.000:
0000
0000
0000
0000
,
0000
0000
0000
0000
,
0000
0000
1000
0000
,
0010
0000
0100
0000
,
0001
0000
1000
0000
,
0001
0000
0100
0000
,
0010
0000
1000
0000
,
0010
0000
0100
0000
,
0001
0000
0100
0000
,
0010
0000
1000
0000
,
0001
0000
1000
0000
,
0010
0000
0100
0000
,
0001
0000
1000
0000
,
0010
0000
0100
0000
,
0001
0000
1000
0000
,
0001
0000
1000
0000
,
0010
0000
0100
0000
,
0001
0000
0010
0000
,
0001
0000
0000
0000
0000
0000
0000
0000
0002
0000
0000
0000
0000
0003
0000
0000
,
0000
0000
0000
0000
0002
0000
0000
0003
,
0000
0000
0000
0000
0002
0000
0000
0003
,
0000
0000
0000
0000
0002
0000
0000
0003
,
0000
0000
0000
0000
0002
0000
0000
0003
,
0000
0000
0000
0000
0020
0000
0000
0030
,
0000
0000
0000
0000
0200
0000
0000
0300
,
0000
0000
0000
0000
2000
0000
0000
3000
,
0000
0000
0001
0000
,
0000
0000
1000
0000
,
0000
0000
0010
0000
,
0000
0000
0100
0000
,
0000
0000
0001
0000
,
0000
0000
1000
0000
,
0000
0000
0010
0000
,
0000
0000
2000
0000
,
0000
3000
0000
0000
,
0000
0000
0001
0000
,
0000
0000
1000
0000
,
0000
0000
0010
0000
,
0000
0000
0100
0000
,
0000
0000
0001
0000
,
0000
0000
0010
0000
,
0000
0000
0100
0000
,
0000
0000
1000
0000
,
0000
0000
0100
0000
,
0000
0000
0010
0000
,
0000
0000
0001
0000
,
0000
0000
1000
0000
,
0000
0000
0010
0000
,
0000
0000
0100
0000
,
0000
0000
0001
0000
,
0000
0002
0000
0000
,
0000
0000
0000
0000
,
0003
0000
0000
0000
;

//---------------dance-single - ----------------
#NOTES:
     dance-single:
     :
     Easy:
     2:
     0.000,0.000,0.000,0.000,0.000:
0000
0000
0000
0000
,
0000
0000
0000
0000
,
0000
0000
1000
1000
,
0010
0010
0100
0100
,
0001
0001
1000
1000
,
0001
0001
0100
0100
,
0010
0010
1000
1000
,
0010
0010
0100
0100
,
0001
0001
0100
0100
,
0010
0010
1000
1000
,
0001
0001
1000
1000
,
0010
0010
0100
0100
,
0001
0001
1000
1000
,
0010
0010
0100
0100
,
0001
0001
1000
1000
,
0001
0001
1000
1000
,
0010
0010
0100
0100
,
0001
0001
0010
0010
,
0001
0000
0000
0000
0001
0000
0000
0000
0002
0000
0000
0000
0000
0003
0000
0000
,
0020
0000
0000
0000
0000
0030
0000
0000
0002
0000
0000
0000
0000
0000
0003
0000
,
2000
0000
0000
3000
0002
0000
0000
0003
,
0200
0000
0000
0300
0002
0000
0000
0003
,
2000
0000
0000
3000
0002
0000
0000
0003
,
0200
0000
0000
0000
0000
0300
0000
0000
0020
0000
0000
0000
0000
0000
0030
0000
,
2000
0000
0000
3000
0200
0000
0000
0300
,
0020
0000
0000
0030
0002
0000
0000
0003
,
2000
0000
0000
3000
0001
0000
0000
0000
,
0001
0000
1000
0000
,
1000
0000
0010
0000
,
0010
0000
0100
0000
,
0100
0000
0001
0000
,
0001
0000
1000
0000
,
1000
0000
0010
0000
,
0010
0000
2000
0000
,
0000
3000
0000
0000
,
1000
0000
0001
0000
,
0001
0000
1000
0000
,
1000
0000
0010
0000
,
0010
0000
0100
0000
,
0100
0000
0001
0000
,
0001
0000
0010
0000
,
0010
0000
0100
0000
,
0100
0000
1000
0000
,
1000
0000
0100
0000
,
0100
0000
0010
0000
,
0010
0000
0001
0000
,
0001
0000
1000
0000
,
1000
0000
0010
0000
,
0010
0000
0100
0000
,
0100
0000
0001
0000
,
0001
0002
0000
0000
,
0000
0000
0000
0000
,
0003
0000
0000
0000
;

//---------------dance-single - ----------------
#NOTES:
     dance-single:
     :
     Medium:
     4:
     0.000,0.000,0.000,0.000,0.000:
0000
0000
0000
0000
,
0000
1100
0000
0110
,
0001
0011
1000
1010
,
0100
1100
0001
0011
,
0100
0101
0001
0011
,
0100
0110
1000
1100
,
0010
1010
0001
0101
,
0010
0011
1000
1100
,
0010
1010
0100
1100
,
0010
0110
0001
0011
,
1000
0001
1000
0001
1000
0000
1100
0000
,
0100
0101
0010
1010
,
0010
0110
1000
1010
,
0001
1001
0100
0101
,
1000
1100
0010
0011
,
1000
1010
0001
0101
,
0100
0101
0001
0101
,
1000
1001
0010
1010
,
0001
0000
0000
0000
0101
0000
0000
0000
0002
0000
0000
0000
0000
0003
0000
0000
,
0020
0000
0000
0000
0000
0030
0000
0000
0002
0000
0000
0000
0000
0000
0003
0000
,
2000
0000
0000
3000
0002
0000
0000
0003
,
0200
0000
0000
0300
0002
0000
0000
0003
,
2000
0000
0000
3000
0002
0000
0000
0003
,
0200
0000
0000
0000
0000
0300
0000
0000
0020
0000
0000
0000
0000
0000
0030
0000
,
2000
0000
0000
3000
0200
0000
0000
0300
,
0020
0000
0000
0030
0002
0000
0000
0003
,
2000
0000
0000
3000
0001
0000
0001
0000
,
1000
1000
0001
0001
,
0100
0100
0001
0001
,
0100
0100
0010
0010
,
1000
1000
0001
0001
,
0100
0100
0010
0010
,
1000
1000
0001
0001
,
1000
1000
0002
0000
,
0000
0000
0003
0000
0000
0000
0000
0000
0000
0000
0000
0000
,
1001
0000
1000
0000
,
1010
0000
0100
0000
,
1100
0000
0001
0000
,
0011
0000
0100
0000
,
0101
0000
0001
0000
,
0011
0000
0100
0000
,
0110
0000
1000
0000
,
1100
0000
0010
0000
,
1010
0000
0001
0000
,
0101
0000
0010
0000
,
0011
0000
1000
0000
,
1100
0000
0010
0000
,
1010
0000
0100
0000
,
1100
0000
0010
0000
,
0110
0000
0001
0000
,
0011
0002
0000
0000
,
0000
0000
0000
0000
,
0003
0000
0000
0000
;

//---------------dance-single - ----------------
#NOTES:
     dance-single:
     :
     Hard:
     9:
     0.000,0.000,0.000,0.000,0.000:
0000
0000
0000
0000
,
0000
1100
0000
0110
,
1000
0010
0100
0000
0000
0000
0010
1000
0001
0010
0000
0100
1000
0000
0010
0000
0100
0000
0000
0000
0000
0000
0000
0000
1010
0000
0000
0000
0000
0000
0001
0000
,
0000
0100
0010
0000
1100
0000
0000
0000
1000
0000
0000
0000
0011
0001
1000
0010
,
0000
0000
0100
0000
0000
0001
0000
0000
0101
0000
0000
0000
0000
0000
0000
0000
1000
0000
0000
0000
0000
0000
0000
0000
0011
0000
0000
0000
0000
0000
1000
0000
,
0000
0010
1000
0000
0110
0000
0000
0000
0001
0000
0000
0000
1100
1000
0010
0100
,
0000
0000
0001
0000
0000
1000
0000
0000
1010
0000
0000
0000
0000
0000
0000
0000
0010
0000
0000
0000
0000
0000
0000
0000
0101
0000
0000
0000
0000
0000
1000
0000
,
0000
0010
0100
0000
0011
0000
0000
0000
0001
0000
0000
0000
1100
1000
0001
0100
,
0000
0000
0010
0000
0000
1000
0000
0000
1010
0000
0000
0000
0000
0000
0000
0000
0001
0000
0000
0000
0000
0000
0000
0000
1100
0000
0000
0000
0000
0000
0001
0000
,
0000
0100
0001
0000
0110
0000
0000
0000
1000
0000
0000
0000
0011
0001
0100
0010
,
1000
0000
0000
0000
0000
0000
0000
0000
0100
0000
0000
0000
0000
0000
0000
0000
0010
0000
0000
0000
0000
0000
0000
0000
0001
0000
0000
0000
0000
0000
0000
0000
0010
0000
0000
0000
0000
0000
0000
0000
0100
0000
0000
0000
0000
0000
0000
0000
1000
0000
0000
0000
0000
0000
0000
0000
0010
0000
0000
0000
0000
0000
0000
0000
0100
0000
0000
0000
0000
0000
0000
0000
0001
0000
0000
0000
0000
0000
0000
0000
0000
0000
0000
0000
0000
0000
0000
1000
0000
0000
0000
0000
0000
0000
0000
0000
0001
0000
0000
0000
0000
0000
0000
0000
0000
0000
0000
0000
0000
0000
0000
0000
0000
0000
0000
0000
0000
0000
0000
0000
0000
0000
0000
0000
0000
0000
0000
0000
0000
0000
0000
0000
0000
0000
0000
0000
0000
0000
0000
0000
0000
0000
0000
0000
0011
0000
0000
0000
0000
0000
0000
0000
0000
0000
0000
0000
0000
0000
0000
0000
0000
0000
0000
0000
0000
0000
0000
0000
0000
0000
0000
0000
0000
0000
0000
0000
0000
0000
0000
0000
0001
0000
0000
0000
0000
0000
0000
0000
0000
0000
0000
0000
,
0000
1000
0001
0000
1010
0000
0000
0000
0010
0000
0000
0000
0101
0100
0010
1000
,
0000
0000
0001
0000
0000
0100
0000
0000
0110
0000
0000
0000
0000
0000
0000
0000
0010
0000
0000
0000
0000
0000
0000
0000
0101
0000
0000
0000
0000
0000
1000
0000
,
0000
0001
0010
0000
1001
0000
0000
0000
0100
0000
0000
0000
1010
0010
1000
0001
,
0000
0000
0100
0000
0000
0001
0000
0000
0011
0000
0000
0000
0000
0000
0000
0000
0001
0000
0000
0000
0000
0000
0000
0000
1100
0000
0000
0000
0000
0000
1000
0000
,
0000
0001
0100
0000
0101
0000
0000
0000
0100
0000
0000
0000
1010
0010
0100
0010
,
0000
0000
1000
0000
0000
0010
0000
0000
1010
0000
0000
0000
0000
0000
0000
0000
0100
0000
0000
0000
0000
0000
0000
0000
1010
0000
0000
0000
0000
0000
0001
0000
,
0000
1000
0100
0000
1001
0000
0000
0000
0010
0000
0000
0000
0101
0001
1000
0001
,
0000
0000
0100
0000
0000
0010
0000
0000
1010
0000
0000
0000
0000
0000
0000
0000
2000
0000
0000
0000
0000
0000
0000
0000
0000
0000
3020
0000
0230
0000
2300
0000
,
3200
0000
0000
0000
0000
0302
0023
0230
2300
0000
0000
0000
0000
0000
3020
0000
,
0230
0000
0000
0302
2003
0000
0000
3200
,
0320
0000
0000
0230
0302
0000
0000
0203
,
2300
0000
0000
3002
2003
0000
0000
3020
,
0230
0000
0000
0000
0000
2300
3200
0302
0023
0000
0000
0000
0000
0000
0230
0000
,
2300
0000
0000
3020
0230
0000
0000
0302
,
0023
0000
0000
0230
2300
0000
0000
3200
,
0302
0000
0000
0000
0000
0000
0203
0000
1300
0000
0000
0001
1000
0000
0100
0000
,
0000
0010
0000
0000
0001
0000
0100
0000
0001
0000
0000
0010
0001
0000
1000
0000
,
0000
0010
0000
0000
0100
0000
0001
0000
0010
0000
0000
0100
1000
0000
0010
0000
,
0000
1000
0000
0000
0100
0000
0010
0000
0001
0000
0000
1000
0100
0000
1000
0000
,
0000
0010
0000
0000
0100
0000
0010
0000
1000
0000
0100
0000
0010
0000
0001
0000
,
0100
0010
1000
0100
0001
0100
1000
0010
,
0100
0000
0000
0001
0000
0000
0100
0000
0000
1000
0000
0000
0100
0000
0001
0000
0100
0000
0010
0000
1000
0000
0010
0000
,
0100
0001
1000
0001
0010
0100
2000
0000
0000
0000
0000
0000
,
0000
0000
3000
0000
0000
0000
0000
0000
0000
0000
0000
0000
,
MMMM
0000
0000
0000
2000
0000
0000
0000
3001
0010
0100
1000
0010
0100
0001
0010
,
0100
1000
0010
0100
0002
0000
0000
0000
1003
0010
1000
0100
0010
0001
0100
0010
,
1000
0001
0010
0100
0002
0000
0000
0000
0103
1000
0010
0100
0001
0010
0100
1000
,
0010
0100
0001
0100
2000
0000
0000
0000
3100
0001
0010
0100
1000
0100
0010
0001
,
0100
0010
1000
0100
2000
0000
0000
0000
3001
0010
0001
1000
0010
0100
0001
1000
,
0100
1000
0001
0010
0200
0000
0000
0000
1300
0001
0010
0001
0100
0010
1000
0100
,
0010
0001
0010
0100
0020
0000
0000
0000
0031
1000
0100
0010
0001
0100
0010
1000
,
0100
0010
0001
0100
0002
0000
0000
0000
1003
0100
0010
0001
0100
0010
1000
0100
,
0010
0001
0100
0010
2000
0000
0000
0000
3001
0100
0001
0010
0100
1000
0010
0100
,
0001
1000
0100
0010
0002
0000
0000
0000
1003
0100
0010
0001
0100
0010
1000
0001
,
0010
0001
0010
0100
2000
0000
0000
0000
3001
0010
0001
1000
0100
0010
0001
0010
,
0100
1000
0010
0100
0002
0000
0000
0000
1003
0010
1000
0100
0010
0001
0010
0001
,
1000
0010
0100
0001
2000
0000
0000
0000
3001
0100
0010
1000
0100
0010
0001
0100
,
0010
1000
0010
0100
2000
0000
0000
0000
3100
0001
0010
0100
1000
0010
0100
0001
,
0010
0100
1000
0100
0002
0000
0000
0000
0103
1000
0010
0100
0001
0010
0100
1000
,
0100
1000
0010
0100
0002
0000
0000
0000
0000
0000
0000
0000
0000
0000
0000
0000
,
0000
0000
0000
0000
,
0000
0003
0000
0000
0000
0000
0000
0000
;
