#VERSION:0.81;
#TITLE:Chupacabra;
#SUBTITLE:;
#ARTIST:The Flyin' Ryan Brothers;
#TITLETRANSLIT:;
#SUBTITLETRANSLIT:;
#ARTISTTRANSLIT:;
#GENRE:;
#ORIGIN:;
#CREDIT:;
#BANNER:Chupacabra - The Flyin' Ryan Brotherbn.png;
#BACKGROUND:Chupacabra - The Flyin' Ryan Brotherbg.png;
#PREVIEWVID:;
#JACKET:;
#CDIMAGE:;
#DISCIMAGE:;
#LYRICSPATH:Chupacabra - The Flyin' Ryan Brothers.lrc;
#CDTITLE:encorerebirth.png;
#MUSIC:Chupacabra - The Flyin' Ryan Brothers.ogg;
#OFFSET:1.081;
#SAMPLESTART:26.956;
#SAMPLELENGTH:12.953;
#SELECTABLE:YES;
#BPMS:0.000=111.000,
76.000=83.250,
99.750=83.270,
100.000=111.000;
#STOPS:75.833=0.020,
131.833=0.045;
#DELAYS:;
#WARPS:;
#TIMESIGNATURES:0.000=4=4;
#TICKCOUNTS:0.000=4;
#COMBOS:0.000=1;
#SPEEDS:0.000=1.000=0.000=0;
#SCROLLS:0.000=1.000;
#FAKES:;
#LABELS:0.000=Song Start;
#BGCHANGES:;
#KEYSOUNDS:;
#ATTACKS:
;

//---------------dance-single - Spork!----------------
#NOTEDATA:;
#CHARTNAME:;
#STEPSTYPE:dance-single;
#DESCRIPTION:Spork!;
#CHARTSTYLE:;
#DIFFICULTY:Beginner;
#METER:1;
#RADARVALUES:0.110,0.125,0.045,0.145,0.000,64.000,5.000,16.000,0.000,0.000,0.000,0.000,0.000,0.110,0.125,0.045,0.145,0.000,64.000,5.000,16.000,0.000,0.000,0.000,0.000,0.000;
#CREDIT:Spork!;
#OFFSET:1.081;
#BPMS:0.000=111.000
,76.000=83.250
,100.000=111.000
;
#STOPS:75.833=0.020
,131.833=0.045
;
#DELAYS:;
#WARPS:;
#TIMESIGNATURES:0.000=4=4
;
#TICKCOUNTS:0.000=4
;
#COMBOS:0.000=1
;
#SPEEDS:0.000=1.000=0.000=0
;
#SCROLLS:0.000=1.000
;
#FAKES:;
#LABELS:0.000=Song Start
;
#NOTES:
0000
0000
0000
0000
,
0000
0000
0000
0000
,
0000
0000
0000
0000
,
0000
0000
0000
0000
,
0000
0000
0000
0000
,
2000
0000
0000
0001
,
3001
0000
0000
0000
,
0200
0000
0000
0010
,
0310
0000
0000
0000
,
0020
0000
0000
0100
,
0130
0000
0000
0000
,
0002
0000
0000
1000
,
1003
0000
0000
0000
,
1000
0000
0001
0000
,
0100
0000
0100
0000
,
0001
0000
1000
0000
,
0010
0000
0010
0000
,
2000
0000
3001
0000
,
0002
0000
1003
0000
,
1001
0000
0000
0000
,
0000
0000
0110
0000
,
0000
0000
0000
0000
,
0110
0000
0000
0000
,
0000
0000
1001
0000
,
0000
0000
0000
0000
,
2000
0000
0000
0100
,
3200
0000
0000
0010
,
0320
0000
0001
0000
,
0032
0000
0000
0000
,
1003
0000
1000
0000
,
0001
0000
0001
0000
,
1000
0000
0100
0000
,
1000
0000
0001
0000
,
0100
0000
0010
0000
,
2000
0000
0000
0000
,
3100
0000
0010
0000
,
0002
0000
0000
0000
,
1003
0000
0001
0000
,
0200
0000
0000
0000
,
0301
0000
1000
0000
,
0020
0000
0000
0000
,
1030
0000
0001
0000
,
0010
0000
0010
0000
,
0001
0000
1000
0000
,
0100
0000
0100
0000
,
0220
0000
0000
0000
,
0330
0000
0000
0000
;

//---------------dance-single - Spork!----------------
#NOTEDATA:;
#CHARTNAME:;
#STEPSTYPE:dance-single;
#DESCRIPTION:Spork!;
#CHARTSTYLE:;
#DIFFICULTY:Easy;
#METER:4;
#RADARVALUES:0.251,0.271,0.254,0.281,0.000,135.000,28.000,31.000,0.000,0.000,0.000,0.000,0.000,0.251,0.271,0.254,0.281,0.000,135.000,28.000,31.000,0.000,0.000,0.000,0.000,0.000;
#CREDIT:Spork!;
#OFFSET:1.081;
#BPMS:0.000=111.000
,76.000=83.250
,100.000=111.000
;
#STOPS:75.833=0.020
,131.833=0.045
;
#DELAYS:;
#WARPS:;
#TIMESIGNATURES:0.000=4=4
;
#TICKCOUNTS:0.000=4
;
#COMBOS:0.000=1
;
#SPEEDS:0.000=1.000=0.000=0
;
#SCROLLS:0.000=1.000
;
#FAKES:;
#LABELS:0.000=Song Start
;
#NOTES:
0000
0000
0000
0000
,
0000
0000
0000
0000
,
0000
0000
0000
0000
,
0000
0000
0000
0000
,
0000
0000
0000
0000
,
0102
0100
0010
1003
,
2100
0100
0010
3001
,
0012
0010
0100
1003
,
2010
0010
0100
3001
,
1002
0100
1000
0013
,
0120
0001
0100
0031
,
2001
0010
0001
3100
,
0210
1000
0010
1300
,
1001
1000
0010
0100
,
1001
0001
0100
0010
,
0101
0001
1000
0010
,
1100
1000
0001
0010
,
2002
3003
0202
0303
,
0220
0330
2020
3030
,
1001
0000
0000
1000
0000
0000
0100
0000
,
0000
0010
0000
0000
1001
0000
0000
0001
,
0000
1000
0000
0000
,
1001
0000
0000
0001
0000
0000
0100
0000
,
0000
0010
0000
0000
1001
0000
0000
1000
,
0000
0001
0000
0000
,
2000
0100
0100
3001
,
0002
0010
0010
1003
,
2000
0010
0100
3001
,
0002
0100
0010
1003
,
0001
0010
0200
0000
,
1300
0010
0200
0000
,
0301
1000
0100
1000
,
0001
0100
0010
0000
,
0010
0010
1000
0100
,
0100
0000
1002
0000
,
0013
0010
0001
0100
,
0100
0000
2001
0000
,
3020
0000
1030
0001
,
0200
0000
0320
0000
,
0130
0100
0001
1000
,
0100
0000
0220
0330
,
1001
0001
0100
0010
,
1001
1000
0010
0100
,
1010
1000
0001
0100
,
0011
0001
1000
0100
,
2002
0000
0000
0000
,
3003
0000
0000
0000
;

//---------------dance-single - Spork!----------------
#NOTEDATA:;
#CHARTNAME:;
#STEPSTYPE:dance-single;
#DESCRIPTION:Spork!;
#CHARTSTYLE:;
#DIFFICULTY:Hard;
#METER:8;
#RADARVALUES:0.408,0.438,0.245,0.299,0.308,255.000,27.000,33.000,0.000,0.000,0.000,0.000,0.000,0.408,0.438,0.245,0.299,0.308,255.000,27.000,33.000,0.000,0.000,0.000,0.000,0.000;
#CREDIT:Spork!;
#NOTES:
0000
0000
0000
0000
,
0000
0000
0000
0000
,
0000
0000
0000
0000
,
0000
0000
0000
0000
,
0000
0000
0000
0000
,
1020
0000
1030
0001
0100
0010
1000
1000
,
2000
0000
3010
1000
0100
0010
0001
0100
,
0201
0000
0301
1000
0010
0100
0001
0001
,
0002
0000
0013
0001
0100
0010
1000
0001
,
0012
0000
0013
0100
1000
0010
0100
0100
,
0200
0000
1300
0100
0001
0010
0100
1000
,
2100
0000
3100
0010
0001
0100
0010
0010
,
0020
0000
0031
0010
1000
0000
1001
0000
,
1000
0000
0000
0100
0000
0000
0001
0000
0000
0100
0000
0000
1000
0000
0001
0000
,
1000
0000
0000
0010
0000
0000
0001
0000
0000
0010
0000
0000
0010
1000
0001
1000
,
0001
0000
0000
0010
0000
0000
1000
0000
0000
0010
0000
0000
0001
0000
1000
0000
,
0001
0000
0000
0100
0000
0000
1000
0000
0000
0100
0000
0000
0100
0001
1000
0001
,
2000
0000
3200
0000
,
0320
0000
0000
0000
0000
0000
0000
0000
0000
0000
0000
0000
0000
0000
0000
0000
0032
0000
0000
0000
0000
0000
0000
0000
0000
0000
0000
0000
0000
0000
0000
0003
,
1000
0000
0000
0000
0000
0000
0000
0000
0000
0010
0000
0000
0000
0000
0000
0000
0000
0000
0100
0000
0000
0000
0000
0000
0001
0000
0000
0000
0000
0000
0000
0000
0000
0010
0000
0000
0000
0000
0000
0000
0000
0000
0001
0000
0000
0000
0000
0000
1000
0000
0000
0000
0000
0000
0000
0000
0000
0100
0000
0000
0000
0000
0000
0000
,
0000
0000
1000
0000
0000
0000
0000
0000
0010
0000
0000
0000
0000
0000
0000
0000
0000
0100
0000
0000
0000
0000
0000
0000
0000
0000
0001
0000
0000
0000
0000
0000
1001
0000
0000
0000
0000
0000
0000
0000
0000
0001
0000
0000
0000
0000
0000
0000
0000
0000
1000
0000
0000
0000
0000
0000
0100
0000
0000
0000
0000
0000
0000
0000
,
0000
0010
0000
0000
0000
0000
0000
0000
0000
0000
0001
0000
0000
0000
0000
0000
1000
0000
0000
0000
0000
0000
0000
0000
0000
0000
0000
0000
0010
0000
0000
0000
0000
0000
0000
0000
0000
0000
0000
0000
1000
0000
0000
0000
0000
0000
0000
0000
0000
0000
0000
0000
1000
0000
0000
0000
0000
0000
0000
0000
0000
0000
0000
0000
,
0001
0000
0000
0000
0000
0000
0000
0000
0000
0100
0000
0000
0000
0000
0000
0000
0000
0000
0010
0000
0000
0000
0000
0000
1000
0000
0000
0000
0000
0000
0000
0000
0000
0100
0000
0000
0000
0000
0000
0000
0000
0000
1000
0000
0000
0000
0000
0000
0001
0000
0000
0000
0000
0000
0000
0000
0000
0010
0000
0000
0000
0000
0000
0000
,
0000
0000
0001
0000
0000
0000
0000
0000
0100
0000
0000
0000
0000
0000
0000
0000
0000
0010
0000
0000
0000
0000
0000
0000
0000
0000
1000
0000
0000
0000
0000
0000
0110
0000
0000
0000
0000
0000
0000
0000
0000
1000
0000
0000
0000
0000
0000
0000
0000
0000
0001
0000
0000
0000
0000
0000
0010
0000
0000
0000
0000
0000
0000
0000
,
0000
0100
0000
0000
0000
0000
0000
0000
0000
0000
1000
0000
0000
0000
0000
0000
0020
0000
0000
0000
0000
0000
0000
0000
0000
0000
0000
0000
0000
0000
0000
0000
0000
0000
0000
0000
0000
0000
0000
0000
0100
0000
0000
0000
0000
0000
0000
0000
0000
0000
0000
0000
0030
0000
0000
0000
0000
0000
0000
0000
0000
0000
0000
0000
,
0210
0000
0301
0010
0100
1000
0020
0000
,
0130
0001
0200
0000
0000
0000
0301
0000
1000
0000
0100
0000
0010
0000
0010
0000
,
0020
0000
0000
0000
0130
0000
1000
0000
0001
0000
0001
0000
0001
0000
1000
0010
,
2000
0100
3001
1001
,
1020
0000
0000
1000
0000
0000
0130
0000
0120
0000
0000
0000
1030
0000
0000
0000
,
0021
0000
0000
0001
0000
0000
0130
0000
0120
0000
0000
0000
0031
0000
0000
0000
,
2001
0000
0000
0010
0000
0000
3001
0000
1002
0000
0000
0100
0000
0000
1003
0000
,
1100
0000
0000
1001
0000
0000
0101
0000
0210
0000
0000
0000
0310
0000
0000
0000
,
1001
0000
0000
1000
0010
0000
1000
0000
0100
1000
0100
0000
1000
0001
1000
0000
,
0020
0100
2030
0100
,
3001
0010
0001
0000
0100
0001
0100
0000
0001
1000
0001
0000
1000
0000
0010
0000
,
0200
0000
0010
0000
0302
0000
0100
0100
,
1003
0000
0000
0100
0000
0000
0100
0000
0000
0010
0000
0000
0010
0000
0001
0000
,
0200
0000
0000
0000
1000
0000
0000
0000
0301
0000
0010
0000
0001
1000
0000
0000
,
0001
0000
0000
0100
0000
0000
0100
0000
0000
0010
0000
0000
0010
0000
1000
0000
,
0200
0001
2300
3000
,
0101
0000
0000
0100
0000
0000
1100
0000
0000
0100
0000
0000
0001
0000
1000
0000
,
0011
0000
0000
0010
0000
0000
1010
0000
0000
0010
0000
0000
0010
0001
1000
0001
,
1000
0000
0000
0010
0000
0000
0011
0000
0000
0010
0000
0000
1000
0000
0001
0000
,
1100
0000
0000
0100
0000
0000
0101
0000
0000
0100
0000
0000
0100
1000
0001
1000
,
0002
0000
0000
0000
,
0003
0000
0000
0000
;

//---------------dance-single - Spork!----------------
#NOTEDATA:;
#CHARTNAME:;
#STEPSTYPE:dance-single;
#DESCRIPTION:Spork!;
#CHARTSTYLE:;
#DIFFICULTY:Medium;
#METER:5;
#RADARVALUES:0.305,0.313,0.127,0.417,0.091,175.000,14.000,46.000,0.000,0.000,0.000,0.000,0.000,0.305,0.313,0.127,0.417,0.091,175.000,14.000,46.000,0.000,0.000,0.000,0.000,0.000;
#CREDIT:Spork!;
#NOTES:
0000
0000
0000
0000
,
0000
0000
0000
0000
,
0000
0000
0000
0000
,
0000
0000
0000
0000
,
0000
0000
0000
0000
,
2010
0000
0100
0000
3001
0000
0001
0100
,
0020
1000
0100
1030
,
0102
0000
0010
0000
1003
0000
1000
0100
,
0020
0001
0100
0031
,
2100
0000
0010
0000
3001
0000
0001
0010
,
0200
1000
0010
1300
,
0012
0000
0100
0000
1003
0000
1000
0010
,
0200
0001
0010
0301
,
1000
0000
0000
1000
0000
0000
0001
0000
0000
0001
0000
0000
0100
0000
0000
0000
,
0002
0000
0023
0000
0230
0000
1300
0001
,
1000
0000
0000
1000
0000
0000
0001
0000
0000
0001
0000
0000
0010
0000
0000
0000
,
0002
0000
0203
0000
0320
0000
1030
0001
,
2000
0000
3200
0000
,
0320
0000
0032
0000
,
1003
0000
0000
0100
0000
0000
1000
0000
0000
0100
0000
0000
0010
0000
0000
0100
,
0000
0000
0010
0000
0000
0100
0000
0000
0010
0000
0000
0001
0000
0000
0010
0000
,
0000
0001
0000
0000
2000
0000
0000
0000
0000
0000
0001
0000
3000
0000
0000
0000
,
0001
0000
0000
0100
0000
0000
0001
0000
0000
0100
0000
0000
0010
0000
0000
0100
,
0000
0000
0010
0000
0000
0100
0000
0000
0010
0000
0000
1000
0000
0000
0010
0000
,
0000
1000
0000
0000
0002
0000
0000
0000
0000
0000
0000
0000
0003
0000
0000
0000
,
1100
1000
0001
0101
,
0110
0100
0001
1001
,
1010
1000
1100
1001
,
0011
0001
0100
0020
,
2030
0000
3100
0010
0002
0000
1003
0000
,
0002
0000
0103
0010
2000
0000
3001
0000
,
0020
0000
0031
0010
0002
0000
1003
0001
,
2000
0000
3010
1000
0020
0000
0030
0000
,
1001
0000
0100
0000
0001
0000
0010
0001
,
2000
0010
3002
0000
,
1003
0000
0010
0000
1000
0000
0100
1000
,
0002
0100
2003
0001
,
3002
0000
0103
0010
,
2000
0000
3200
0000
,
0310
0000
0010
0000
0100
0010
0100
0010
,
0002
0010
2003
0000
,
3001
0000
0000
0001
0000
0000
1000
0000
0000
1000
0000
0000
0100
0000
0000
0000
,
2000
0000
3020
0000
0230
0000
0301
1000
,
0001
0000
0000
0001
0000
0000
1000
0000
0000
1000
0000
0000
0010
0000
0000
0000
,
2000
0000
3200
0000
0320
0000
0031
1000
,
2002
0000
0000
0000
,
3003
0000
0000
0000
;

//---------------dance-double - Spork!----------------
#NOTEDATA:;
#CHARTNAME:;
#STEPSTYPE:dance-double;
#DESCRIPTION:Spork!;
#CHARTSTYLE:;
#DIFFICULTY:Easy;
#METER:3;
#RADARVALUES:0.203,0.209,0.109,0.308,0.000,111.000,12.000,34.000,0.000,0.000,0.000,0.000,0.000,0.203,0.209,0.109,0.308,0.000,111.000,12.000,34.000,0.000,0.000,0.000,0.000,0.000;
#CREDIT:Spork!;
#NOTES:
// measure 0
00000000
00000000
00000000
00000000
,  // measure 1
00000000
00000000
00000000
00000000
,  // measure 2
00000000
00000000
00000000
00000000
,  // measure 3
00000000
00000000
00000000
00000000
,  // measure 4
00000000
00000000
00000000
00000000
,  // measure 5
00000200
00000000
00001300
00000020
,  // measure 6
00020000
00000030
00031000
00100000
,  // measure 7
00200000
00000000
00301000
02000000
,  // measure 8
00002000
03000000
00013000
00000010
,  // measure 9
00000020
00000000
00001030
00000200
,  // measure 10
00020000
00000300
00031000
01000000
,  // measure 11
02000000
00000000
03010000
00200000
,  // measure 12
00002000
00300000
00013000
00000000
,  // measure 13
00010000
00001000
00000010
00000010
,  // measure 14
00001000
00010000
00100000
00100000
,  // measure 15
00010000
00001000
00000100
00000100
,  // measure 16
00001000
00010000
01000000
01000000
,  // measure 17
00200000
00000000
00302000
00000000
,  // measure 18
00023000
00000000
00030020
00000000
,  // measure 19
00000130
00000000
00000000
00000100
00000000
00000000
00000010
00000000
,  // measure 20
00000000
00000010
00000000
00000000
00011000
00000000
00000000
00001000
,  // measure 21
00000000
00020000
00000000
00030000
,  // measure 22
00100000
00000000
00000000
00100000
00000000
00000000
01000000
00000000
,  // measure 23
00000000
01000000
00000000
00000000
00011000
00000000
00000000
00010000
,  // measure 24
00000000
00002000
00000000
00003000
,  // measure 25
00011000
00000000
00000000
00010100
,  // measure 26
00010100
00000000
00000000
00000110
,  // measure 27
00000110
00000000
00001100
00010100
,  // measure 28
00011000
00000000
00000000
01001000
,  // measure 29
01000000
00010000
00200000
00000000
,  // measure 30
00301000
00010000
00020000
00000000
,  // measure 31
00030010
00001000
00002000
00000100
,  // measure 32
00003200
00000010
00000320
00000000
,  // measure 33
00000130
00000000
00010000
00000000
,  // measure 34
00002000
00000000
00000000
00003000
,  // measure 35
01000000
00000000
00001000
00000000
,  // measure 36
00020000
00000000
00000000
00031000
,  // measure 37
00002000
00000000
02003000
00000000
,  // measure 38
03020000
00000000
00130000
00000000
,  // measure 39
00002000
00000000
00023000
00000000
,  // measure 40
00030020
00000000
00020030
00000000
,  // measure 41
00031000
00010000
00100000
00100000
,  // measure 42
00010000
00001000
00000010
00000010
,  // measure 43
00001000
00010000
01000000
01000000
,  // measure 44
00010000
00001000
00000100
00000100
,  // measure 45
00000220
00000000
00000000
00000000
,  // measure 46
00000330
00000000
00000000
00000000
;

//---------------dance-double - Spork!----------------
#NOTEDATA:;
#CHARTNAME:;
#STEPSTYPE:dance-double;
#DESCRIPTION:Spork!;
#CHARTSTYLE:;
#DIFFICULTY:Medium;
#METER:6;
#RADARVALUES:0.308,0.376,0.354,0.181,0.095,179.000,39.000,20.000,0.000,0.000,0.000,0.000,0.000,0.308,0.376,0.354,0.181,0.095,179.000,39.000,20.000,0.000,0.000,0.000,0.000,0.000;
#CREDIT:Spork!;
#NOTES:
// measure 0
00000000
00000000
00000000
00000000
,  // measure 1
00000000
00000000
00000000
00000000
,  // measure 2
00000000
00000000
00000000
00000000
,  // measure 3
00000000
00000000
00000000
00000000
,  // measure 4
00000000
00000000
00000000
00000000
,  // measure 5
02000000
00000000
00001000
00000000
03001000
00000000
00010000
00000100
,  // measure 6
00002000
00000001
00000100
00003010
,  // measure 7
00000020
00000000
00010000
00000000
00010030
00000000
00001000
01000000
,  // measure 8
00020000
10000000
01000000
00130000
,  // measure 9
00200000
00000000
00001000
00000000
00301000
00000000
00010000
00000010
,  // measure 10
00002000
00000001
00000010
00003100
,  // measure 11
00000200
00000000
00010000
00000000
00010300
00000000
00001000
00100000
,  // measure 12
00020000
10000000
00100000
01030000
,  // measure 13
01010000
00000000
01001000
00000000
00011000
00000000
00010000
00001000
,  // measure 14
00011000
00000000
00010100
00000000
00001100
00000000
00001001
00001001
,  // measure 15
00001010
00000000
00010010
00000000
00011000
00000000
00001000
00010000
,  // measure 16
00011000
00000000
00101000
00000000
00110000
00000000
10010000
10010000
,  // measure 17
20000000
00000000
30200000
00000000
,  // measure 18
02300000
00000000
03020000
00000000
,  // measure 19
10030000
00000000
00000000
01000000
00000000
00000000
00100000
00000000
00000000
00010000
00000000
00000000
01000000
00000000
00000000
00001000
,  // measure 20
00000000
00000000
00010000
00000000
00000000
00000010
00000000
00000000
00011000
00000000
00000000
00001000
00000000
00000000
00010000
00000000
,  // measure 21
00000000
00000100
00000000
00000000
00000020
00000000
00000000
00000000
00000000
00000000
00000100
00000000
00000000
00000000
00000000
00000000
,  // measure 22
00000031
00000000
00000000
00000100
00000000
00000000
00000010
00000000
00000000
00001000
00000000
00000000
00000100
00000000
00000000
00010000
,  // measure 23
00000000
00000000
00001000
00000000
00000000
00100000
00000000
00000000
00011000
00000000
00000000
00010000
00000000
00000000
00001000
00000000
,  // measure 24
00000000
01000000
00000000
00000000
00200000
00000000
00000000
00000000
00000000
00000000
00000000
00000000
00300000
00000000
00000000
00000000
,  // measure 25
10000000
00000000
00000000
10000000
00000000
00000000
10000000
00000000
00000000
00000000
10000000
00000000
00010000
00000000
00000000
00000000
,  // measure 26
00010000
00000000
00000000
00010000
00000000
00000000
00010000
00000000
00000000
00000000
00010000
00000000
00001000
00000000
00000000
00000000
,  // measure 27
00001000
00000000
00000000
00001000
00000000
00000000
00001000
00000000
00000000
00000000
00001000
00000000
00000001
00000000
00000000
00000000
,  // measure 28
00000001
00000000
00000000
00000001
00000000
00000000
00000001
00000000
00000000
00000000
00000000
00000000
00001001
00000000
00000000
00000000
,  // measure 29
00000001
00000000
00000000
00000001
00000000
00000000
00000001
00000000
00000100
00000000
00000000
00000000
00001000
00000000
00000000
00000000
,  // measure 30
00001000
00000000
00000000
00001000
00000000
00000000
00001000
00000000
00010000
00000000
00000000
00000000
00001000
00000000
00000000
00000000
,  // measure 31
00010000
00000000
00000000
00010000
00000000
00000000
00010000
00000000
01000000
00000000
00000000
01000000
00000000
00000000
01000000
00000000
,  // measure 32
10000000
00000000
00000000
10000000
00000000
00000000
10000000
00000000
00100000
00000000
00000000
00000000
00010000
00000000
00000000
00000000
,  // measure 33
00011000
00010000
00000100
00100000
,  // measure 34
00002000
00000000
00010000
00000000
,  // measure 35
00103000
00001000
01000000
00000010
,  // measure 36
00020000
00000000
00001000
00001000
,  // measure 37
00031000
00000000
00100000
00000000
01000000
00000000
10000000
10000000
,  // measure 38
01000000
00010000
00021000
00031000
,  // measure 39
00010000
00000000
00000100
00000000
00000010
00000000
00000001
00000001
,  // measure 40
00000010
00001000
00012000
00013000
,  // measure 41
00001100
00000000
00010100
00000000
00011000
00000000
00001000
00010000
,  // measure 42
00011000
00000000
01001000
00000000
01010000
00000000
10010000
10010000
,  // measure 43
00110000
00000000
00101000
00000000
00011000
00000000
00010000
00001000
,  // measure 44
00011000
00000000
00010010
00000000
00001010
00000000
00001001
00001001
,  // measure 45
00000220
00000000
00000000
00000000
,  // measure 46
00000330
00000000
00000000
00000000
;

//---------------dance-double - Spork!----------------
#NOTEDATA:;
#CHARTNAME:;
#STEPSTYPE:dance-double;
#DESCRIPTION:Spork!;
#CHARTSTYLE:;
#DIFFICULTY:Hard;
#METER:7;
#RADARVALUES:0.321,0.334,0.163,0.118,0.245,217.000,18.000,13.000,0.000,0.000,0.000,0.000,0.000,0.321,0.334,0.163,0.118,0.245,217.000,18.000,13.000,0.000,0.000,0.000,0.000,0.000;
#CREDIT:Spork!;
#NOTES:
// measure 0
00000000
00000000
00000000
00000000
,  // measure 1
00000000
00000000
00000000
00000000
,  // measure 2
00000000
00000000
00000000
00000000
,  // measure 3
00000000
00000000
00000000
00000000
,  // measure 4
00000000
00000000
00000000
00000000
,  // measure 5
00010000
00000000
00000000
00100000
00000000
00000000
01000000
00000000
00000000
10000000
00000000
00000000
00010000
00000000
00010000
00000000
,  // measure 6
01000000
00000000
00000000
00001000
00000000
00000000
00010000
00000000
00000000
00000010
00000000
00000000
00000110
00000000
00000000
00000000
,  // measure 7
00001000
00000000
00000000
00000100
00000000
00000000
00000010
00000000
00000000
00000001
00000000
00000000
00001000
00000000
00001000
00000000
,  // measure 8
00000010
00000000
00000000
00010000
00000000
00000000
00001000
00000000
00000000
01000000
00000000
00000000
01100000
00000000
00000000
00000000
,  // measure 9
10000000
00000000
00000000
01000000
00000000
00000000
00100000
00000000
00000000
00010000
00000000
00000000
01000000
00000000
00010000
00000000
,  // measure 10
00100000
00000000
00000000
00001000
00000000
00000000
00010000
00000000
00000000
00000100
00000000
00000000
00000110
00000000
00000000
00000000
,  // measure 11
00000001
00000000
00000000
00000010
00000000
00000000
00000100
00000000
00000000
00001000
00000000
00000000
00000010
00000000
00001000
00000000
,  // measure 12
00000100
00000000
00000000
00010000
00000000
00000000
00001000
00000000
00000000
00100000
00000000
00000000
01000000
00000000
00100000
00000000
,  // measure 13
00110000
00000000
00000000
00100000
00000000
00000000
01000000
00000000
00000000
10000000
00000000
00000000
10000000
00000000
00010000
00000000
,  // measure 14
10100000
00000000
00000000
01000000
00000000
00000000
00001000
00000000
00000000
00010000
00000000
00000000
00010000
00000000
00000100
00000000
,  // measure 15
00001100
00000000
00000000
00000100
00000000
00000000
00000010
00000000
00000000
00000001
00000000
00000000
00000001
00000000
00001000
00000000
,  // measure 16
00000101
00000000
00000000
00000100
00000000
00000000
00000010
00000000
00000000
00010000
00000000
00000000
00001000
00000000
00100000
00000000
,  // measure 17
02000000
00000000
03020000
00000000
,  // measure 18
00032000
00000000
00003200
00000000
,  // measure 19
00000301
00000000
00000000
00000010
00000000
00000000
00000100
00000000
00000000
00010000
00000000
00000000
00001000
00000000
00000000
00100000
,  // measure 20
00000000
00000000
01000000
00000000
00000000
00010000
00000000
00000000
00011000
00000000
00000000
00001000
00000000
00000000
00000100
00000000
,  // measure 21
00000000
00001000
00000000
00000000
02000000
00000000
00000000
00000000
00000000
00000000
00100000
00000000
00000000
00100000
03000000
00000000
,  // measure 22
10000000
00000000
00000000
01000000
00000000
00000000
00100000
00000000
00000000
00001000
00000000
00000000
00010000
00000000
00000000
01000000
,  // measure 23
00000000
00000000
00100000
00000000
00000000
00001000
00000000
00000000
00011000
00000000
00000000
00010000
00000000
00000000
00100000
00000000
,  // measure 24
00000000
00010000
00000000
00000000
00000020
00000000
00000000
00000000
00000000
00000000
00000000
00000000
00000000
00000000
00000030
00000000
,  // measure 25
00001000
00000100
00001000
00000010
00000100
00000001
00000010
00000010
,  // measure 26
00000001
00000100
00000001
00000010
00000100
00010000
00001000
00100000
,  // measure 27
00010000
01000000
00010000
00100000
01000000
10000000
00100000
00100000
,  // measure 28
10000000
01000000
10000000
00100000
01000000
00001000
00011000
00000000
,  // measure 29
00010000
00000000
00000000
00000100
00000000
00000000
00001000
00000000
00000001
00000000
00000000
00000000
00010000
00000000
00000000
00000000
,  // measure 30
00001000
00000000
00000000
00100000
00000000
00000000
00010000
00000000
10000000
00000000
00000000
00000000
00001000
00000000
00000000
00000000
,  // measure 31
00010000
00000000
00000000
00000010
00000000
00000000
00010000
00000000
00001000
00000000
00000000
00100000
00000000
00000000
00001000
00000000
,  // measure 32
00010000
00000000
00000000
00000100
00000000
00000000
00010000
00000000
00002000
00000000
00000000
00000000
01003000
00000000
00000000
00000000
,  // measure 33
01100000
00000000
00100000
10000000
01000000
10000000
00100000
10000000
,  // measure 34
00010000
01000000
00011000
00000100
,  // measure 35
00000010
00000000
00000010
00000001
00000100
00000001
00000010
00000001
,  // measure 36
00001000
00000010
00011000
00100000
,  // measure 37
01000000
00000000
00000000
10000000
00000000
00000000
00010000
00000000
00000000
01000000
00000000
00000000
00001000
00000000
00010000
00000000
,  // measure 38
00000200
00001000
00000020
00000330
,  // measure 39
00000010
00000000
00000000
00000001
00000000
00000000
00001000
00000000
00000000
00000010
00000000
00000000
00010000
00000000
00001000
00000000
,  // measure 40
02000000
00000000
00020000
03030000
,  // measure 41
00001100
00000000
00000000
00000100
00000000
00000000
00000010
00000000
00000000
00000001
00000000
00000000
00000001
00000000
00001000
00000000
,  // measure 42
00000101
00000000
00000000
00000010
00000000
00000000
00010000
00000000
00000000
00001000
00000000
00000000
00001000
00000000
00100000
00000000
,  // measure 43
00110000
00000000
00000000
00100000
00000000
00000000
01000000
00000000
00000000
10000000
00000000
00000000
10000000
00000000
00010000
00000000
,  // measure 44
10100000
00000000
00000000
00100000
00000000
00000000
01000000
00000000
00000000
00001000
00000000
00000000
00010000
00000000
00000010
00000000
,  // measure 45
00000220
00000000
00000000
00000000
,  // measure 46
00000330
00000000
00000000
00000000
;
