#TITLE:Atröpøs;
#SUBTITLE:;
#ARTIST:sasakure.UK;
#TITLETRANSLIT:Atropos;
#SUBTITLETRANSLIT:;
#ARTISTTRANSLIT:;
#GENRE:;
#CREDIT:;
#BANNER:[Mythology] - Atropos.png;
#BACKGROUND:[Mythology] - Atropos-bg.png;
#LYRICSPATH:;
#CDTITLE:;
#MUSIC:[Mythology] - Atropos.mp3;
#OFFSET:-0.627000;
#SAMPLESTART:73.413002;
#SAMPLELENGTH:15.000003;
#SELECTABLE:YES;
#BPMS:0.000000=182.000000
;
#STOPS:
;
#BGCHANGES:;
#KEYSOUNDS:;
#ATTACKS:;

//---------------dance-single - ----------------
#NOTES:
     dance-single:
     :
     Hard:
     9:
     0.702972,0.852939,0.092528,0.513110,0.281790,513.000000,11.000000,61.000000,0.000000,0.000000,0.000000,0.702972,0.852939,0.092528,0.513110,0.281790,513.000000,11.000000,61.000000,0.000000,0.000000,0.000000:
0000
0000
0000
0000
,
0000
0000
0000
0000
,
0000
0000
0000
0000
,
0000
0000
0000
0000
,
0000
0000
0000
0000
,
0000
0000
0000
0000
,
0000
0000
0000
0000
,
0000
0000
0000
0000
,
1001
0000
0100
1000
0010
0100
0010
1000
,
0001
0100
0001
0100
0001
0000
0000
0000
0001
0010
0001
0000
0100
0000
0010
0000
,
1000
0000
1000
0000
0010
0100
0010
0100
0001
0000
0010
0000
0001
0000
0100
0001
,
0010
0000
0100
0000
1000
0010
0000
0010
1000
0000
0100
0000
0100
0000
0100
0000
,
1100
0000
0010
0001
0100
0010
0100
0001
,
0010
0100
0010
0100
1000
0000
0000
0000
1000
0010
1000
0000
0100
0000
0000
0000
,
0010
0000
0010
0000
0001
0000
0000
0100
0000
0001
0100
0000
0010
0100
0010
0100
,
0001
0010
0001
0010
0100
1000
0100
1000
,
0010
0000
0100
0001
0010
0200
1300
0010
,
0100
0000
0001
0010
0001
0100
0010
1000
,
0100
0000
0100
1000
0001
0020
0230
1300
,
0001
0000
0010
0001
0100
0010
1000
0010
,
0110
0000
0100
0001
0010
0002
0103
0010
,
1000
0000
0100
1000
0010
0100
0001
0010
,
0200
2300
3020
0230
0302
0000
0023
0000
,
0031
0000
0100
0000
0001
0000
0100
0000
0010
1000
0100
0010
0001
0100
0010
1000
,
0002
0000
1003
0020
0000
1030
0200
0000
,
0010
0000
0000
0000
1000
0000
0000
0000
0000
0000
1000
0000
0000
0000
1300
0100
,
0020
0000
0031
0200
0000
0301
2000
0000
,
3002
0000
0013
0200
0000
1300
0020
0000
,
2030
0000
3001
0200
0000
0301
0020
0000
,
0001
0000
0000
0000
0100
0000
0000
0000
0000
0000
0100
0000
0000
0000
0130
0010
,
0001
0100
0001
1000
0100
1000
0001
0100
,
0001
0000
1000
0000
0100
0000
1000
0000
0001
0100
0010
0100
0001
0010
0100
1000
,
0010
0000
0000
0000
0000
0000
1000
0100
0010
0000
0001
0000
0100
0000
0010
0000
,
0000
1000
0100
0010
0001
0100
0010
1010
,
0000
0000
0002
0000
0000
0000
1003
0100
1000
0000
0010
0000
0220
0000
0000
0000
,
0330
0000
0000
1001
0000
0000
0000
0000
0000
1000
0000
0000
0010
0000
0000
0100
0000
0000
0001
0000
0010
0000
0001
0000
,
1000
0000
0010
0000
1000
0000
0002
0000
0000
0000
0000
0000
1003
0000
0000
0100
0000
0000
0010
0000
0000
0100
0000
0000
,
1000
0001
0000
0100
0010
0100
0001
0000
,
1000
0000
0100
0000
0010
0000
0001
0000
0100
0000
0110
0000
0000
0000
0001
0010
,
0001
0010
0100
1000
0002
0000
0000
0000
1003
0000
0010
0000
0100
0000
0001
0000
,
0010
0100
0000
1000
0010
1000
0100
0000
,
0010
0000
0001
0000
0100
0000
0010
0000
1000
0000
1010
0000
0000
0000
0010
1000
,
0010
1000
0001
0100
0002
0000
0000
0000
0000
0000
0000
0000
0000
0000
0000
0000
,
0000
0000
0000
0000
,
0000
0000
0000
0000
,
0000
0000
0000
0000
,
0000
0000
0000
0000
0013
0000
0001
0000
0100
0000
0010
1000
0010
0000
0100
0000
,
0010
2000
0000
3100
0010
0002
0000
1003
,
0010
0000
0100
0000
0000
0000
0001
0010
0100
0000
1000
0000
0010
0000
0100
0000
,
0001
0200
0000
0310
1000
0200
0000
0000
,
0000
0000
0000
0000
1300
0000
0010
0000
0100
0000
0001
0010
0001
0000
1000
0000
,
0010
1000
0000
0100
0010
0001
0000
0100
,
0010
0100
0000
0001
0010
0100
0000
0100
,
1000
0020
0000
0000
0000
0000
0000
0000
,
0000
0000
0000
0000
,
0000
0000
0000
0000
1030
0000
0100
0000
0010
0000
0001
0100
0001
0000
0010
0000
,
0100
1000
0000
0010
0100
0010
0000
1000
,
0100
0000
0010
0000
0001
0000
0100
0010
1000
0000
0010
0000
0100
0000
0001
0000
,
0010
0100
0000
1000
0001
0200
0000
0000
,
0000
0000
0000
0000
0301
0000
1000
0000
0100
0000
0010
0001
0010
0000
0001
0000
,
0100
0010
0000
1000
0100
0010
0000
0001
,
1000
0001
0100
0001
0010
0100
1000
0010
,
0100
0000
0001
0000
1000
0000
0010
0000
1000
0000
0001
0000
0010
0001
1000
0010
,
0100
0001
1000
0100
0020
0000
0000
0000
0031
0000
2000
0000
0000
0000
3001
0000
,
0100
0010
1000
0000
0100
1000
0010
1000
,
0100
0010
0002
0000
0103
0020
0000
1030
,
0200
0000
0320
0000
0031
0200
0000
0301
,
2000
0000
0000
0000
3010
0000
0010
0000
0100
0010
0100
0000
0001
0000
0010
0000
,
0010
0010
0001
0001
1000
1000
0200
0000
,
0000
0000
2300
0000
3010
0200
0000
0301
,
0020
0000
0130
2000
0000
3010
0200
0000
,
0301
0000
1000
0010
0100
0000
0000
2000
,
3001
0010
0000
0001
1000
0010
0000
1000
,
0100
0000
0010
0000
0000
0000
0001
0010
0001
0000
0100
0000
0001
0000
0020
0000
,
0230
1300
0000
0001
1000
0010
0000
1000
,
0001
0010
0001
0100
0010
0000
0000
2000
,
3001
0100
0000
0010
1000
0100
0000
0010
,
0001
0100
0020
2030
3002
0203
0320
0000
,
2030
0000
0000
0000
3001
0000
0010
0000
0100
0000
1000
0000
0001
1000
0010
1000
,
0001
0010
0100
1000
0001
0000
0000
0000
0000
0000
1000
0100
0010
0000
0001
0000
,
0100
0001
0000
1000
0010
0100
0010
1000
,
0100
0000
0110
0000
0000
0000
0020
0000
0000
0000
0031
0100
0001
0000
0010
0000
,
0022
0000
0033
1100
0000
1000
0010
0100
,
0001
0010
0100
1000
0010
0100
0001
0010
0001
1000
0010
1000
,
0001
0100
0001
1000
0100
1000
0100
0000
0000
0000
0000
0000
;

//---------------dance-single - ----------------
#NOTES:
     dance-single:
     :
     Beginner:
     2:
     0.134586,0.177696,0.000000,0.016823,0.000000,110.000000,0.000000,2.000000,0.000000,0.000000,0.000000,0.134586,0.177696,0.000000,0.016823,0.000000,110.000000,0.000000,2.000000,0.000000,0.000000,0.000000:
0000
0000
0000
0000
,
0000
0000
0000
0000
,
0000
0000
0000
0000
,
0000
0000
0000
0000
,
0000
0000
0000
0000
,
0000
0000
0000
0000
,
0000
0000
0000
0000
,
0000
0000
0000
0000
,
1000
0000
0000
0000
,
0001
0000
0000
0000
,
0100
0000
0000
0000
,
0010
0000
0000
0000
,
0100
0000
0000
0000
,
0001
0000
0000
0000
,
1000
0000
0000
0000
,
0010
0000
0010
0000
,
1000
0000
0000
0100
,
0100
0000
0000
1000
,
1000
0000
0000
0001
,
0001
0000
0000
1000
,
1000
0000
0000
0010
,
0010
0000
0000
1000
,
1000
0000
0000
0001
,
0001
0000
0001
0000
,
0100
0000
0000
0010
,
0010
0000
0000
1000
,
1000
0000
0000
0010
,
0010
0000
0000
0100
,
0100
0000
0000
0001
,
0001
0000
0000
0010
,
0010
0000
0000
0100
,
0100
0000
0100
0000
,
1000
0000
0000
0000
,
0000
0000
0000
0000
,
0000
0000
0000
0000
,
0000
0000
0000
0000
,
0000
0001
0000
0010
,
0000
0000
0001
0001
,
0000
0100
0000
0000
,
0001
0001
0000
1000
,
0000
0000
0001
0001
,
0000
0100
0000
0000
,
0010
0020
0000
0000
,
0000
0000
0000
0000
,
0000
0000
0000
0000
,
0000
0000
0000
0000
,
0000
0030
0000
0000
,
0000
0000
0000
0000
,
0000
0000
0000
0000
,
0000
0000
0000
0000
,
0000
1000
0000
1000
,
0000
0000
0000
0000
,
0000
0001
0000
0001
,
0000
0000
0000
0000
,
0000
0000
0000
0000
,
0000
0010
0000
0100
,
0000
0010
0000
1000
,
0000
0100
0000
0010
,
0000
0100
0000
1000
,
0000
0001
0000
0010
,
0000
0001
0000
0100
,
0000
0010
0000
1000
,
0000
0100
0000
1000
,
0000
0001
0000
0001
,
0000
1000
0000
1000
,
0000
0010
0000
0010
,
0000
0100
0000
0100
,
0000
0001
0000
0002
,
0000
0000
0000
0003
,
0000
1000
0000
1000
,
0000
0010
0000
0010
,
0000
0100
0100
0000
,
0000
0001
0000
0000
,
0000
1000
0000
0000
,
0000
0001
0000
0000
,
0000
0010
0010
0000
,
0000
0001
0000
0000
,
0000
1000
0000
0000
,
0000
0001
0000
0000
,
0000
0100
0000
0010
,
0000
0000
1000
1000
,
0000
0010
0000
0000
,
0100
0000
0010
0000
,
0000
0001
0001
0000
,
0010
0000
0100
0000
;

//---------------dance-single - ----------------
#NOTES:
     dance-single:
     :
     Easy:
     4:
     0.248744,0.284313,0.008412,0.042058,0.000000,201.000000,1.000000,5.000000,0.000000,0.000000,0.000000,0.248744,0.284313,0.008412,0.042058,0.000000,201.000000,1.000000,5.000000,0.000000,0.000000,0.000000:
// measure 0
0000
0000
0000
0000
,  // measure 1
0000
0000
0000
0000
,  // measure 2
0000
0000
0000
0000
,  // measure 3
0000
0000
0000
0000
,  // measure 4
0000
0000
0000
0000
,  // measure 5
0000
0000
0000
0000
,  // measure 6
0000
0000
0000
0000
,  // measure 7
0000
0000
0000
0000
,  // measure 8
1000
0000
0000
0000
0000
0100
0000
0000
,  // measure 9
1000
0000
0000
0000
0000
0010
0000
0000
,  // measure 10
1000
0000
0000
0000
0000
0001
0000
0000
,  // measure 11
1000
0000
0000
0000
0000
0100
0000
0000
,  // measure 12
0010
0000
0000
0000
0000
0001
0000
0000
,  // measure 13
0100
0000
0000
0000
0000
0001
0000
0000
,  // measure 14
1000
0000
0000
0000
0000
0001
0000
0000
,  // measure 15
0100
0000
0010
0010
,  // measure 16
1000
0000
0100
0000
0000
0100
0000
0000
,  // measure 17
1000
0000
0010
0000
0000
0010
0000
0000
,  // measure 18
1000
0000
0001
0000
0000
0001
0000
0000
,  // measure 19
1000
0000
0010
0000
0000
0010
0000
0000
,  // measure 20
0100
0000
0001
0000
0000
0001
0000
0000
,  // measure 21
0010
0000
0001
0000
0000
0001
0000
0000
,  // measure 22
0100
0000
0010
0000
0000
0010
0000
0000
,  // measure 23
1000
0100
0010
0001
,  // measure 24
1000
0000
0000
0100
0000
0000
0020
0000
,  // measure 25
0000
0000
0000
0030
,  // measure 26
0001
0000
0000
0100
0000
0000
0010
0000
,  // measure 27
1000
0000
0000
0100
0000
0000
0010
0000
,  // measure 28
0001
0000
0000
0100
0000
0000
0020
0000
,  // measure 29
0000
0000
0000
0030
,  // measure 30
1000
0000
0000
0100
0000
0000
0010
0000
,  // measure 31
0000
0001
0000
0000
0100
0000
0010
0000
,  // measure 32
1000
0000
0000
0000
0100
0000
0000
0010
,  // measure 33
0000
0001
0000
0000
0100
0000
0000
0010
,  // measure 34
0000
0010
0000
1000
0000
0000
0100
0000
,  // measure 35
0000
0100
0000
0010
0000
0000
0001
0000
,  // measure 36
1000
1001
0100
0010
,  // measure 37
0000
1000
0100
0010
,  // measure 38
0100
1000
0000
0001
,  // measure 39
0100
0010
0100
0001
,  // measure 40
0000
0010
0100
1000
,  // measure 41
0100
0010
0000
0001
,  // measure 42
1000
0200
0000
0000
,  // measure 43
0000
0000
0000
0000
,  // measure 44
0000
0000
0000
0000
,  // measure 45
0000
0000
0000
0000
,  // measure 46
0000
0000
1300
0000
0000
0010
0000
0000
,  // measure 47
0000
0100
0000
0000
0000
0010
0000
0000
,  // measure 48
0000
0000
1000
0000
0000
0100
0000
0000
,  // measure 49
0000
0010
0000
0000
0000
0100
0000
0000
,  // measure 50
0000
0000
1000
0000
0000
0001
0000
0000
,  // measure 51
0000
0010
0000
0000
0000
0001
0000
0000
,  // measure 52
0000
0000
1000
0000
0000
0001
0000
0000
,  // measure 53
0000
0100
0000
0000
0000
0000
0000
0000
,  // measure 54
0000
0000
0000
0000
,  // measure 55
0000
0000
1000
0000
0100
1000
0000
0000
,  // measure 56
0010
0000
0100
0000
0001
0100
0000
0000
,  // measure 57
0001
0000
0010
0000
0100
0010
0000
0000
,  // measure 58
0100
0000
1000
0000
0010
1000
0000
0000
,  // measure 59
1000
0000
0001
0000
0010
0001
0000
0000
,  // measure 60
0001
0000
1000
0000
0010
1000
0000
0000
,  // measure 61
1000
0000
0100
0000
0010
0100
0000
0000
,  // measure 62
1000
0000
0001
0000
0000
0001
0000
0000
,  // measure 63
0001
0000
1000
0000
0000
0100
0000
0000
,  // measure 64
2000
0000
0000
0000
,  // measure 65
3000
0000
0001
0000
0000
0010
0000
0000
,  // measure 66
0100
0000
1000
0000
0000
0010
0000
0000
,  // measure 67
0100
0000
0001
0000
0000
0010
0000
0000
,  // measure 68
0200
0000
0000
0300
,  // measure 69
0000
0000
1000
0000
0000
0010
0000
0000
,  // measure 70
0100
0000
0000
0010
0000
0000
1000
0000
,  // measure 71
0001
0000
0010
0000
0001
0000
0000
0001
,  // measure 72
0000
0000
0100
0000
0001
0000
0000
0001
,  // measure 73
0000
0000
1000
0000
0001
0000
0000
0001
,  // measure 74
0000
0000
0100
0000
0001
0000
0000
0001
,  // measure 75
0000
0000
0010
0000
0100
0000
0000
0100
,  // measure 76
0000
0000
0010
0000
0001
0000
0000
0001
,  // measure 77
0000
0000
1000
0000
0001
0000
0000
0001
,  // measure 78
0000
0100
0010
1000
,  // measure 79
0010
0100
0000
0001
,  // measure 80
0000
0010
0000
0001
0000
0000
0100
0000
,  // measure 81
0000
0010
0000
1000
0000
0100
0000
0000
,  // measure 82
0001
0000
0000
0001
0000
0010
0000
0000
,  // measure 83
1000
0100
1000
0010
,  // measure 84
1000
0001
0100
0000
;

//---------------dance-single - ----------------
#NOTES:
     dance-single:
     :
     Medium:
     6:
     0.474656,0.497548,0.000000,0.462640,0.000000,340.000000,0.000000,55.000000,0.000000,0.000000,0.000000,0.474656,0.497548,0.000000,0.462640,0.000000,340.000000,0.000000,55.000000,0.000000,0.000000,0.000000:
// measure 0
0000
0000
0000
0000
,  // measure 1
0000
0000
0000
0000
,  // measure 2
0000
0000
0000
0000
,  // measure 3
0000
0000
0000
0000
,  // measure 4
0000
0000
0000
0000
,  // measure 5
0000
0000
0000
0000
,  // measure 6
0000
0000
0000
0000
,  // measure 7
0000
0000
0000
0000
,  // measure 8
1000
0000
0100
1000
0010
0200
0000
0000
,  // measure 9
0301
0010
0001
0000
1000
0020
0000
0000
,  // measure 10
0130
0000
0001
1000
0001
0200
0000
0000
,  // measure 11
0310
1000
0010
0000
0100
0002
0000
0000
,  // measure 12
0013
0000
0001
0100
0010
0200
0000
0000
,  // measure 13
0301
0010
0001
0000
1000
0020
0000
0000
,  // measure 14
0130
0010
0100
0000
0001
0200
0000
0000
,  // measure 15
0310
1000
0100
0000
0010
0001
0100
0000
,  // measure 16
0001
0000
1000
0100
1000
0010
0100
0000
,  // measure 17
0001
0000
0100
0010
1000
0100
0010
0000
,  // measure 18
0001
0000
0100
0010
1000
0001
0010
0000
,  // measure 19
0001
0000
0100
0010
0100
0001
0010
0000
,  // measure 20
0001
0000
1000
0010
0100
0010
1000
0000
,  // measure 21
0001
0000
1000
0100
0010
0100
1000
0000
,  // measure 22
0010
0000
0100
0001
0010
0001
0100
0000
,  // measure 23
0010
1000
0010
0000
0001
0010
0001
0010
,  // measure 24
0002
0000
0000
0203
0000
0000
0320
0000
,  // measure 25
0100
0000
0000
0000
0000
0100
0000
0030
,  // measure 26
2000
0000
0000
3200
0000
0000
0320
0000
,  // measure 27
0032
0000
0000
0203
0000
0000
0320
0000
,  // measure 28
2030
0000
0000
3200
0000
0000
0320
0000
,  // measure 29
0001
0000
0000
0000
0000
0001
0000
0030
,  // measure 30
0001
0000
0010
0001
0000
0010
0001
0000
,  // measure 31
0100
0001
0000
0100
0001
1000
0001
1000
,  // measure 32
0100
0000
0000
1000
0100
0000
0010
0001
,  // measure 33
0000
1000
0010
0000
0100
0001
0010
0001
,  // measure 34
0000
1000
0000
0001
0010
0100
2000
0000
,  // measure 35
0000
3010
0000
0100
0010
1000
0002
0000
,  // measure 36
0010
0000
1003
0000
0100
1000
0100
0000
,  // measure 37
0010
0001
0000
0001
0100
0000
0100
0000
,  // measure 38
0010
1000
0010
0100
0001
0010
0000
0010
,  // measure 39
0001
0000
1000
0000
0100
1000
0010
0000
,  // measure 40
0100
0001
0000
0010
0001
0000
0001
0000
,  // measure 41
0100
0010
1000
0010
0100
0001
0000
0010
,  // measure 42
0001
0200
0000
0000
,  // measure 43
0000
0000
0000
0000
,  // measure 44
0000
0000
0000
0000
,  // measure 45
0000
0000
0000
0000
,  // measure 46
0000
0000
0310
0000
0100
0010
1000
0100
,  // measure 47
0010
0001
0000
1000
0010
0100
0000
0010
,  // measure 48
0100
0000
0001
0000
0010
0001
0100
0000
,  // measure 49
0001
0010
0000
0010
0001
0100
0000
0000
,  // measure 50
0000
0000
0010
0000
1000
0100
0010
0001
,  // measure 51
0100
0010
0000
0010
1000
0100
0000
0100
,  // measure 52
1000
0000
0001
0000
0001
0100
0000
0100
,  // measure 53
0010
1000
0000
0000
0000
0000
0000
0000
,  // measure 54
0000
0000
0000
0000
,  // measure 55
0000
0000
1000
0000
0001
0010
0001
0100
,  // measure 56
0010
1000
0000
0001
1000
0001
0000
0010
,  // measure 57
0001
0000
0100
0010
0100
0000
0001
0000
,  // measure 58
0001
0100
0000
0100
0010
1000
0000
0000
,  // measure 59
0000
0000
0001
0000
0010
0001
0100
0001
,  // measure 60
0010
0001
0000
1000
0010
1000
0000
0100
,  // measure 61
0010
0000
1000
0000
0100
0000
0010
0001
,  // measure 62
0010
0100
1000
0000
0000
1000
0000
0000
,  // measure 63
1000
0000
0002
0000
0000
2003
0000
0000
,  // measure 64
3020
0000
0100
0000
0100
0000
0000
0100
,  // measure 65
0000
0030
2000
0000
0000
3002
0000
0000
,  // measure 66
0203
0000
0320
0000
0000
0230
0000
0000
,  // measure 67
0302
0000
2003
0000
0000
3200
0000
0000
,  // measure 68
0320
0002
0000
0003
,  // measure 69
0000
0030
0002
0000
0000
0203
0000
0000
,  // measure 70
0320
0000
0000
2030
0000
0000
3200
0000
,  // measure 71
0320
0000
0031
0000
0000
0000
0000
2000
,  // measure 72
0000
0000
3010
0000
0100
0000
0100
0002
,  // measure 73
0000
0000
0013
0000
0001
0000
0001
2000
,  // measure 74
0000
0000
3010
0000
0100
0000
0100
0020
,  // measure 75
0000
0000
1030
0000
0100
1000
0100
0020
,  // measure 76
0000
0000
0031
0010
0001
0010
0001
0200
,  // measure 77
0000
0000
0310
0000
1000
0000
0100
2000
,  // measure 78
0000
0000
3010
0100
0010
0000
1000
0100
,  // measure 79
1000
0000
0001
0000
0000
1000
0010
0100
,  // measure 80
0010
1000
0000
0100
0010
0000
0001
0000
,  // measure 81
0100
0010
0000
1000
0000
0001
0010
0100
,  // measure 82
2000
0000
0000
3001
0000
0010
0001
0100
,  // measure 83
0020
2030
3200
0320
,  // measure 84
0032
0203
0310
0000
;
