#TITLE:Anubis;
#SUBTITLE:;
#ARTIST:Banzai;
#TITLETRANSLIT:;
#SUBTITLETRANSLIT:;
#ARTISTTRANSLIT:;
#CREDIT:;
#BANNER:Anubis.png;
#BACKGROUND:Anubis-bg.png;
#LYRICSPATH:;
#CDTITLE:;
#MUSIC:Anubis.mp3;
#OFFSET:-0.072;
#SAMPLESTART:43.700;
#SAMPLELENGTH:17.450;
#SELECTABLE:YES;
#DISPLAYBPM:55.000:110.000;
#BPMS:0.000=110.000,112.000=55.000,128.000=110.000,192.000=27.500;
#STOPS:;
#BGCHANGES:;

//---------------dance-single - ----------------
#NOTES:
     dance-single:
     :
     Hard:
     9:
     0.705,0.914,0.805,0.260,0.584: // measure 1
0000
0000
0000
0000
,  // measure 2
0000
0000
0000
0000
,  // measure 3
0000
0000
0000
0000
,  // measure 4
0000
0000
0000
0000
,  // measure 5
1000
0000
0000
0100
2000
0000
3000
0010
2000
0000
3001
0000
0010
0000
0100
0000
,  // measure 6
0010
0000
0000
0001
0020
0000
0030
0100
0010
0001
1000
0000
0010
0100
0001
0000
,  // measure 7
0001
0000
0000
1000
0002
0000
0003
0100
0002
0000
0013
0000
0100
0000
1000
0000
,  // measure 8
0100
0000
0000
0001
0200
0000
0300
0010
0100
1000
0010
0000
0100
0001
1000
0000
,  // measure 9
0001
0000
0000
0001
0200
0000
0300
0001
0020
0000
0031
0000
0100
0000
1000
0000
,  // measure 10
0100
0000
0000
0100
0020
0000
0030
0100
1000
0100
0010
0000
1000
0001
0100
0000
,  // measure 11
0010
0000
0000
0010
2000
0000
3000
0010
0002
0000
0013
0000
1000
0000
0100
0000
,  // measure 12
1000
0000
0000
1000
0002
0000
0003
1000
0010
0100
1000
0000
0100
0000
0001
0000
,  // measure 13
1000
0100
1000
0000
1000
0000
0000
0000
0001
0010
0001
0000
0001
0000
0000
0000
,  // measure 14
0100
0010
0100
0000
0100
0000
0101
0000
0001
0000
1001
0000
1000
0010
0001
0000
,  // measure 15
0010
1000
0010
0000
0010
0000
0000
0100
0000
0100
0001
0100
0001
0000
0010
0100
,  // measure 16
1000
0001
0100
0000
0010
0000
0010
0100
0000
0010
0100
0000
0001
0000
1000
0000
,  // measure 17
0010
1000
0100
0010
0001
0000
0100
0000
0001
0010
0100
1000
0001
0000
0000
0000
,  // measure 18
1000
0001
1000
0000
0001
1000
0001
0000
0100
0010
0100
0000
0010
0100
0010
0000
,  // measure 19
1000
0010
0100
0010
1000
0000
0100
0000
0001
0100
1000
0010
0100
1000
0100
0000
,  // measure 20
0100
0000
0100
0000
0100
0000
0001
0100
0001
0000
0010
0000
0100
0000
1000
0000
,  // measure 21
0001
0100
0101
0000
1010
0000
0110
0000
1001
0000
0110
0000
1001
0000
1010
0000
,  // measure 22
1000
0100
1100
0000
0011
0000
1010
0000
0101
0000
1010
0000
0101
0000
1010
0000
,  // measure 23
0100
0010
0110
0000
1001
0000
1100
0000
0011
0000
1100
0000
0011
0000
1100
0000
,  // measure 24
0001
1000
1001
0000
0110
0000
1010
0000
0101
0000
1010
0000
0101
0000
1010
0000
,  // measure 25
0001
0010
0011
0000
1100
0000
0110
0000
0101
0000
0110
0000
0101
0000
0110
0000
,  // measure 26
1000
0010
1010
0000
0101
0000
0110
0000
1010
0000
0110
0000
1010
0000
0110
0000
,  // measure 27
0100
0001
0101
0000
1010
0000
1100
0000
1001
0000
1100
0000
1001
0000
1100
0000
,  // measure 28
0001
1000
1001
0000
0110
0000
1010
0000
1000
0000
0010
0000
0001
0000
0010
0000
,  // measure 29
2010
0000
0000
0000
0000
0000
0000
0000
3000
0000
0000
0000
0000
0000
0001
0100
0010
0000
0000
0000
0000
0000
0000
0000
2000
0000
0010
0000
3000
0000
0000
0000
,  // measure 30
1002
0000
0000
0000
0000
0000
0000
0000
0003
0000
0000
0000
0000
0000
0010
0100
1000
0000
0000
0000
0000
0000
0000
0000
1020
0000
0100
0000
0030
0000
0000
0000
,  // measure 31
1000
0000
0000
0010
0100
0000
0000
0000
2001
0000
0001
0000
3100
0000
0010
0100
1000
0000
0000
0100
0001
0000
0000
0000
0120
0000
0001
0000
1030
0000
0000
0001
,  // measure 32
0010
0000
0000
0010
1000
0000
0000
0000
2010
0000
0001
0000
3100
0000
0000
0000
0001
0010
0001
0001
0100
0001
0001
1000
0001
0001
0100
0010
0010
1000
0010
0010
,  // measure 33
1000
0000
0001
0100
0101
0000
1000
0010
1010
0000
0100
0001
0101
0000
0010
0000
,  // measure 34
1100
0000
0010
0001
0011
0000
0100
1000
1100
0000
0001
0010
0011
0000
1000
0000
,  // measure 35
0110
0000
1000
0001
1001
0000
0010
0100
0110
0000
0001
1000
1001
0000
0100
0000
,  // measure 36
1010
0000
0100
0001
0101
0000
1000
0010
1010
0000
0001
0100
0101
0000
1000
0000
,  // measure 37
0001
0100
0010
0010
1010
0000
0100
0000
0100
0001
1000
1000
1001
0000
0100
0000
,  // measure 38
0010
1000
0001
0001
0011
0000
0100
0000
1000
0001
0100
0100
0110
0000
0001
0000
,  // measure 39
1000
0100
0010
0010
0011
0000
0001
0000
0100
0010
1000
1000
1100
0000
0000
0000
,  // measure 40
1000
0010
0100
0100
0001
0100
0010
0010
1000
0100
0010
0010
0001
0010
0100
0100
,  // measure 41
1001
0000
0000
0010
2002
0000
3003
0100
2001
0000
3010
0000
0100
0000
0001
0000
,  // measure 42
0110
0000
0000
1000
0220
0000
0330
0001
0010
0100
1000
0000
0001
1000
0010
0000
,  // measure 43
1100
0000
0000
0001
2200
0000
3300
0010
2100
0000
3001
0000
0100
0000
1000
0000
,  // measure 44
0101
0000
0000
1000
0202
0000
0303
0010
0102
0000
1003
0000
0100
0010
0001
0000
,  // measure 45
1000
0001
0010
0001
1000
0000
0100
0000
0100
0000
0100
0000
0100
0000
0100
0000
,  // measure 46
0010
0001
1000
0001
0010
0000
0001
0000
0001
0000
0001
0000
0001
0000
0001
0000
,  // measure 47
0100
0010
1000
0010
0100
0000
0010
0000
0010
0000
0010
0000
0010
0000
0010
0000
,  // measure 48
0010
1000
0001
1000
0010
0000
1000
0000
1000
0000
1000
0000
1000
0000
0001
0000
,  // measure 49
1001
0000
0000
0000
;

//---------------dance-single - ----------------
#NOTES:
     dance-single:
     :
     Medium:
     7:
     0.491,0.540,0.225,0.320,0.229:
0000
0000
0000
0000
,
0000
0000
0000
0000
,
0000
0000
0000
0000
,
0000
0000
0000
0000
,
1000
0000
0000
0200
0300
0000
0000
0002
0003
0000
0100
0000
1000
0000
0010
0000
,
0100
0000
0000
2000
3000
0000
0000
0100
0000
0010
0100
0000
0001
1000
0001
0000
,
0010
0000
0000
0002
0003
0000
0000
0200
0300
0000
1000
0000
0100
0000
0001
0000
,
0010
0000
0000
0200
0300
0000
0000
0001
0000
0100
0010
0000
0100
1000
0001
0000
,
0100
0000
0000
0002
0003
0000
0000
0020
0030
0000
1000
0000
0010
0000
0001
0000
,
1000
0000
0000
0020
0030
0000
0000
0100
0000
1000
0100
0000
0001
1000
0010
0000
,
0001
0000
0000
0020
0030
0000
0000
2000
3000
0000
0100
0000
0001
0000
0100
0000
,
0010
0000
0000
0002
0003
0000
0000
0100
0000
0001
1000
0000
0100
0000
0001
0000
,
0200
0310
0002
1003
,
0200
0000
0310
0001
0100
1000
0010
0001
,
0200
0000
0301
0000
2000
0000
3010
0100
,
0001
0010
0100
0001
0100
1000
0010
0100
,
0020
1030
0002
0103
,
1000
0100
0100
0010
0010
0001
0001
1000
,
0020
0130
0002
1003
,
0100
0001
0100
1000
0010
0100
1000
0100
,
0102
0100
0103
0010
1000
0001
1000
0001
,
1002
1000
1003
0100
0010
0001
0010
0001
,
0012
0010
0013
0100
1000
0010
1000
0010
,
1020
1000
1030
0100
0010
0100
0010
0100
,
0210
0010
0310
0001
0100
0010
1000
0001
,
0102
0100
0103
0010
1000
0100
0010
0001
,
0102
0100
0103
1000
0010
0100
0001
1000
,
2010
0010
3010
0100
1000
0010
0100
0001
,
0010
0000
0000
0000
1001
0000
0000
0020
0030
0000
0000
0000
0100
1010
0001
0000
,
1000
0000
0000
0000
0110
0000
0000
0020
0030
0000
0000
0000
1000
0011
0100
0000
,
0001
0000
0000
0020
0030
0000
0000
0000
1001
0000
0000
0000
0000
0000
0002
0000
0003
0000
0000
0000
0000
0000
0000
0000
0010
0000
1001
0000
0100
0000
0000
0000
,
1000
0000
0000
0002
0003
0000
0000
0000
1001
0000
0000
0000
0000
0000
0000
0000
2000
0000
0010
0000
0001
0000
0100
0000
0001
0000
0010
0000
0001
0000
0100
0000
,
3010
0100
0110
1000
0001
1000
0110
0001
,
0010
0100
0110
0100
1000
0010
1010
0100
,
0001
0010
0011
0001
1000
0010
0110
1000
,
0001
1000
1100
0010
0100
0001
0011
0001
,
1000
0010
1000
0010
1000
0000
0100
0000
0100
0000
0010
0000
0010
0000
0001
0000
,
0100
0010
0100
0010
0100
0000
0001
0000
0001
0000
1000
0000
1000
0000
0010
0000
,
0100
0001
0100
0001
0100
0000
0010
0000
0010
0000
1000
0000
1000
0000
0100
0000
,
0010
0001
0010
0001
0010
0000
0100
0000
1000
0000
0010
0000
0100
0000
1000
0000
,
0100
0000
0000
0001
0100
0000
0000
0010
0100
0000
0001
0000
1000
0000
1001
0000
,
0010
0000
0000
0100
0010
0000
0000
1000
0020
0000
0030
0000
0100
0001
0100
0000
,
0001
0000
0000
0010
0001
0000
0000
0100
0001
0000
1000
0000
0010
0000
0110
0000
,
1000
0000
0000
0001
1000
0000
0000
0010
2000
0000
3000
0000
0100
1000
0100
0000
,
1000
0001
0100
0100
0010
0010
1000
1000
,
0100
0001
0100
1000
1000
0010
0010
0100
,
0100
0001
0010
0100
0100
0010
0010
0001
,
0100
1000
0100
0010
0010
1000
1000
0001
,
1001
0000
0000
0000
;

//---------------dance-single - ----------------
#NOTES:
     dance-single:
     :
     Easy:
     4:
     0.331,0.312,0.363,0.216,0.039:
0000
0000
0000
0000
,
0000
0000
0000
0000
,
0000
0000
0000
0000
,
0000
0000
0000
0000
,
1000
1100
1010
1100
,
0010
0110
1100
0110
,
0100
0011
1001
0011
,
0001
1001
0110
1001
,
0100
1010
0110
1010
,
0001
0101
0110
0101
,
0010
1100
1001
1100
,
1000
0110
0010
1000
,
0002
0003
0200
0300
,
0020
0000
0030
1000
0100
1000
0010
1000
,
0002
0003
2000
3000
,
0020
0000
0030
0100
0000
0001
0000
1000
,
0002
0003
0200
0300
,
0020
0030
2000
3002
,
0203
0000
0300
0000
0020
0000
0030
1000
,
0100
0010
0100
1000
,
0001
0000
0101
0000
1000
0010
0100
0010
,
1000
0000
0011
0000
0100
0001
0010
0001
,
0100
0000
0110
0000
1000
0001
0100
0001
,
1000
0000
0011
0000
0100
0001
1000
0001
,
0100
0000
1010
0000
0100
0010
1000
0001
,
0100
0000
0011
0000
1000
0001
0100
0010
,
1000
0000
0011
0000
0001
1000
0010
0100
,
0001
0110
1000
0001
,
0110
1000
0001
0010
,
0110
0000
0000
0000
0100
0000
0000
0000
1100
0000
0000
0000
0100
1000
0000
0000
,
0100
0001
1000
1010
,
0100
0000
1000
0000
0001
0010
0001
0010
,
0001
0000
0110
0000
1000
0001
1000
0000
,
0100
0000
0011
0000
0100
0001
0100
0000
,
0010
0000
1100
0000
0010
0001
1000
0000
,
1000
0000
1001
0000
0010
0100
0010
0000
,
2000
3001
0200
0310
,
2000
3001
0020
0130
,
2000
3001
2000
3010
,
0200
0301
0020
0031
,
1000
0000
0000
0100
0000
0000
0000
0100
0000
0000
0100
0000
0100
0000
0100
0000
,
0100
0000
0000
0010
0000
0000
0000
0020
0000
0000
0030
0000
0020
0000
0030
0000
,
0010
0000
0000
0001
0000
0000
0000
0001
0000
0000
0001
0000
0001
0000
0001
0000
,
0001
0000
0000
1000
0000
0000
0000
2000
0000
0000
3000
0000
2000
0000
3000
0000
,
0001
0100
0001
0000
0010
0000
0110
0000
,
1000
0001
1000
0000
0001
0000
0011
0000
,
0100
0001
0100
0000
0010
0000
1010
0000
,
1000
0100
1000
0000
0001
0000
0100
0010
,
0110
0000
0000
0000
;
