#TITLE:Angelic Tears;
#SUBTITLE:;
#ARTIST:SHIKI;
#TITLETRANSLIT:;
#SUBTITLETRANSLIT:;
#ARTISTTRANSLIT:;
#CREDIT:;
#BANNER:Angelic Tears.png;
#BACKGROUND:Angelic Tears-bg.png;
#LYRICSPATH:;
#CDTITLE:;
#MUSIC:Angelic Tears.mp3;
#OFFSET:1.194;
#SAMPLESTART:26.660;
#SAMPLELENGTH:12.000;
#SELECTABLE:YES;
#BPMS:0.000=145.960;
#STOPS:;
#BGCHANGES:0.500=Angelic Tears.AVI=1.000=1=0=1,99999=-nosongbg-=1.000=0=0=0 // don't automatically add -songbackground-;

//---------------dance-single - ----------------
#NOTES:
     dance-single:
     :
     Beginner:
     2:
     0.117,0.152,0.000,0.015,0.000:
0000
0000
0000
0000
,
0000
0000
0000
0000
,
0000
0000
0000
0000
,
0000
0000
0000
0000
,
0000
0000
0000
0000
,
0000
1000
0000
0000
,
0000
0000
0000
0000
,
0100
0000
0000
0000
,
0001
0000
0000
0000
,
0010
0000
0000
0000
,
1000
0000
0000
0000
,
0010
0000
0000
0000
,
0001
0000
0000
0000
,
0100
0000
0000
0000
,
1000
0000
0000
0000
,
0010
0000
0000
0000
,
0000
0000
0000
0000
,
1000
0000
1000
0000
,
1000
0000
0010
0000
,
0010
0000
0010
0000
,
0001
0000
0100
0000
,
0010
0000
0010
0000
,
0010
0000
0100
0000
,
0100
0000
0100
0000
,
0002
0000
0000
0003
,
1000
0000
0000
0000
,
0100
0000
0000
0000
,
0010
0000
0000
0000
,
0001
0000
0001
0000
,
1000
0000
0000
0000
,
0010
0000
0000
0000
,
1000
0000
0001
0000
,
0100
0000
0100
0000
,
0010
0000
0000
0000
,
0010
0000
0000
0000
,
0010
0000
0100
0000
,
1000
0000
0000
0000
,
0001
0000
0000
0000
,
0001
0000
0000
0000
,
0001
0000
0000
0000
,
0100
0000
0000
0000
,
0000
0000
0000
1000
,
0000
0001
0000
0100
,
0000
0010
0000
1000
,
0000
0001
0000
0100
,
0000
0010
0000
1000
,
0000
0001
0000
0100
,
0000
0010
0000
0000
,
0000
0000
0000
0000
,
0000
1000
0000
1000
,
0000
0100
0000
0100
,
0000
0010
0000
0010
,
0000
0001
0000
0001
,
0000
1000
0000
1000
,
0000
0100
0000
0100
,
0000
0010
0000
0010
,
0000
0001
0000
0001
,
1000
0000
0000
0000
,
0010
0000
0000
0000
,
0100
0000
0000
0000
,
0001
0000
0001
0000
,
1000
0000
0000
0000
,
0010
0000
0000
0000
,
0100
0000
0100
0000
,
0100
0000
0000
0000
,
0000
0010
0000
1000
,
0000
0001
0000
0100
,
0000
0010
0000
1000
,
0000
0001
0000
0000
,
0100
0000
0010
0000
,
1000
0000
0001
0000
,
0100
0000
0010
0000
,
1000
0000
1000
0000
,
0001
0000
0000
0000
,
1000
0000
0000
0000
,
0100
0000
0000
0000
,
0010
0000
0000
0000
,
0001
0000
0000
0000
,
2000
0000
0000
3000
,
0000
0000
0000
0000
,
0010
0000
0010
0000
,
0100
0000
0000
0000
;

//---------------dance-single - ----------------
#NOTES:
     dance-single:
     :
     Easy:
     4:
     0.261,0.273,0.007,0.082,0.000:
0000
0000
0000
0000
,
0000
0000
0000
0000
,
0000
0000
0000
0000
,
0000
0000
0000
0000
,
0000
0000
0000
0000
,
1000
0010
1000
0010
,
0001
0100
0001
0100
,
0020
0000
0000
0000
,
0000
0030
0000
0000
0000
0000
0000
0000
,
1000
0000
0010
0000
,
0100
0000
0001
0000
,
1000
0000
0010
0000
,
0100
0000
0001
0000
,
0010
0000
1000
0000
,
0001
0000
0100
0000
,
0010
0000
1000
0000
,
0001
0001
0100
0100
,
0010
1000
0001
0100
,
1000
1000
1000
0010
,
0100
0100
0100
0001
,
1000
0001
0100
0000
,
0010
0010
0010
1000
,
0001
0001
0001
1000
,
0100
0100
0010
0010
,
0100
0001
1000
0001
,
0100
0100
0100
0010
,
1000
1000
1000
0001
,
0100
0100
0100
0010
,
1000
0001
0100
0010
,
0010
0010
0010
1000
,
0001
0001
0001
0100
,
1000
1000
0010
0010
,
0100
0001
0100
0001
,
2000
0000
0010
0000
,
0001
0000
0010
0000
,
3001
0000
0010
0000
,
0100
0000
1000
0000
,
0002
0000
0100
0000
,
1000
0000
0010
0000
,
0100
0000
1000
0000
,
0010
0000
0103
0000
,
1000
0001
0100
0100
,
0010
1000
0100
0100
,
0001
0010
0001
0001
,
1000
0010
1000
0001
,
0100
0100
0010
0010
,
0100
0001
1000
0001
,
0010
0010
1000
0001
,
0100
1000
0001
0001
,
0010
0010
0100
0100
,
1000
1000
0010
0010
,
0100
0100
0100
0001
,
0001
0010
0100
1000
,
0001
1000
0010
0010
,
0100
0001
1000
0010
,
0100
0100
0001
1000
,
0020
0000
0000
0030
,
2000
0000
0000
3000
,
0001
0000
0000
0000
,
0020
0000
0000
0030
,
1000
0000
0001
0000
,
0200
0000
0000
0000
0000
0300
0000
0000
,
0001
0000
0000
0000
,
1000
0000
0001
0000
,
1000
0010
0100
0001
,
0100
0100
1000
1000
,
0001
0001
0100
0010
,
1000
1000
0001
0001
,
0100
0010
1000
0000
,
0001
0001
1000
0010
,
0100
0100
0001
1000
,
0010
0010
0100
0100
,
0001
1000
0001
1000
,
0020
0000
0000
0030
,
2000
0000
0000
3000
,
0002
0000
0000
0000
0000
0000
0000
0003
,
0200
0000
0000
0000
0000
0300
0000
0000
,
0001
0001
1000
1000
,
0010
0010
0100
0100
,
0001
1000
0010
1000
,
0001
0100
0001
1000
,
1001
0000
0000
0000
;

//---------------dance-single - Copied from----------------
#NOTES:
     dance-single:
     Copied from:
     Medium:
     6:
     0.338,0.394,0.007,0.172,0.000:
0000
0000
0000
0000
,
0000
0000
0000
0000
,
0000
0000
0000
0000
,
0000
0000
0000
0000
,
0000
0000
0000
0000
,
1000
0010
0100
0001
,
1000
0010
1000
0000
0001
0100
0010
0000
,
1000
0001
0100
0010
,
1000
0001
0100
0100
,
0002
0000
1000
0000
,
0100
0000
0000
0000
0010
0000
0000
0003
,
2000
0000
0010
0000
,
0001
0000
0000
0000
0100
3000
0000
0000
,
0002
0000
0100
0000
,
0010
0000
0000
0000
1000
0003
0000
0000
,
0200
0000
0010
0000
,
0001
0000
1300
0000
,
0001
0100
0010
0000
1000
0001
0100
0010
,
1000
0000
1000
0000
0010
0100
0001
0100
,
0010
0000
0010
0000
1000
0001
1000
0010
,
0100
0000
0001
0000
1000
0010
0000
0000
,
0100
0000
0001
0000
0001
0010
1000
0010
,
0100
0000
0100
0000
0001
1000
0010
0100
,
0100
0000
0001
0010
0010
0000
1000
0000
,
0010
0100
0001
1000
0010
0000
0001
0000
,
1000
0000
1000
0000
0010
0100
0001
1000
,
0010
0000
0010
0000
0100
0001
1000
0010
,
0100
0100
0001
1000
,
0010
0000
0100
0000
0001
0001
0000
0000
,
1000
0000
1000
0000
0010
0100
0001
0000
,
0100
0100
0001
0001
,
1000
1000
0010
0010
,
0100
0000
0001
0000
1000
0010
1000
0010
,
0200
0000
0000
0300
,
0020
0000
0000
0000
0000
0000
0000
0030
,
2000
0000
0000
0000
0000
0000
0000
3000
,
0200
0000
0000
0300
,
0002
0000
0000
0000
0000
0000
0000
0003
,
0020
0000
0000
0000
0000
0000
0000
0030
,
2000
0000
0000
3000
,
0200
0000
0000
0000
0000
0300
0000
0000
,
0001
0000
1000
0000
0010
0100
0001
0000
,
1000
0000
0010
0100
0001
1000
0010
0000
,
0100
0000
0100
0000
0001
1000
0010
0000
,
0100
0100
0100
0010
,
1000
0001
0100
0000
0010
0000
0010
0000
,
0100
0001
1000
0000
0010
0000
0010
0000
,
0100
0001
1000
0000
0010
0100
0010
0000
,
1000
0001
0100
0000
0010
1000
0001
0000
,
1000
0010
1000
0000
0010
0100
0010
0000
,
0001
0010
0001
0000
1000
0010
1000
0000
,
0100
0010
0100
0000
0001
0010
0001
0000
,
0010
1000
0010
0000
0100
0000
0100
0000
,
0001
1000
0001
0000
0100
0010
0100
0000
,
0001
1000
0001
0000
0100
0010
0100
0000
,
1000
1000
0001
0001
,
0100
0010
1000
0001
,
0200
0000
0000
0300
,
0020
0000
0000
0030
,
2000
0000
0000
3000
,
0001
0000
1000
0000
0010
0100
0000
0000
,
0002
0000
0000
0000
0000
0000
0000
0003
,
2000
0000
0000
0000
0000
0000
0000
3000
,
0020
0000
0000
0030
0200
0000
0000
0300
,
0001
0001
0001
0001
,
1000
0010
1000
0000
0100
0010
0100
0000
,
0001
1000
0001
0000
0100
0010
1000
0000
,
0001
0100
0010
0000
1000
0010
0100
0000
,
0001
0000
0001
0000
1000
1000
0000
0000
,
0010
0000
0100
0000
0001
1000
0010
0100
,
0001
0000
1000
0000
0010
0100
0010
0000
,
0100
0001
1000
1000
,
0100
0001
0100
0010
1000
0010
0100
0000
,
0002
0000
0000
0000
0000
0000
0000
0003
,
2000
0000
0000
0000
0000
0000
0000
3000
,
0020
0000
0000
0030
,
0200
0000
0000
0300
,
0001
0001
1000
1000
,
0010
0010
0100
0100
,
0001
1000
0010
0100
,
0001
1000
0010
0100
,
1001
0000
0000
0000
;

//---------------dance-single - Copied from----------------
#NOTES:
     dance-single:
     Copied from:
     Hard:
     9:
     0.512,0.516,0.030,0.195,0.000: // measure 1
0000
0000
0000
0000
,  // measure 2
0000
0000
0000
0000
,  // measure 3
0000
0000
0000
0000
,  // measure 4
0000
0000
0000
0000
,  // measure 5
0000
0000
0000
0000
,  // measure 6
1000
0010
0100
0001
1000
0010
0100
0000
,  // measure 7
0001
0000
0001
0000
1000
0010
1000
0000
,  // measure 8
0001
0100
0010
1000
0001
0000
0001
0000
,  // measure 9
0100
0010
1000
0001
0100
0000
0100
0000
,  // measure 10
0010
1000
0010
1000
0010
0100
0010
0100
,  // measure 11
0001
0100
0010
1000
0010
1000
0010
0100
,  // measure 12
0010
0100
0010
0100
0001
0100
0001
0100
,  // measure 13
0010
1000
0100
0010
0001
0010
1000
0000
,  // measure 14
0001
0000
0001
0000
0100
0010
1000
0000
,  // measure 15
0001
0000
0001
0000
1000
0010
0100
0000
,  // measure 16
1000
0000
1000
0000
0010
0100
0001
0000
,  // measure 17
0100
0000
1000
0000
0010
0100
0001
0000
,  // measure 18
1000
0000
1000
0000
0010
0100
0001
1000
,  // measure 19
0010
0000
0010
0000
0100
0001
1000
0010
,  // measure 20
0100
0000
0100
0000
0001
1000
0010
0100
,  // measure 21
0001
0000
0001
0000
1000
1000
0000
0000
,  // measure 22
0001
0000
0001
1000
0010
0100
0001
1000
,  // measure 23
1000
0000
1000
0000
0010
0100
0001
1000
,  // measure 24
0010
0010
1000
1000
,  // measure 25
0001
0100
0010
1000
0010
0100
0001
0100
,  // measure 26
0010
0000
0010
0000
1000
0100
0010
0001
,  // measure 27
0010
0000
0010
0000
0100
0001
1000
0010
,  // measure 28
1000
0000
1000
0000
0010
0100
0010
0100
,  // measure 29
0001
0000
0001
0000
1000
1000
0000
0000
,  // measure 30
0010
0000
0010
0000
0100
0001
1000
0010
,  // measure 31
0100
0000
0100
0000
0001
1000
0010
0100
,  // measure 32
0001
0000
0001
1000
0010
0000
0010
0000
,  // measure 33
1000
0001
0100
0010
1000
0001
0100
0010
,  // measure 34
2000
0000
0001
0000
0001
0000
0001
3000
,  // measure 35
0020
0100
0100
0100
,  // measure 36
2030
0000
0001
0000
0001
0000
0001
3000
,  // measure 37
0020
0230
0302
2003
,  // measure 38
3002
0000
0100
0000
0010
0000
1000
0003
,  // measure 39
0020
0100
1000
0001
,  // measure 40
1030
0000
0200
0000
0001
0000
0001
0300
,  // measure 41
0010
1000
0001
0100
1000
1000
1000
0010
,  // measure 42
0001
0100
0010
1000
0001
0100
0100
0010
,  // measure 43
0001
1000
0010
0100
0010
0100
0100
0001
,  // measure 44
1000
0010
0100
0001
1000
1000
0010
0100
,  // measure 45
0001
1000
0010
0001
0100
0100
0010
1000
,  // measure 46
0001
0100
0010
1000
0001
0001
0100
0010
,  // measure 47
1000
0010
0100
0001
0100
0100
0010
1000
,  // measure 48
0010
0100
0001
0100
0010
1000
1000
0010
,  // measure 49
0100
0001
1000
0010
0100
0100
0001
0000
,  // measure 50
1000
0010
1000
0010
1000
0001
1000
0010
,  // measure 51
1000
0010
0100
0010
0100
0001
0100
0010
,  // measure 52
0100
0001
1000
0010
0100
0001
1000
0010
,  // measure 53
0100
0001
0010
1000
0100
0010
0001
0000
,  // measure 54
2000
0000
0010
0000
0001
3000
0010
0001
,  // measure 55
0200
0000
0010
0000
0001
0300
0010
1000
,  // measure 56
0020
0000
0100
0000
0100
0000
1000
0030
,  // measure 57
0001
0100
1000
0010
0100
0001
0001
0000
,  // measure 58
2000
0000
0010
0000
0001
3000
0010
0100
,  // measure 59
0020
0000
0100
0000
1000
0030
0001
0100
,  // measure 60
2000
0000
0010
0000
0100
3000
0001
0000
,  // measure 61
0102
0000
0100
0003
0100
0010
0000
0000
,  // measure 62
2000
0000
0010
0000
0001
3000
0100
0010
,  // measure 63
0020
0000
0100
0000
0100
0000
1030
0100
,  // measure 64
0002
0000
0100
0000
2003
0000
0010
3000
,  // measure 65
0100
0001
1000
0010
0100
0001
1000
0000
,  // measure 66
0010
0100
0010
1000
0010
0100
0001
0100
,  // measure 67
0010
0000
1010
0000
1000
0001
0100
0010
,  // measure 68
1000
0000
1001
0000
0001
0100
0010
1000
,  // measure 69
0001
0000
1001
0000
0010
0010
0000
0000
,  // measure 70
1000
0000
0001
0100
0010
1000
0010
0100
,  // measure 71
0001
0000
1000
0010
0100
0001
1000
0010
,  // measure 72
0100
0000
0001
0000
1000
0000
0010
0100
,  // measure 73
0001
1000
0010
1000
0001
0100
0010
0000
,  // measure 74
2000
0010
0001
3010
,  // measure 75
0020
0000
0100
0000
1000
0000
0001
0030
,  // measure 76
0200
0010
0001
0010
,  // measure 77
0301
0010
1000
0001
,  // measure 78
0200
0000
0010
0000
0010
0000
0010
0300
,  // measure 79
0002
1000
1000
1003
,  // measure 80
0010
0100
0010
1000
0001
1000
0010
0000
,  // measure 81
0100
0001
1000
0010
1000
0100
0001
0100
,  // measure 82
0010
0000
0000
0000
;
