#TITLE:[Mythology];
#SUBTITLE:- Afterlife;
#ARTIST:Sanxion7;
#TITLETRANSLIT:;
#SUBTITLETRANSLIT:;
#ARTISTTRANSLIT:;
#GENRE:;
#CREDIT:;
#BANNER:Afterlife-bn.png;
#BACKGROUND:Afterlife-bg.png;
#LYRICSPATH:;
#CDTITLE:;
#MUSIC:afterlife.mp3;
#OFFSET:-0.025000;
#SAMPLESTART:28.506998;
#SAMPLELENGTH:14.220000;
#SELECTABLE:YES;
#DISPLAYBPM:65.000000:135.000000;
#BPMS:0.000000=135.000000
,170.000000=108.000000
,172.000000=90.000000
,174.000000=63.528999
,178.000000=75.000000
,178.500000=95.000000
,179.000000=115.000000
,179.500000=135.000000
;
#STOPS:60.000000=1.778000,
178.000000=0.044000,
178.500000=0.128000,
179.000000=0.183000,
179.500000=0.222000
;
#BGCHANGES:;
#KEYSOUNDS:;
#ATTACKS:;

//---------------dance-single - ----------------
#NOTES:
     dance-single:
     :
     Hard:
     8:
     0.424381,0.644270,0.449817,0.262393,0.534158,241.000000,48.000000,28.000000,11.000000,0.000000,0.000000,0.424381,0.644270,0.449817,0.262393,0.534158,241.000000,48.000000,28.000000,11.000000,0.000000,0.000000:
0000
0000
0000
0000
,
0000
0000
0000
0000
,
0000
0000
0000
0000
,
0000
0000
0000
0000
,
0000
0000
0000
0000
,
0000
0000
0000
0000
,
0200
0000
0000
0000
,
0300
0000
0000
0000
0000
0000
0000
0000
0000
0000
0000
0000
0000
0000
0000
1000
,
0000
1000
0000
0000
0000
0000
0000
0001
0000
0001
0000
0000
0000
0000
1000
0001
,
0000
0001
0000
0000
0000
0000
0000
1000
0000
1000
0000
0000
0000
0000
0010
0001
,
0000
0001
0000
0000
0000
0000
0000
0100
0000
0100
0000
0000
0000
0000
0001
1000
,
0000
1000
0000
0000
0000
0000
0000
0100
0000
0100
0000
0000
0000
0000
0001
1000
,
0000
1000
0001
0000
0000
0000
0010
0100
0000
0100
0010
0000
0000
0000
1000
0010
,
0000
0010
1000
0000
0000
0000
0100
0001
0000
0001
0100
0000
0000
0000
0010
1000
,
0000
1000
0010
0000
0000
0000
0100
0010
0000
0010
0100
0000
0000
0000
1000
0010
,
0000
0010
0000
0000
1001
0000
0000
0100
0000
0100
0000
0000
1010
0000
0000
0001
,
0000
0001
0000
0000
0110
0000
0000
1000
0000
1000
0000
0000
0101
0000
2000
0000
,
3020
0100
0000
0100
,
0000
0000
0230
0000
0010
0000
0000
0000
0302
0000
0000
0000
1000
0000
0000
0010
,
0003
0010
0000
0000
1100
0000
0000
0001
0000
0001
0000
0000
0110
0000
0000
1000
,
0000
1000
0000
0000
0011
0000
0000
0100
0000
0100
0000
0000
1001
0000
0000
0000
,
0200
0000
0000
0300
,
2002
3003
0000
0000
0000
0000
2002
0000
3003
0000
0000
0000
2002
0000
0000
3003
0000
0000
2002
0000
0000
0000
3003
0000
,
0010
0000
1000
0000
0100
0000
0000
0010
0000
0001
1000
0000
0100
0010
0000
0010
,
0000
0000
0001
0000
0100
0000
0000
0001
1000
0010
1000
0010
1000
0100
0010
0000
,
0010
0000
0000
0000
0000
0000
0000
0100
0000
0100
0000
0000
0000
0000
0000
0001
,
0000
0001
0000
0000
0000
0000
0000
1000
0000
1000
0000
0000
0000
0000
0001
0000
,
0110
0000
0000
0000
,
0000
0000
0000
0000
,
1001
0000
0000
0000
,
0220
0330
0000
0000
0000
0000
0220
0000
0330
0000
0000
0000
0220
0000
0000
0330
0000
0000
0220
0000
0000
0000
0330
0000
,
0000
0000
1100
0000
0000
1000
0000
0000
1001
0000
0000
1000
0000
0000
1100
0000
,
0000
0000
0101
0000
0000
0001
0000
0000
1001
0000
0000
0001
0000
0000
0011
0000
,
0000
0000
1010
0000
0000
1000
0000
0000
1001
0000
0000
1000
0000
0000
1010
0000
,
0000
0000
0011
0000
0000
0001
0000
0000
1001
0000
0000
0001
0000
0000
0101
0000
,
0000
0000
1100
0000
0000
0100
0000
0000
0110
0000
0000
0100
0000
0000
1100
0000
,
0000
0000
0101
0000
0000
0100
0000
0000
0110
0000
0000
0100
0000
0000
1100
0000
,
0000
0000
1010
0000
0000
0010
0000
0000
0110
0000
0000
0010
0000
0000
1010
0000
,
0000
0000
0011
0000
0000
0010
0000
0000
0110
0000
0000
0010
0000
0000
1010
0000
,
0000
0100
0000
0000
0000
0000
0000
0001
0000
0001
0000
0000
0000
0000
0000
0100
,
0000
0100
0010
0000
0000
0000
1000
0000
0001
0000
0000
0000
0100
0000
0002
0000
,
0023
0000
0000
0000
,
0000
0230
0000
0000
2300
0000
0000
0000
,
3001
0001
0001
0000
,
0000
0000
0000
0000
1100
0011
0101
1010
,
1001
0000
0010
0000
0000
0000
0010
1000
0000
1000
0001
0000
0000
0000
0001
0010
,
0000
0010
0100
0000
0000
0000
0100
1000
0000
1000
0001
0000
0000
0000
0001
0100
,
0000
0100
0010
0000
0000
0000
0010
1000
0000
1000
0001
0000
0000
0000
0001
0010
,
0000
0010
0100
0000
0000
0000
0100
0010
0000
0010
0001
0000
0000
0000
0001
1000
,
0000
1000
0010
0000
0000
0000
0010
0100
0000
0100
0001
0000
0000
0000
0001
0010
,
0000
0010
0100
0000
0000
0000
0100
1000
0000
1000
0001
0000
0000
0000
0001
1000
,
0000
1000
0010
0000
0000
0000
0010
0001
0000
0001
0100
0000
0000
0000
0100
1000
,
0000
1000
0100
0000
0010
0000
0100
0001
0000
0001
0010
0000
0100
0000
0010
0000
,
0220
0000
M000
0000
0000
000M
0000
0000
M000
0000
0000
000M
0000
0000
M330
0000
,
0000
000M
0000
0000
M000
0000
0000
000M
0000
0000
M000
0000
0000
000M
0000
0000
,
M000
0000
0000
0000
;

//---------------dance-single - ----------------
#NOTES:
     dance-single:
     :
     Medium:
     5:
     0.305233,0.377776,0.187424,0.168681,0.004686,190.000000,20.000000,18.000000,0.000000,0.000000,0.000000,0.305233,0.377776,0.187424,0.168681,0.004686,190.000000,20.000000,18.000000,0.000000,0.000000,0.000000:
0000
0000
0000
0000
,
0000
0000
0000
0000
,
0000
0000
0000
0000
,
0000
0000
0000
0000
,
0000
0000
0000
0000
,
0000
0000
0000
0000
,
0200
0000
0000
0000
,
0300
0000
0000
0000
,
1000
0001
1000
0000
0001
0100
0001
0000
,
0100
0010
0100
0000
0010
1000
0010
0000
,
1000
0100
1000
0000
0100
0010
0100
0000
,
0010
0001
0010
0000
0001
1000
0001
0000
,
1000
0001
0000
0100
0001
0100
0000
0010
,
0100
0010
0000
0100
1000
0100
0000
1000
,
0001
1000
0000
0001
1000
0001
0000
1000
,
0001
1001
0100
1001
,
0010
0110
1000
0110
,
0020
1000
0000
0001
,
0000
2030
0000
0000
3200
0000
0000
0000
,
0310
1001
0100
1001
,
1000
0110
0001
0110
,
0020
1000
0100
1000
,
0230
0300
0000
0000
0000
0000
0200
0000
0300
0000
0000
0000
0200
0000
0000
0300
0000
0000
0200
0000
0000
0000
0300
0000
,
0010
0000
0100
0000
0010
0000
0000
1000
0000
0000
0001
0000
1000
0000
0000
0000
,
0100
0010
0100
0000
0001
1000
0001
1000
,
0100
0000
0100
0001
0100
0000
0100
1000
,
0100
0000
0100
0001
0100
0000
0100
1000
,
1001
0000
0000
0000
,
0000
0000
0000
0000
,
1001
0000
0000
0000
,
0200
0300
0000
0000
0000
0000
0200
0000
0300
0000
0000
0000
0200
0000
0000
0300
0000
0000
0200
0000
0000
0000
0300
0000
,
0000
1000
0000
0000
1000
0000
0000
1000
,
0000
0001
0000
0000
0001
0000
0000
1001
,
0000
0100
0000
0000
0100
0000
0000
0100
,
0000
0010
0000
0000
0010
0000
0000
0110
,
0000
1000
0000
0000
0010
0000
0000
1000
,
0000
0001
0000
0000
0010
0000
0000
1001
,
0000
1000
0000
0000
0100
0000
0000
1000
,
0000
0001
0000
0000
0100
0000
0000
0110
,
0000
0000
0000
0000
,
0000
1000
0000
0100
0010
0000
0001
0000
,
0200
0000
0000
0000
,
0000
0302
0000
0000
2003
0000
0000
0000
,
3001
0001
0001
0000
,
0000
0000
0000
0000
1001
0110
1001
0110
,
1001
0100
0000
0010
0001
0100
0000
0010
,
1000
0001
0000
0010
0001
1000
0000
0010
,
1000
0001
0000
0100
0001
1000
0000
0100
,
1000
0010
0000
0100
0001
0010
0000
0100
,
0010
0001
0000
0100
0010
1000
0000
0100
,
1000
0001
0000
0010
0001
1000
0000
0010
,
1000
0100
0000
0010
0001
0100
0000
0010
,
1000
0100
0000
1000
0001
0100
0000
0001
,
2002
0000
0000
3003
;

//---------------dance-single - ----------------
#NOTES:
     dance-single:
     :
     Easy:
     4:
     0.228925,0.298004,0.224909,0.215537,0.004686,124.000000,24.000000,23.000000,0.000000,0.000000,0.000000,0.228925,0.298004,0.224909,0.215537,0.004686,124.000000,24.000000,23.000000,0.000000,0.000000,0.000000:
0000
0000
0000
0000
,
0000
0000
0000
0000
,
0000
0000
0000
0000
,
0000
0000
0000
0000
,
0000
0000
0000
0000
,
0000
0000
0000
0000
,
2000
0000
0000
0000
,
3000
0000
0000
0000
,
1001
0100
0010
0100
,
0010
0100
0010
0100
,
2001
0100
0001
0100
,
0001
3000
0010
0000
0100
0000
1000
0000
,
1001
0100
0001
1000
,
0100
1000
0001
0100
,
0002
1000
0010
1000
,
0103
0101
0000
1001
,
0000
1100
0000
0110
,
0002
0100
0000
0100
,
0000
1003
0200
0010
,
0301
1001
0000
1010
,
0000
0101
0000
0110
,
0000
0011
0000
1100
,
0200
0300
0000
0000
0000
0000
0200
0000
0300
0000
0000
0000
0200
0000
0000
0300
0000
0000
0200
0000
0000
0000
0300
0000
,
2000
0000
0000
0000
3000
0000
0000
0200
0000
0000
0000
0000
0300
0000
0000
0000
,
0002
0003
0200
0300
,
1000
0000
0010
0000
,
0001
0000
0100
0000
,
1001
0000
0000
0000
,
0000
0000
0000
0000
,
0110
0000
0000
0000
,
0200
0300
0000
0000
0000
0000
0200
0000
0300
0000
0000
0000
0200
0000
0000
0300
0000
0000
0200
0000
0000
0000
0300
0000
,
0010
0000
1001
0000
,
0100
0000
1010
0000
,
0001
0000
0110
0000
,
1000
0000
0101
0000
,
0010
0000
1001
0000
,
0100
0000
0011
0000
,
1000
0000
0110
0000
,
0001
0000
1100
0000
,
0010
0000
0100
0000
,
0010
0000
0100
0010
,
2000
0000
0000
0000
,
0001
0000
3200
0000
,
1300
1000
0000
0000
,
0000
0000
0000
0000
0010
0001
0100
1000
,
0010
1000
0000
1000
,
0100
1000
0000
1000
,
0100
0001
0000
0001
,
0100
0010
0000
0010
,
1000
0100
1000
0100
,
0010
0100
0010
0100
,
0010
0001
0010
0001
,
0200
0300
0000
0000
0000
0000
0200
0000
0300
0000
0000
0000
0200
0000
0000
0300
0000
0000
0200
0000
0000
0000
0300
0000
,
0110
0000
0000
0000
;

//---------------dance-single - ----------------
#NOTES:
     dance-single:
     :
     Beginner:
     1:
     0.101744,0.124168,0.131197,0.046856,0.000000,57.000000,14.000000,5.000000,0.000000,0.000000,0.000000,0.101744,0.124168,0.131197,0.046856,0.000000,57.000000,14.000000,5.000000,0.000000,0.000000,0.000000:
// measure 0
0000
0000
0000
0000
,  // measure 1
0000
0000
0000
0000
,  // measure 2
0000
0000
0000
0000
,  // measure 3
0000
0000
0000
0000
,  // measure 4
0000
0000
0000
0000
,  // measure 5
0000
0000
0000
0000
,  // measure 6
0200
0000
0000
0000
,  // measure 7
0300
0000
0000
0000
,  // measure 8
0100
0000
0000
0000
,  // measure 9
0100
0000
0000
0000
,  // measure 10
1000
0000
0000
0000
,  // measure 11
0001
0000
0001
0000
,  // measure 12
1001
0000
0000
0000
,  // measure 13
0100
0000
0000
0000
,  // measure 14
0020
0000
0000
0000
,  // measure 15
0030
0100
0000
0100
,  // measure 16
0000
0100
0000
0100
,  // measure 17
0001
0000
0000
0000
,  // measure 18
0000
0000
1000
0000
,  // measure 19
0001
0100
0000
0100
,  // measure 20
0000
0100
0000
0100
,  // measure 21
1000
0000
0000
0000
,  // measure 22
0100
0000
0100
0000
,  // measure 23
0110
0000
0000
0000
,  // measure 24
0110
0000
0000
0000
,  // measure 25
1000
0000
0000
0000
,  // measure 26
0001
0000
0000
0000
,  // measure 27
1001
0000
0000
0000
,  // measure 28
0000
0000
0000
0000
,  // measure 29
1001
0000
0000
0000
,  // measure 30
0100
0000
0100
0000
,  // measure 31
0100
0000
1000
0000
,  // measure 32
0000
0000
0001
0000
,  // measure 33
0000
0000
0100
0000
,  // measure 34
0000
0000
0010
0000
,  // measure 35
0000
0000
0100
0000
,  // measure 36
0000
0000
1000
0000
,  // measure 37
0000
0000
0001
0000
,  // measure 38
0000
0000
0010
0000
,  // measure 39
1001
0000
0000
0000
,  // measure 40
0000
0000
0000
0000
,  // measure 41
2002
0000
0000
0000
,  // measure 42
0000
0000
3003
0000
,  // measure 43
0200
0000
0300
0000
,  // measure 44
0000
0000
0000
0000
0100
0100
0100
0100
,  // measure 45
0100
0000
0000
0000
,  // measure 46
0110
0000
0000
0000
,  // measure 47
1001
0000
0000
0000
,  // measure 48
0011
0000
0000
0000
,  // measure 49
0101
0000
0000
0000
,  // measure 50
1010
0000
0000
0000
,  // measure 51
1001
0000
0000
0000
,  // measure 52
0100
0000
0100
0000
,  // measure 53
0110
0000
0000
0000
;
