#TITLE:evergreen shoreline;
#SUBTITLE:;
#ARTIST:kors k vs. Oriental ST8;
#TITLETRANSLIT:;
#SUBTITLETRANSLIT:;
#ARTISTTRANSLIT:;
#GENRE:;
#CREDIT:;
#BANNER:[Mash-up] - Evergreen Shoreline-bn.png;
#BACKGROUND:[Mash-up] - Evergreen Shoreline-bg.png;
#LYRICSPATH:;
#CDTITLE:;
#MUSIC:[Mash-up] - Evergreen Shoreline.mp3;
#OFFSET:-0.197000;
#SAMPLESTART:74.860001;
#SAMPLELENGTH:16.000000;
#SELECTABLE:YES;
#BPMS:0.000000=135.000000
;
#STOPS:
;
#BGCHANGES:;
#KEYSOUNDS:;
#ATTACKS:;

//---------------dance-single - ----------------
#NOTES:
     dance-single:
     :
     Hard:
     8:
     0.534801,0.550327,0.086258,0.405414,0.439917,377.000000,10.000000,47.000000,0.000000,0.000000,0.000000,0.534801,0.550327,0.086258,0.405414,0.439917,377.000000,10.000000,47.000000,0.000000,0.000000,0.000000:
0000
0000
0000
0000
,
0000
0000
0000
0000
,
0000
0000
0000
0000
,
0000
0000
0000
0000
,
1000
0000
0010
0100
0000
0000
0000
0000
0001
0000
0100
0010
0000
0000
1000
0000
,
0000
0000
0010
0100
0000
0000
0000
0000
0001
0000
1000
0001
1000
0000
0001
0000
,
1000
0000
0010
0100
0000
0000
0001
0000
1000
0000
0010
0100
0000
0000
0001
0000
,
0000
0000
1000
0001
0000
0000
0000
0000
1000
0000
1000
0001
1000
0000
0001
0000
,
2002
0000
0000
0000
,
0000
0000
0000
3003
,
0001
0000
0000
0001
0000
0000
0010
0000
0000
0010
0000
0000
0010
0000
0000
0000
,
0100
0000
0100
0000
0010
0000
0010
0000
0010
0100
0000
0010
0100
0000
0100
0000
,
0001
0000
0000
0001
0000
0000
0100
0000
0000
0100
0000
0000
0100
0000
0000
0000
,
1000
1000
0010
0010
2000
0000
3002
0000
,
1003
0000
0000
1000
0000
0000
0010
0000
0000
0010
0000
0000
0010
0000
0000
0000
,
0100
0000
0100
0000
0001
0000
0001
0000
0001
1000
0000
0001
1000
0000
1000
0000
,
0001
0000
0000
1000
0000
0000
0001
0000
0000
0100
0010
0000
1000
0000
0001
0000
,
1000
0000
1000
0000
0001
0000
0001
0000
1000
0001
1000
0000
1001
0000
0001
0000
,
1000
0000
0000
0001
0000
0000
1000
0000
0002
0000
0000
0000
1003
0000
0000
0000
,
1000
0000
0000
0010
0000
0000
1000
0000
0020
0000
0000
0000
1030
0000
1000
0000
,
0001
0010
0100
1000
0000
0001
0010
0000
,
0100
0010
0001
1000
0000
0001
0010
0100
,
0020
0000
0031
0020
0000
0130
1000
0000
,
0200
0000
0310
0200
0000
1300
0001
1000
,
0001
0000
0010
0000
0001
0010
0000
0001
0000
0000
1000
0001
1000
0000
0001
1000
,
0001
0000
0000
0001
0100
0000
0000
0001
1000
0000
0000
0011
0000
0000
1000
0000
,
0010
0000
0000
0010
0000
0000
1000
0000
0000
1000
0000
0000
0001
0000
0000
0001
,
0000
0000
0100
0000
0000
0100
0000
0000
0001
0000
0000
0001
0000
0000
0100
0000
,
0000
0100
0000
0000
0010
0000
0000
0010
0000
0000
1000
0000
0000
1000
0000
0000
,
0010
0000
0000
0010
0000
0000
0100
0000
0000
0100
0000
0000
0010
0000
1000
0000
,
0001
0000
0000
0001
0000
0000
0010
0000
0000
0010
0000
0000
1000
0000
0000
1000
,
0000
0000
0010
0000
0000
0010
0000
0000
0001
0000
0000
0001
0000
0000
0100
0000
,
0000
0100
0000
0000
1000
0000
0000
1000
0000
0000
0100
0000
0000
0100
0000
0000
,
0001
0000
0000
0001
0000
0000
1000
0000
0000
1000
0000
0000
0001
0000
0010
0000
,
0200
0000
0000
2300
0000
0000
3020
0000
0000
0230
0000
0000
0320
0000
0000
2030
,
0000
0000
3200
0000
0000
0320
0000
0000
2030
0000
0000
3020
0000
0000
0032
0000
,
0003
0020
0000
0000
0230
0000
0000
0320
0000
0000
0032
0000
0000
2003
0000
0000
,
3002
0000
0000
0023
0000
0000
0230
0000
0000
2300
0000
0000
3002
0000
1003
0000
,
0200
0000
0000
2300
0000
0000
3002
0000
0000
0203
0000
0000
2300
0000
0000
3200
,
0000
0000
2300
0000
0000
3200
0000
0000
0302
0000
0000
0203
0000
0000
0320
0000
,
0000
0230
0000
0000
2300
0000
0000
3200
0000
0000
0320
0000
0000
2030
0000
0000
,
3001
0000
0001
0000
1000
0000
1000
0000
0010
0100
0000
0001
1000
0000
1001
0000
,
0001
0000
0001
0010
0000
0010
0100
0000
0010
0000
0100
0000
1000
0000
0001
0010
,
0001
0000
0010
0000
1000
0000
0001
0000
0100
0000
1000
0001
1000
0000
1000
0000
,
0010
0000
0010
0100
0000
0100
0001
0000
0100
0000
0010
0000
1000
0000
0001
1000
,
0001
0000
1000
0000
0010
0000
1000
0001
1000
0000
1000
0000
0001
0000
1000
0000
,
0001
0000
0001
0010
0000
0010
0100
0000
1000
0000
0100
0000
1000
0000
0010
1000
,
0010
0000
1000
0000
0010
0000
0100
0000
0001
0000
1000
0001
1000
0000
0001
0000
,
1000
0000
1000
0100
0000
0100
0010
0000
0001
0000
1000
0000
0001
1000
0001
0000
,
1001
0000
0000
0101
0000
0000
1001
0000
0000
0010
1000
0010
1000
0000
0001
0010
,
0001
0000
0001
0010
0000
0010
0100
0000
1000
0000
0001
0000
0100
0000
0001
1000
,
0001
0000
0010
0000
1000
0000
0001
0000
0100
0000
1000
0001
1000
0000
0001
0000
,
0100
0000
0100
0010
0000
0010
1000
0000
0001
0000
1000
0000
0010
0000
0100
0001
,
0100
0000
0001
0000
1000
0000
0001
1000
0001
0000
1000
0000
0001
0000
0010
0000
,
0001
0000
0001
0010
0000
0010
0100
0000
1000
0000
0010
0000
0100
0000
0001
0100
,
0001
0000
1000
0000
0001
0000
0100
0000
0001
0000
1000
0001
1000
0000
0001
0000
,
1001
0000
0001
0101
0000
0100
0010
1000
,
0001
0000
0001
0000
1000
0000
1000
0000
0001
1000
0001
0000
1001
0000
1000
0000
,
0010
0000
0000
0000
;

//---------------dance-single - ----------------
#NOTES:
     dance-single:
     :
     Medium:
     5:
     0.362284,0.350208,0.120761,0.267400,0.103510,249.000000,14.000000,31.000000,0.000000,0.000000,0.000000,0.362284,0.350208,0.120761,0.267400,0.103510,249.000000,14.000000,31.000000,0.000000,0.000000,0.000000:
0000
0000
0000
0000
,
0000
0000
0000
0000
,
0000
0000
0000
0000
,
0000
0000
0000
0000
,
1000
0001
1000
0010
,
1000
0000
0001
0000
1000
0010
0100
0000
,
0001
1000
0001
0100
,
0001
0000
1000
0000
0001
0100
0010
0000
,
2002
0000
0000
0000
,
0000
0000
3003
0000
,
0001
0000
0000
0001
0000
0000
0100
0000
0000
0100
0000
0000
0100
0000
0000
0000
,
0001
0100
0010
1000
,
0001
0000
0000
0001
0000
0000
0100
0000
0000
0100
0000
0000
0100
0000
0000
0000
,
0010
1000
0002
0203
,
0310
0000
0000
0010
0000
0000
1000
0000
0000
1000
0000
0000
1000
0000
0000
0000
,
0001
1000
0100
0010
,
0001
0000
0000
0010
0000
0000
0001
0000
0000
0100
0000
0000
0010
0000
0000
0000
,
1000
0000
0001
0000
1000
0001
1001
0000
,
1000
0000
0000
0001
0000
0000
1000
0000
0002
0000
0000
0000
1003
0000
0000
0000
,
1000
0000
0000
0010
0000
0000
1000
0000
0020
0000
0000
0000
1030
0000
0000
0000
,
0001
0010
0100
1000
0000
0001
0010
0000
,
0100
0010
0001
1000
0000
0001
0010
0100
,
0020
0000
0030
0020
0000
0030
0001
0000
,
0200
0000
0300
0200
0000
0300
0001
0000
,
0001
0000
0010
0000
0001
0000
0000
1001
0000
0000
0001
0000
1000
0000
0000
0000
,
1000
0011
0001
1100
,
0010
0000
0000
0010
0000
0000
1000
0000
0000
0000
0000
0000
0000
0000
0001
0000
,
0100
0000
0000
0000
0000
0010
0100
0010
,
0100
0000
0000
0010
0000
0000
1000
0000
0000
0000
0000
0000
0000
0000
0001
0000
,
0100
0000
0000
0010
0100
0010
0100
0001
,
1000
0000
0000
1000
0000
0000
0010
0000
0000
0000
0000
0000
0000
0000
0100
0000
,
0001
0000
0000
0000
0000
0001
0100
0001
,
0100
0000
0000
0100
0000
0000
1000
0000
0000
0000
0000
0000
0100
0000
0001
0000
,
0100
0000
0000
0001
0000
0000
1000
0000
0000
0000
0001
0000
0000
0000
1000
0000
,
0200
0000
0000
2300
0000
0000
3010
0000
0000
0000
0000
0000
0000
0000
0010
0000
,
1000
0000
0000
0000
0000
0010
1000
0001
,
0020
0000
0000
0230
0000
0000
1300
0000
0000
0000
0000
0000
0000
0000
0010
0000
,
1000
0000
0000
0100
0010
0001
1000
0010
,
0200
0000
0000
0302
0000
0000
1003
0000
0000
0000
0000
0000
0000
0000
0001
0000
,
0100
0000
0000
0000
0000
0010
1000
0010
,
0200
0000
0000
0320
0000
0000
1030
0000
0000
0000
0000
0000
0010
0000
1000
0000
,
0001
0000
0000
0100
0000
0000
0001
0000
0000
0000
0001
0000
1001
0000
1000
0000
,
0002
0010
1003
0010
,
2000
0000
0001
0000
3100
0000
0001
1000
,
0020
0100
1030
0100
,
0002
0000
0010
0000
1003
0000
1000
0010
,
0200
0001
0010
0301
,
2000
0000
0001
0000
3100
0000
0001
1000
,
0200
0000
0010
0000
0310
0000
0001
0010
,
1001
0000
0000
0100
0000
0000
1001
0000
0000
0000
1000
0000
1010
0000
0000
0000
,
0110
0000
0000
0010
0000
0000
0100
0000
0002
0000
0000
0000
0103
0000
0000
0000
,
0001
0000
0000
0010
0000
0000
0001
0000
0200
0000
0000
0000
0301
0000
0000
0000
,
0100
0010
0100
1000
0000
1000
0010
0000
,
0100
0010
0001
0010
0000
0100
1000
0000
,
0002
0000
0013
0200
0000
0310
0010
0000
,
0002
0000
0013
0200
0000
1300
1000
0000
,
1001
0000
0001
0101
0000
0100
0010
1000
,
0001
0000
1000
0000
0001
1000
1010
0000
,
1001
0000
0000
0000
;

//---------------dance-single - ----------------
#NOTES:
     dance-single:
     :
     Easy:
     2:
     0.186071,0.200119,0.207020,0.112136,0.000000,114.000000,24.000000,13.000000,0.000000,0.000000,0.000000,0.186071,0.200119,0.207020,0.112136,0.000000,114.000000,24.000000,13.000000,0.000000,0.000000,0.000000:
0000
0000
0000
0000
,
0000
0000
0000
0000
,
0000
0000
0000
0000
,
0000
0000
0000
0000
,
1000
0000
1000
0000
,
0000
0001
0000
0000
0001
0000
0000
0000
,
0100
0000
0100
0000
,
0000
0010
0000
0000
0010
0000
0000
0000
,
2002
0000
0000
0000
,
3003
0000
0000
0000
,
0001
0000
0100
0000
,
0001
0100
0010
0000
,
1000
0000
0010
0000
,
1000
0010
0100
0001
,
1000
0000
1000
0000
,
0001
1000
0100
0000
,
1000
0000
1000
0000
,
0001
0100
0010
1001
,
1000
0000
1001
0000
,
1000
0000
1010
0000
,
0001
0000
1001
0000
,
0001
0000
0101
0000
,
0002
0003
0200
0300
,
0020
0030
2000
3000
,
0001
0001
0001
0000
,
1000
1000
1000
1001
,
0001
0000
0000
0000
,
0100
0000
0000
0000
,
0010
0000
0000
0000
,
1000
0000
0100
0000
,
1000
0000
0000
0000
,
0010
0000
0000
0000
,
0100
0010
0001
0000
,
0001
0010
0100
0000
,
1010
0000
0000
0000
,
0100
0000
0000
0000
,
0001
0100
0001
0000
,
1000
0000
0000
0000
,
0001
0000
0000
0000
,
0100
0000
0000
0000
,
0001
0100
0010
0000
,
0100
0010
1000
0000
,
1002
0000
1003
0000
,
2001
0000
3001
0000
,
1020
0000
1030
0000
,
0102
0000
0103
0000
,
2001
0000
3001
0000
,
1002
0000
1003
0000
,
2100
0000
3100
0000
,
0011
0000
1001
0000
,
0110
0100
0100
0000
,
0010
0010
0010
0000
,
0100
0100
0100
0000
,
0010
0010
0010
0000
,
0110
0000
0100
0000
,
0011
0000
0010
0000
,
1001
0000
0001
0000
,
1001
0000
1001
0000
,
1001
0000
0000
0000
;

//---------------dance-single - ----------------
#NOTES:
     dance-single:
     :
     Beginner:
     1:
     0.130620,0.150089,0.094884,0.017252,0.000000,93.000000,11.000000,2.000000,0.000000,0.000000,0.000000,0.130620,0.150089,0.094884,0.017252,0.000000,93.000000,11.000000,2.000000,0.000000,0.000000,0.000000:
// measure 0
0000
0000
0000
0000
,  // measure 1
0000
0000
0000
0000
,  // measure 2
0000
0000
0000
0000
,  // measure 3
0000
0000
0000
0000
,  // measure 4
1000
0000
1000
0000
,  // measure 5
0001
0000
0001
0000
,  // measure 6
0100
0000
0100
0000
,  // measure 7
0010
0000
0010
0000
,  // measure 8
2002
0000
3003
0000
,  // measure 9
0000
0000
0000
0000
,  // measure 10
0001
0000
0100
0000
,  // measure 11
0001
0000
0100
0000
,  // measure 12
1000
0000
0010
0000
,  // measure 13
1000
0000
0010
0000
,  // measure 14
0001
0000
0100
0000
,  // measure 15
0001
0000
0100
0000
,  // measure 16
1000
0000
1000
0000
,  // measure 17
0001
0001
0001
0000
,  // measure 18
1000
0000
1000
0000
,  // measure 19
1000
0000
1000
0000
,  // measure 20
0001
0000
0001
0000
,  // measure 21
0001
0000
0001
0000
,  // measure 22
1000
0000
0100
0000
,  // measure 23
1000
0000
0100
0000
,  // measure 24
0001
0001
0001
0000
,  // measure 25
1000
0000
1000
0000
,  // measure 26
1001
0000
0000
0000
,  // measure 27
0100
0000
0000
0000
,  // measure 28
0010
0000
0000
0000
,  // measure 29
1000
0000
0000
0000
,  // measure 30
0001
0000
0000
0000
,  // measure 31
0100
0000
0000
0000
,  // measure 32
0010
0000
1000
0000
,  // measure 33
0001
0000
0100
0000
,  // measure 34
1001
0000
0000
0000
,  // measure 35
0100
0000
0000
0000
,  // measure 36
0001
0000
0001
0000
,  // measure 37
1000
0000
0000
0000
,  // measure 38
0001
0000
0000
0000
,  // measure 39
0100
0000
0000
0000
,  // measure 40
0001
0000
0001
0000
,  // measure 41
0100
0000
0100
0000
,  // measure 42
1000
0000
1000
0000
,  // measure 43
0001
0000
0001
0000
,  // measure 44
1000
0000
1000
0000
,  // measure 45
0100
0000
0100
0000
,  // measure 46
0001
0000
0001
0000
,  // measure 47
1000
0000
1000
0000
,  // measure 48
0100
0000
0100
0000
,  // measure 49
0011
0000
1001
0000
,  // measure 50
0110
0000
0100
0000
,  // measure 51
0010
0000
0010
0000
,  // measure 52
0100
0000
0100
0000
,  // measure 53
0010
0000
0010
0000
,  // measure 54
0110
0000
0000
0000
,  // measure 55
0011
0000
0000
0000
,  // measure 56
1001
0000
0000
0000
,  // measure 57
1001
0000
0000
0000
,  // measure 58
1001
0000
0000
0000
;
