#VERSION:0.81;
#TITLE:防人ノート;
#SUBTITLE:;
#ARTIST:onoken feat.夏川陽子;
#TITLETRANSLIT:Sakimori note;
#SUBTITLETRANSLIT:;
#ARTISTTRANSLIT:onoken feat.Yoko Natsukawa;
#GENRE:;
#ORIGIN:;
#CREDIT:;
#BANNER:[Mash-up] - Sakimori note.png;
#BACKGROUND:[Mash-up] - Sakimori note-bg.png;
#PREVIEWVID:;
#JACKET:[Mash-up] - Sakimori note-jacket.png;
#CDIMAGE:;
#DISCIMAGE:;
#LYRICSPATH:[Mash-up] - Sakimori note.lrc;
#CDTITLE:cdtitle.png;
#MUSIC:[Mash-up] - Sakimori note.mp3;
#OFFSET:-0.407639;
#SAMPLESTART:88.626175;
#SAMPLELENGTH:11.294000;
#SELECTABLE:YES;
#BPMS:0.000=170.000;
#STOPS:;
#DELAYS:;
#WARPS:;
#TIMESIGNATURES:0.000=4=4,
96.000=2=4,
98.000=4=4;
#TICKCOUNTS:0.000=4;
#COMBOS:0.000=1;
#SPEEDS:0.000=1.000=0.000=0;
#SCROLLS:0.000=1.000;
#FAKES:;
#LABELS:0.000=Song Start;
#BGCHANGES:;
#KEYSOUNDS:;
#ATTACKS:
;

//---------------dance-single - ----------------
#NOTEDATA:;
#CHARTNAME:;
#STEPSTYPE:dance-single;
#DESCRIPTION:;
#CHARTSTYLE:;
#DIFFICULTY:Hard;
#METER:8;
#RADARVALUES:0.553564,0.549636,0.385853,0.558256,0.016419,357.000000,47.000000,68.000000,0.000000,0.000000,0.000000,0.000000,0.000000,0.553564,0.549636,0.385853,0.558256,0.016419,357.000000,47.000000,68.000000,0.000000,0.000000,0.000000,0.000000,0.000000;
#CREDIT:;
#NOTES:
0000
0000
0000
0000
,
0000
0000
0000
0000
,
0000
0000
0000
0000
,
0000
0000
0000
0000
,
0000
0001
0000
0000
1000
0000
0000
0100
,
0000
0000
1000
0000
0000
0010
0000
0000
,
0000
0100
0000
0000
0001
0000
0000
1000
,
0000
0000
0100
0000
0000
0010
0000
0000
,
0002
0000
2003
0000
,
3020
0000
0000
0130
0010
0100
0020
0000
,
2030
0000
3002
0000
,
0203
0000
0320
0000
,
2030
0000
3002
0000
,
0023
0000
0000
0130
0010
0100
0010
0100
,
2000
0000
3200
0000
,
0320
0000
0000
0030
,
1001
1001
0000
0020
0030
0000
0000
0000
,
0000
0000
0000
0000
0000
0000
0000
0000
0000
0000
0000
0000
0000
0000
1000
0001
,
1000
1001
0000
0000
0020
0000
0030
0000
,
0200
0300
0020
0030
,
1001
1001
0010
0100
0010
1001
0000
0000
,
0000
0000
0000
0001
0010
0100
1000
0010
,
1001
1001
0100
0010
0100
1001
0000
0001
,
0000
0000
0000
1000
0010
0100
0002
0000
,
0020
0033
2200
3300
,
1000
0000
0000
0010
0000
0000
0110
0000
0000
0000
0100
0000
0000
0000
0001
0000
,
0010
0001
0100
0000
0002
2000
3003
0000
,
1000
0000
0000
0100
0000
0000
0110
0000
0000
0000
0010
0000
0001
0000
1000
0000
,
0001
0000
0000
0100
0000
0000
0010
0000
2000
0000
0002
0000
3003
0000
0000
0000
,
0001
0010
0100
1000
0000
0001
1000
0010
,
1000
0001
0100
0010
1000
0100
0010
0001
,
0100
0010
0100
0001
0000
0101
0000
1001
,
0000
1100
0000
0110
0001
0000
1000
0010
,
0100
0000
1000
0100
0020
0000
2030
0000
,
3002
0000
0003
1000
0100
0000
1000
0001
,
0100
0001
1000
0010
0200
0000
0302
0000
,
0023
0000
0230
0000
1300
0000
0001
0010
,
0100
0000
0001
0100
0020
0000
0032
0000
,
2003
0000
3000
0010
0100
0000
0001
1000
,
0100
1000
0001
0000
0011
0000
0000
1001
,
0000
0000
1100
0000
1001
0000
1000
0001
,
0100
0010
0000
1010
0000
1001
0000
0011
,
0000
0010
0100
0000
1000
0001
0010
1000
,
0001
0100
1000
0010
0000
0110
0000
1001
,
0000
0001
1000
0000
1001
0000
1000
0020
,
0000
0130
0000
0101
0000
1001
0000
1100
,
0000
1000
0001
0010
0200
0000
2300
0000
,
3002
0000
0103
0020
0000
0230
0000
0301
,
2000
0000
3100
0010
0001
1000
0001
1000
,
0100
0010
0100
0010
0001
1000
0001
1000
,
0010
0100
0010
0100
0020
0000
0000
0000
,
1000
0000
2030
0000
,
0001
0000
3002
0000
,
0100
0000
0203
0000
,
0310
1000
0100
0010
0001
0000
0000
0000
,
0101
0000
0000
0001
0000
0000
0000
1000
,
1100
0000
0000
0000
0001
0001
0000
0000
,
0110
0000
0000
1000
0000
0000
0000
0001
,
0010
0100
1000
0000
1001
0000
1000
0100
,
0010
0000
0100
0010
0001
1000
0010
0100
,
0020
0000
0030
1000
0001
0010
0001
0010
,
0100
1000
0100
1000
0200
0000
0000
0000
,
0020
0000
0330
0000
0001
1000
1100
0000
,
1000
0001
0101
0000
0001
1000
0100
0001
,
0200
0000
1300
0000
0010
0100
0110
0000
,
0001
0010
0100
1000
0200
0000
0320
0000
,
0230
0000
0300
0000
1000
0001
0011
0000
,
0001
1000
1010
0000
1000
0001
0100
1000
,
0200
0000
0301
0100
0020
0000
2030
0000
,
3002
0000
0013
0020
0000
0031
0001
1000
,
0010
0100
0010
0100
0010
0000
1001
0000
,
0000
0110
0000
0000
1001
0000
0001
0000
,
0010
0000
0100
0010
0001
0000
0011
0000
,
0000
1001
0000
0000
1010
0000
0010
0000
,
1000
0000
0001
0000
0010
0001
0011
0000
,
0001
1000
1001
0000
1000
0010
0100
0001
,
0020
0000
0130
0010
0002
0000
2003
0000
,
3020
0000
0130
0200
0000
0302
0000
1003
,
0200
0000
1300
0100
0010
0100
1000
0001
,
0100
0010
0100
0001
1000
0010
0100
0001
,
0010
0100
1000
0001
0100
0000
2002
0000
,
0000
0000
0000
0000
,
0000
0000
0000
0000
,
0000
0000
0000
0000
0000
0000
0000
0000
0000
0000
0000
3003
0000
0000
0000
0000
;

//---------------dance-single - ----------------
#NOTEDATA:;
#CHARTNAME:;
#STEPSTYPE:dance-single;
#DESCRIPTION:;
#CHARTSTYLE:;
#DIFFICULTY:Medium;
#METER:7;
#RADARVALUES:0.405791,0.515283,0.246289,0.295547,0.008210,280.000000,30.000000,36.000000,0.000000,0.000000,0.000000,0.000000,0.000000,0.405791,0.515283,0.246289,0.295547,0.008210,280.000000,30.000000,36.000000,0.000000,0.000000,0.000000,0.000000,0.000000;
#CREDIT:;
#NOTES:
0000
0000
0000
0000
,
0000
0000
0000
0000
,
0000
0000
0000
0000
,
0000
0000
0000
0000
,
1000
0000
0000
0001
,
0000
0000
0000
0100
,
0000
0010
0000
0100
,
0000
0000
0000
0000
,
0002
0000
2003
0000
,
3200
0000
1300
0001
,
0200
0000
0000
0300
,
0200
0300
0002
0003
,
2000
0000
3002
0000
,
0023
0000
0031
1000
,
0020
0000
2030
0000
,
0002
0000
0000
3003
,
1001
1001
0000
0000
0000
0000
0000
0000
,
0000
0000
0000
0000
,
1001
1001
0000
0000
0000
0000
0000
0000
,
0000
0000
0000
0000
,
1000
1000
0001
0000
0000
1001
0000
0000
,
0000
0000
0000
1000
0001
0100
0001
1000
,
0001
0001
1000
0000
0000
1001
0000
0000
,
0000
0000
0000
0001
1000
0100
2000
0000
,
3002
0003
0200
0300
,
0100
0000
0000
0100
0000
0000
0100
0000
0000
0000
0000
0000
0001
0000
0000
0000
,
0000
1000
0200
0300
,
0100
0000
0000
0100
0000
0000
0100
0000
0000
0000
0000
0000
1000
0000
0000
0000
,
0010
0100
0002
0003
,
1000
0100
1000
0100
0000
0000
1000
0000
,
0000
0001
2000
3000
,
0000
1001
0000
0001
0000
0010
0000
0100
,
0000
1000
0000
0001
0100
0000
0010
1000
,
0010
0000
0100
0001
0100
0000
0001
0000
,
1000
0000
0000
0000
0002
0000
1003
0100
,
1000
0100
1000
0000
0001
0000
0100
0000
,
0010
0000
1000
0000
0001
0000
1000
0010
,
1000
0000
0001
0100
0001
0000
1000
0000
,
0100
0000
2000
0000
,
3001
0000
0100
0000
0110
0000
0000
0110
,
0000
0110
1001
1000
,
0001
0000
0000
0010
0000
0010
0000
0010
,
0000
0001
1000
0000
0000
0010
0000
0000
,
0010
0000
0000
0100
0000
0010
0000
0010
,
0000
1000
0001
0000
0100
0000
0100
0001
,
0000
1000
0000
0001
0000
0010
0000
0100
,
0000
1000
0020
0100
,
0100
0130
2000
0001
,
0001
0000
3001
1000
0001
1000
0001
1000
,
0010
0100
0010
0100
0001
1000
0001
1000
,
0010
0100
0010
0100
0010
0000
0000
0000
,
0000
0000
0000
0000
,
0000
0000
0000
0000
,
0000
0000
0000
0000
1000
0100
1000
0000
,
0001
0100
0001
0000
1000
0000
0000
0000
,
0101
0000
0000
1000
0000
0000
0000
0001
,
0100
0000
0000
0000
0001
0001
0000
0000
,
1100
0000
0000
0001
0000
0000
0000
1000
,
0100
1000
0100
0000
1100
0000
1001
0000
,
1100
1001
0101
1001
,
0101
0000
1001
0000
1000
0001
1000
0001
,
1000
0001
1000
0001
0200
0000
0000
0000
,
0020
0000
0330
0000
0010
1000
0100
0000
,
0010
0001
0100
0000
0001
1000
0001
1000
,
0100
0000
0100
0000
1000
0001
0100
0000
,
0020
2030
3002
0023
,
0230
0000
0300
0000
1000
0001
0100
0000
,
0001
1000
0100
0000
0010
0001
0010
0001
,
1000
0010
0200
0302
,
2003
0000
3000
0010
0000
0000
0010
0000
,
0110
0110
0000
1001
,
0000
0110
0000
0000
1001
0000
1000
0000
,
0001
0100
0000
0110
,
0000
1001
0000
0000
0110
0000
0001
0000
,
1000
0000
0001
0000
0100
0001
0010
0000
,
0100
1000
0010
0000
0100
0001
0100
0001
,
1000
0000
0010
0100
0020
0000
1000
0000
,
1000
1030
0200
0001
,
0001
0000
0301
1000
0001
1000
0001
1000
,
0010
0100
0010
0100
0001
1000
0001
1000
,
0100
0010
0100
0010
0000
0000
2002
0000
,
0000
0000
0000
0000
,
0000
0000
0000
0000
,
0000
0000
0000
0000
0000
0000
0000
0000
0000
0000
0000
3003
0000
0000
0000
0000
;

//---------------dance-single - ----------------
#NOTEDATA:;
#CHARTNAME:;
#STEPSTYPE:dance-single;
#DESCRIPTION:;
#CHARTSTYLE:;
#DIFFICULTY:Easy;
#METER:5;
#RADARVALUES:0.306102,0.480931,0.254499,0.197031,0.000000,206.000000,31.000000,24.000000,0.000000,0.000000,0.000000,0.000000,0.000000,0.306102,0.480931,0.254499,0.197031,0.000000,206.000000,31.000000,24.000000,0.000000,0.000000,0.000000,0.000000,0.000000;
#CREDIT:;
#NOTES:
0000
0000
0000
0000
,
0000
0000
0000
0000
,
0000
0000
0000
0000
,
0000
0000
0000
0000
,
1000
0000
0000
0000
,
0000
0000
0000
0001
,
0000
0000
0000
0000
,
0000
0000
0000
0000
,
2000
3000
0002
0003
,
0200
0300
0020
0030
,
0200
0000
0000
0000
,
0300
0000
0000
0000
,
0002
0003
2000
3000
,
0200
0300
0020
0030
,
0200
0300
2000
3000
,
0002
0000
0003
0000
,
0100
0100
0000
0000
0000
0000
0000
0000
,
0000
0000
0000
0000
,
0100
0100
0000
0000
0000
0000
0000
0000
,
0000
0000
0000
0000
,
0001
0001
0000
0000
0000
0000
0000
0000
,
0000
0000
0000
0000
,
1000
1000
0000
0000
0000
0000
0000
0000
,
0000
0000
0000
0000
,
2002
3003
1000
0000
,
0100
0000
0000
1000
,
0001
0100
0001
0000
,
0010
0000
0001
1000
,
0010
1000
0100
0000
,
2000
3000
0001
0100
,
0010
0100
0001
0010
,
0100
0010
0001
1000
,
0001
1000
0010
0110
,
0010
0110
1000
0001
,
1000
0000
0100
0110
,
0100
0110
0001
1000
,
0100
0010
0001
1001
,
1000
1001
0001
0100
,
0020
0030
2000
3000
,
0002
0003
0200
0300
,
0020
0030
1001
0000
,
0110
0000
0001
0001
,
0001
0000
1000
0000
,
0100
0000
1000
0001
,
0100
0000
0110
0000
,
1001
0000
1000
1000
,
1000
0000
0001
0010
,
0100
1000
0001
0010
,
0100
1000
0001
0100
,
0010
1000
0001
0100
,
0010
1000
1001
0000
,
0000
0000
0000
0000
,
0000
0000
0000
0000
,
0000
0000
0001
1000
,
0010
0100
0001
0000
,
1000
0000
0100
0100
,
0100
0000
1000
0000
,
0001
0000
0010
0010
,
0010
0010
1001
1001
,
0110
0110
1001
1001
,
0110
0110
0001
1000
,
0010
0100
0002
0000
,
2000
3003
0001
1001
,
0001
1001
1000
0001
,
0010
0100
1000
1001
,
1000
0010
0100
0100
,
0100
0000
0001
1001
,
0001
1001
1000
0010
,
0100
0001
1000
0001
,
0010
0100
1000
1000
,
1000
0000
0010
0110
,
0010
0110
1000
0001
,
0010
0100
0100
0110
,
0001
1000
0010
0010
,
0010
0010
1000
1001
,
1000
1001
0001
0010
,
0100
1000
0001
0100
,
0010
0100
0001
0010
,
0100
0010
0001
1000
,
0010
0100
0010
1000
,
0100
0010
0000
2002
,
0000
0000
0000
0000
,
0000
0000
0000
0000
,
0000
0000
0000
0000
0000
0000
0000
0000
0000
0000
0000
3003
0000
0000
0000
0000
;

//---------------dance-single - ----------------
#NOTEDATA:;
#CHARTNAME:;
#STEPSTYPE:dance-single;
#DESCRIPTION:;
#CHARTSTYLE:;
#DIFFICULTY:Beginner;
#METER:2;
#RADARVALUES:0.100861,0.099439,0.041048,0.000000,0.000000,81.000000,5.000000,0.000000,0.000000,0.000000,0.000000,0.000000,0.000000,0.100861,0.099439,0.041048,0.000000,0.000000,81.000000,5.000000,0.000000,0.000000,0.000000,0.000000,0.000000,0.000000;
#CREDIT:;
#NOTES:
0000
0000
0000
0000
,
0000
0000
0000
0000
,
0000
0000
0000
0000
,
0000
0000
0000
0000
,
1000
0000
0000
0000
,
0000
0000
0000
0000
,
0001
0000
0000
0000
,
0000
0000
0000
0000
,
0100
0000
0000
0000
,
0100
0000
0000
0000
,
0100
0000
0000
0000
,
0000
0000
0000
0000
,
0010
0000
0000
0000
,
0010
0000
0000
0000
,
0010
0000
0000
0000
,
0000
0000
0000
0000
,
1001
0000
0000
0000
,
0000
0000
0000
0000
,
1001
0000
0000
0000
,
0000
0000
0000
0000
,
1001
0000
0000
0000
,
0000
0000
0000
0000
,
1001
0000
0000
0000
,
0000
0000
0000
0000
,
0000
0000
1000
0000
,
1000
0000
0000
0000
,
0000
0000
0001
0000
,
0001
0000
0000
0000
,
0000
0000
0100
0000
,
0100
0000
0000
0000
,
0000
0000
0010
0000
,
0010
0000
0000
0000
,
0000
0000
1000
0000
,
0000
0000
0001
0000
,
0000
0000
0100
0000
,
0100
0000
0100
0000
,
0000
0000
0001
0000
,
0000
0000
1000
0000
,
0000
0000
0100
0000
,
0100
0000
0100
0000
,
0000
0000
1000
0000
,
1000
0000
1000
0000
,
0000
0000
0001
0000
,
0001
0000
0001
0000
,
0000
0000
0100
0000
,
0100
0000
0100
0000
,
0000
0000
0010
0000
,
0010
0000
0010
0000
,
0000
0000
0010
0000
,
0010
0000
0010
0000
,
0000
0000
0000
0000
,
0000
0000
0000
0000
,
0000
0000
0000
0000
,
0000
0000
0000
0000
,
0000
0000
1000
0000
,
0000
0000
0001
0000
,
0000
0000
0010
0000
,
0000
0000
0100
0000
,
0000
0000
1000
0000
,
0000
0000
0010
0000
,
0000
0000
0100
0000
,
0000
0000
0001
0000
,
0000
0000
1000
0000
,
1000
0000
1000
0000
,
0000
0000
0001
0000
,
0001
0000
0001
0000
,
0000
0000
0100
0000
,
0100
0000
0100
0000
,
0000
0000
0010
0000
,
0010
0000
0010
0000
,
0000
0000
0100
0000
,
0100
0000
0100
0000
,
0000
0000
0001
0000
,
0001
0000
0001
0000
,
0000
0000
1000
0000
,
1000
0000
1000
0000
,
0000
0000
0010
0000
,
0010
0000
0010
0000
,
0000
0000
0010
0000
,
0010
0000
0010
0000
,
0000
0000
0000
1001
;
