#VERSION:0.81;
#TITLE:ローリン融解;
#SUBTITLE:;
#ARTIST:Mashup by Nise;
#TITLETRANSLIT:Rolling Meltdown;
#SUBTITLETRANSLIT:;
#ARTISTTRANSLIT:;
#GENRE:;
#ORIGIN:;
#CREDIT:vincentw;
#BANNER:[Mash-up] - Rolling Meltdown.png;
#BACKGROUND:[Mash-up] - Rolling Meltdown-bg.png;
#PREVIEWVID:;
#JACKET:[Mash-up] - Rolling Meltdown-jacket.png;
#CDIMAGE:;
#DISCIMAGE:;
#LYRICSPATH:;
#CDTITLE:cdtitle.png;
#MUSIC:[Mash-up] - Rolling Meltdown.ogg;
#OFFSET:-0.324000;
#SAMPLESTART:80.324013;
#SAMPLELENGTH:19.692307;
#SELECTABLE:YES;
#DISPLAYBPM:97.500000:195.000000;
#BPMS:0.000=97.500,
16.000=195.000,
188.000=130.000,
188.333=260.000,
189.000=195.000,
193.000=390.000,
194.000=195.000,
202.000=130.000,
202.333=260.000,
203.000=130.000,
203.333=260.000,
204.000=195.000,
207.500=390.000,
209.500=97.500,
210.000=195.000,
239.750=414.375,
244.000=195.000,
312.000=97.500,
312.250=195.000,
327.750=97.500,
328.000=195.000,
365.000=97.500;
#STOPS:80.000=0.077,
80.250=0.077,
80.500=0.077,
80.750=0.077,
81.000=0.307,
192.500=0.039,
192.625=0.038,
192.750=0.039,
192.875=0.038,
207.000=0.039,
207.125=0.038,
207.250=0.039,
207.375=0.038,
239.500=0.039,
239.625=0.038,
312.250=0.077,
312.500=0.077,
312.750=0.077,
326.000=0.077,
326.250=0.077,
326.500=0.076,
326.750=0.077,
327.000=0.077,
327.250=0.077,
327.500=0.038,
327.625=0.039,
329.000=0.077,
329.250=0.077,
329.500=0.077,
329.750=0.077,
330.000=0.077,
330.250=0.077,
330.500=0.077,
330.750=0.077,
331.000=0.039,
331.125=0.038,
331.250=0.077,
331.500=0.077,
331.750=0.077,
332.000=0.038,
332.125=0.039,
332.250=0.077,
332.500=0.038,
332.625=0.039,
332.750=0.076;
#DELAYS:;
#WARPS:;
#TIMESIGNATURES:0.000=4=4,
80.000=2=4,
82.000=4=4,
238.000=6=4,
244.000=4=4,
312.000=3=4,
315.000=4=4,
323.000=7=8,
326.500=5=8,
329.000=2=4,
333.000=4=4;
#TICKCOUNTS:0.000=4;
#COMBOS:0.000=1;
#SPEEDS:0.000=1.000=0.000=0;
#SCROLLS:0.000=1.000,
193.000=0.660,
194.000=1.000,
207.500=1.200,
208.000=0.800,
208.500=0.600,
209.000=0.400,
209.500=1.000,
308.000=1.250,
333.000=1.500,
365.000=1.000;
#FAKES:;
#LABELS:0.000=Song Start;
#BGCHANGES:#BGCHANGES:0.000=[Mash-up] - Rolling Meltdown-bg.png=1.000=0=0=1=====,
99999=-nosongbg-=1.000=0=0=0 // don't automatically add -songbackground-
;
#KEYSOUNDS:;
#ATTACKS:
;

//---------------dance-single - ----------------
#NOTEDATA:;
#CHARTNAME:;
#STEPSTYPE:dance-single;
#DESCRIPTION:;
#CHARTSTYLE:;
#DIFFICULTY:Beginner;
#METER:2;
#RADARVALUES:0.135352,0.221540,0.031848,0.071657,0.000000,106.000000,4.000000,9.000000,0.000000,0.000000,0.000000,0.000000,0.000000,0.135352,0.221540,0.031848,0.071657,0.000000,106.000000,4.000000,9.000000,0.000000,0.000000,0.000000,0.000000,0.000000;
#CREDIT:;
#DISPLAYBPM:97.500000:195.000000;
#NOTES:
0000
0000
0000
0000
,
0000
0000
0000
0000
,
0000
0000
0000
0000
,
0000
0000
0000
0000
,
0000
0000
0000
0000
,
1000
0000
0000
0000
,
0000
0000
0000
0000
,
0001
0000
0000
0000
,
0000
0000
0000
0000
,
0100
0000
0000
0000
,
0000
0000
0000
0000
,
0010
0000
0000
0000
,
0000
0000
0000
0000
,
1000
0000
0000
0000
,
1000
0000
0000
0000
,
0001
0000
0000
0000
,
0001
0000
0000
0000
,
0010
0000
0000
0000
,
0010
0000
0000
0000
,
0100
0000
0000
0000
,
0200
0000
0300
0000
,
0000
0000
1000
0000
,
0000
0000
0001
0000
,
0000
0000
0000
0000
,
0000
0000
1000
0000
,
0000
0000
0001
0000
,
0000
0000
0010
0000
,
0000
0000
0000
0000
,
0000
0000
0100
0000
,
0000
0000
0010
0000
,
0000
0000
0001
0000
,
0000
0000
0000
0000
,
0000
0000
0100
0000
,
0000
0000
0010
0000
,
0000
0000
0100
0000
,
0000
0000
0010
0000
,
0000
0000
1000
0000
,
0000
0000
0001
0000
,
0000
0000
1000
0000
,
0000
0000
0001
0000
,
0001
0000
0100
0000
,
0000
0000
0010
0000
,
0000
0000
0100
0000
,
0000
0000
0010
0000
,
0010
0000
1000
0000
,
0000
0000
0010
0000
,
0000
0000
1000
0000
,
0010
0000
1000
0000
,
0020
0000
0030
0000
,
0100
0000
0010
0000
,
0100
0000
0002
0000
,
0003
0000
0200
0000
,
0000
0000
0300
0000
,
0001
0000
0010
0000
,
0000
0000
0010
0000
,
0001
0000
1000
0000
,
0000
0000
0001
0000
,
1000
0000
0001
0000
,
1000
0000
0010
0000
,
0000
0000
0200
0000
,
0000
0000
0000
0000
,
0300
0000
0100
0000
,
0010
0000
0010
0000
,
0100
0000
0010
0000
,
0100
0000
0000
0000
,
0001
0000
0001
0000
,
1000
0000
1000
0000
,
0001
0000
1000
0000
,
0001
0000
0000
0000
,
1000
0000
1000
0000
,
0100
0000
0100
0000
,
1000
0000
0100
0000
,
1000
0000
0000
0000
,
0001
0000
0001
0000
,
0010
0000
0010
0000
,
0001
0000
0010
0000
,
0001
0000
0000
0000
,
1000
0000
1000
0000
,
0010
0010
0000
1000
,
0000
0010
0000
1000
,
0000
0000
0000
0001
,
0000
0200
0000
0000
,
0300
0002
0000
0000
,
0003
1001
0000
0000
,
0000
0010
0000
0100
,
0000
0110
0000
0000
,
0000
1001
0000
0000
,
0000
1000
0000
0100
,
0000
0010
0000
0001
,
0000
1000
0000
0000
,
0000
0001
0000
1000
,
0000
2002
0000
0000
,
0000
0000
0000
3003
;

//---------------dance-single - ----------------
#NOTEDATA:;
#CHARTNAME:;
#STEPSTYPE:dance-single;
#DESCRIPTION:;
#CHARTSTYLE:;
#DIFFICULTY:Easy;
#METER:5;
#RADARVALUES:0.260468,0.369234,0.023886,0.127391,0.003981,210.000000,3.000000,16.000000,0.000000,0.000000,0.000000,0.000000,0.000000,0.260468,0.369234,0.023886,0.127391,0.003981,210.000000,3.000000,16.000000,0.000000,0.000000,0.000000,0.000000,0.000000;
#CREDIT:;
#DISPLAYBPM:97.500000:195.000000;
#NOTES:
0000
0000
0000
0000
,
0000
0000
0000
0000
,
0000
0000
0000
0000
,
0000
0000
0000
0000
,
0000
0000
0000
0000
,
1000
0000
1000
0000
,
0001
0000
0001
0000
,
1000
0000
0001
0000
,
1000
0000
1000
0000
,
0010
0000
0010
0000
,
0100
0000
0100
0000
,
0010
0000
0100
0000
,
0010
0000
0010
0000
,
1000
0000
0010
0000
,
0100
0000
0001
0000
,
1000
0000
0100
0000
,
0010
0000
0001
0000
,
1000
0000
0001
0000
,
1000
0000
0010
0000
,
0100
0000
0001
0000
,
0010
0010
0100
0000
,
0100
0000
2000
0000
,
0000
0000
3001
0000
,
0001
0000
0020
0000
,
0000
0000
0130
0000
,
0100
0000
1000
0000
,
1000
0000
0010
0000
,
0010
0000
0200
0000
,
0000
0000
0301
0000
,
0010
0000
0001
0000
,
1000
0000
0010
0000
,
1000
0000
0100
0000
,
0000
0000
0010
0000
,
0100
0000
0020
0000
,
0030
0000
0001
0000
,
1000
0000
0002
0000
,
0000
0000
1003
0000
,
0100
0000
1000
0000
,
1000
0000
0001
0000
,
0100
0000
0001
0000
,
0001
0000
1000
0000
,
0010
0000
0100
0000
,
0100
0000
0001
0000
,
0010
0000
0100
0000
,
0100
0000
1000
0000
,
0100
0000
2000
0000
,
0000
3000
0010
0000
,
0010
0000
0100
0000
,
0100
0000
0010
0000
,
0100
0000
0001
0000
,
0010
0000
0100
0100
,
0100
0000
0000
0000
1000
0000
0000
2000
,
0000
0000
3010
0010
,
0010
0000
0100
0100
,
0100
0000
0001
0000
,
1000
0000
0001
1000
,
0001
0000
0010
0000
,
0100
0000
0010
0000
,
0100
0000
0010
0100
,
0010
0000
0000
0000
0100
0000
0000
0000
0010
0000
0000
0000
0001
0000
0000
2000
,
0000
0000
0000
0000
,
3010
0000
1000
0000
0010
0000
0000
1000
,
0000
1000
0001
0000
,
0010
0010
0100
0010
,
0100
0000
1000
0000
,
0001
0000
1000
0000
0001
0000
0000
1000
,
0000
1000
0010
0000
,
1000
0100
0010
0001
,
0010
0100
1000
0000
,
1001
0000
0010
0100
,
0110
0000
1000
0010
,
1000
0100
1000
0000
,
0001
0100
0001
0010
,
0001
0000
1000
0000
,
0010
0000
0100
0000
,
0001
0001
0010
0010
,
0100
0100
1000
1000
,
0001
1000
0010
1000
,
0001
0010
0001
0000
1000
0000
0100
0000
,
0010
0100
1000
0001
,
0100
0010
0000
1000
,
0100
0000
1000
0000
0100
1000
0001
0100
,
0000
0000
0010
0100
0010
0100
0010
1000
,
0001
1000
0010
0000
0000
0000
0100
0000
,
0000
0001
0000
0010
,
0000
0100
0100
1000
,
0000
0001
0001
1000
,
0000
0020
0000
0230
,
0000
0302
0000
2003
,
0000
3020
0000
0000
,
0000
2030
0000
0001
,
3000
2002
0000
0000
,
0000
0000
0000
3003
;

//---------------dance-single - ----------------
#NOTEDATA:;
#CHARTNAME:;
#STEPSTYPE:dance-single;
#DESCRIPTION:;
#CHARTSTYLE:;
#DIFFICULTY:Medium;
#METER:8;
#RADARVALUES:0.473165,0.590774,0.191086,0.326438,0.035829,351.000000,24.000000,41.000000,0.000000,0.000000,0.000000,0.000000,0.000000,0.473165,0.590774,0.191086,0.326438,0.035829,351.000000,24.000000,41.000000,0.000000,0.000000,0.000000,0.000000,0.000000;
#CREDIT:;
#DISPLAYBPM:97.500000:195.000000;
#NOTES:
0000
0000
0000
0000
,
0000
0000
0000
0000
,
0000
0000
0000
0000
,
0000
0000
0000
0000
,
0000
0000
0000
0000
,
1000
0100
1000
0010
,
1000
0100
1000
0000
,
0001
0100
0001
0010
,
0001
1000
0001
0000
,
1000
0010
1000
0010
,
1000
0001
0010
0000
,
0100
1000
0100
0001
,
0100
0010
0001
0000
,
1000
0000
0001
0000
1000
0001
0000
1000
,
0000
0001
0000
1000
0001
0000
0000
0000
,
1000
0000
0010
0000
1000
0010
0000
1000
,
0000
0010
0000
1000
0010
0000
0000
0000
,
0100
0000
0001
0000
0100
0001
0000
0010
,
0000
0100
0000
0010
0100
0000
0000
0000
,
0010
0000
0001
0000
0010
0001
0000
1000
,
0000
0100
0000
1000
0010
0000
0000
0000
1000
0000
0000
0000
0000
0000
0000
0000
,
0020
0000
0230
0000
,
0000
0301
0010
0100
,
0010
0001
0000
2000
0000
0000
0000
0000
,
3000
0010
1000
0000
,
0002
0000
0023
0000
,
0031
1000
0010
1000
,
0001
0000
1000
0100
0000
1000
0100
0000
,
1000
0010
0100
1000
,
0100
0000
0001
0100
0000
0000
0010
0000
,
0100
0001
1000
0100
,
1000
0000
0010
1000
0000
0001
0010
0001
,
0000
0010
0100
0000
1000
0000
0010
0000
,
1000
0000
0001
0010
0000
0000
0100
0000
,
1000
0100
1000
0000
0001
0000
1000
0000
,
0010
0000
1000
0001
0000
1000
0010
1000
,
0000
0001
0010
0001
0020
0000
0030
0010
,
0200
0000
0300
0100
,
1000
0000
0001
0000
0020
0000
0030
0010
,
0002
0000
0003
0001
,
1000
0000
0010
0000
0200
0000
0300
0100
,
0002
0000
0003
0001
,
0010
0000
0100
0000
2000
0000
3000
1000
,
0002
0000
0000
0000
0003
0000
1000
0001
,
1000
0010
0100
0010
0100
0000
0000
0100
,
0001
0000
0000
0001
0010
0000
0010
0100
,
0010
0000
0100
1000
0100
0000
0000
0100
,
1000
0000
1000
0001
0000
0001
0100
0001
,
0000
0000
0010
0001
0010
0000
0000
0000
0100
0000
0000
0000
1000
0000
0001
0000
,
0100
0000
0001
1000
0100
0000
1000
0001
,
0010
0000
0000
0001
0000
0000
2000
0000
0000
0010
0000
0000
0000
0000
0010
0000
0000
0000
0000
0000
0010
0000
0000
0000
,
3000
0000
0010
0000
0100
0000
0001
0000
0010
0000
1000
0000
0010
0001
0000
0000
,
0000
0000
1000
0000
0000
0000
0001
1000
0010
0000
0000
0000
1000
0000
0000
0000
,
1010
0000
0000
0101
0000
0000
0001
0000
,
1001
0000
0000
1100
0000
0100
1000
0000
,
0010
1000
0001
0100
0000
0001
0010
0000
,
0001
1000
2002
3003
,
0220
0330
2020
3030
,
0202
0303
0022
0000
,
0033
0000
0000
0000
0001
0000
1000
0000
0100
0000
0010
0000
0100
0000
1000
0002
,
0000
0000
0000
0000
,
1003
0000
0010
0000
1000
0000
0000
0010
,
0000
1000
0010
0000
1000
0000
0000
0001
,
0000
0010
0001
0010
0100
0000
1000
0001
,
0000
1000
0001
0000
1000
0000
0001
0000
,
0010
0000
0001
1000
0001
0000
0000
1001
,
0000
0000
1000
0100
0010
0000
0000
0110
,
0000
0001
1000
0001
1000
0000
0001
0010
,
0000
1000
0000
0010
0001
0010
0000
0000
,
0001
0010
0100
1000
,
0010
0000
0100
0001
0000
1000
0000
0020
,
0000
0000
0000
0030
0000
1000
0100
0010
,
0001
0000
1000
0001
0000
0100
0000
0010
,
2000
0000
0000
3000
1000
0010
0001
0010
,
0100
0000
0001
1000
0000
0010
1000
0010
,
1000
0000
0010
1000
0000
0010
0000
0010
,
0100
0001
0010
0100
0001
0000
0100
0000
,
1001
0000
0000
0000
0000
0100
1000
0010
,
2000
0000
3100
1000
0010
1000
0000
0000
,
0001
0100
0001
0010
,
0100
1000
0100
0000
0010
0000
0220
0000
,
0000
0000
0000
0000
0000
0000
0000
0000
0000
0000
0000
0000
0000
0330
0000
0100
,
1000
0020
0000
0000
0000
0000
2030
0000
,
0000
3000
0001
0000
0010
0000
0011
0000
,
0000
1100
0000
0000
0100
0000
0110
0000
,
0000
1001
0000
0001
1000
0001
1000
0010
,
0100
0010
0000
1000
0010
0100
0001
0000
,
0010
0000
0102
0000
0000
0003
0021
0000
,
0000
0030
0210
0000
0000
0300
2100
0000
,
0000
3000
2002
0000
0000
0000
3000
0000
,
0100
0200
0000
0000
0303
0000
0001
0101
,
0000
2002
0000
0000
,
0000
0000
0000
3003
;

//---------------dance-single - ----------------
#NOTEDATA:;
#CHARTNAME:;
#STEPSTYPE:dance-single;
#DESCRIPTION:;
#CHARTSTYLE:;
#DIFFICULTY:Hard;
#METER:11;
#RADARVALUES:0.795054,1.000000,0.453829,0.294591,0.207010,605.000000,57.000000,37.000000,24.000000,0.000000,0.000000,0.000000,0.000000,0.795054,1.000000,0.453829,0.294591,0.207010,605.000000,57.000000,37.000000,24.000000,0.000000,0.000000,0.000000,0.000000;
#CREDIT:;
#DISPLAYBPM:97.500000:195.000000;
#NOTES:
0000
0000
0000
0000
,
0000
0000
0000
0000
,
0000
0000
0000
0000
,
0000
0000
0000
0000
,
1000
0000
0001
0000
0001
0000
0010
0100
0010
0000
0001
0000
0011
0000
0000
0000
,
1000
0000
0010
0000
1000
0010
0000
0100
,
0000
0001
0010
0000
0001
0000
1000
0000
,
0100
0000
1000
0000
0100
1000
0000
0001
,
0000
0010
1000
0000
0010
0000
0100
0000
,
0010
0000
0001
0000
0010
0001
0000
1000
,
0000
0100
0001
0000
0100
0000
0010
0000
,
0001
0000
0100
0000
0001
0100
0000
0010
,
0000
1000
0200
0000
2300
0000
3002
0000
,
0103
0000
0000
0000
0101
0000
0000
0000
1000
0000
0100
0000
1000
0100
1000
0000
,
0000
0000
0001
0000
0100
0000
0001
0000
1000
0000
0001
1000
0001
0000
1000
0010
,
1000
0000
0000
0000
1100
0000
0000
0000
0010
0000
1000
0000
0010
1000
0010
0000
,
0000
0100
1000
0100
0010
0100
0100
0000
,
0010
0000
0000
0000
1010
0000
0000
0000
0001
0000
0010
0000
0001
0010
0001
0000
,
0000
0000
1000
0000
0010
0000
1000
0000
0001
0000
1000
0001
1000
0000
0001
0100
,
0001
0000
0000
0000
0011
0000
0000
0000
0001
0000
1000
0000
0100
0010
0100
0000
,
1000
0000
0000
0000
0000
0000
0000
0000
0000
0000
0000
0000
1000
0000
0000
0000
0000
0000
0000
0000
0000
0000
0000
0000
0001
0000
0000
0000
0000
0000
0000
0000
0000
0000
0000
0000
0001
0000
0000
0000
0000
0000
0000
0000
0000
0000
0000
0000
2002
3003
0000
0000
0000
0000
0000
0000
0000
0000
0000
0000
0000
0000
0000
0000
0000
0000
0000
0000
0000
0000
0000
0000
0001
0000
0000
0000
0000
0000
0000
0000
0000
0000
0000
0000
0000
0000
0000
0000
0000
0000
0000
0000
0000
0000
0000
0000
1000
0000
0000
0000
0000
0000
0000
0000
0000
0000
0000
0000
0000
0000
0000
0000
0000
0000
0000
0000
0000
0000
0000
0000
0000
0000
0000
0000
0000
0000
0000
0000
0000
0000
0000
0000
0000
0000
0000
0000
0000
0000
0000
0000
0000
0000
0000
0000
0000
0000
0000
0000
0000
0000
0000
0000
0000
0000
0000
0000
0000
0000
0000
0000
0000
0000
0000
0000
0000
0000
0000
0000
0010
0000
0000
0000
0000
0000
0000
0000
0000
0000
0000
0000
0000
0000
0000
0000
0000
0000
0000
0000
0000
0000
0000
0000
,
0200
0000
0000
0301
0010
0100
1000
0001
,
0100
0010
1000
0100
0010
0000
0001
0100
,
0001
0010
0000
0011
0000
1000
0010
0100
,
0000
0000
0010
0100
0010
0000
1000
0100
1000
0000
0000
0000
0000
0000
0100
0000
,
0010
0100
0000
1000
0100
0010
0001
1000
,
0010
0100
0001
0020
0100
0000
0000
0130
,
1000
0100
0000
1100
0000
0001
0100
0010
,
0000
0000
0100
0010
0100
0000
0001
0010
0002
0000
0000
0000
0013
0000
1000
0000
,
0001
1000
0010
0002
0000
0000
0003
0000
,
2000
3100
0002
0103
2000
0000
3002
0000
,
0103
0001
0020
0200
0030
1300
0010
0001
,
0000
0010
1000
0010
0020
0000
0230
0001
,
0310
1000
0010
0200
0000
0000
0300
0000
,
1000
0001
0100
0001
2000
0000
3020
0000
,
0130
0001
0010
0001
0001
0010
0100
1000
,
1100
00M0
0M01
00M0
0100
0000
0001
0010
,
0010
0001
1000
0100
0100
1000
0010
1000
,
0000
00M1
M100
001M
1000
0000
0001
0000
,
0010
0001
0100
1000
0000
0100
0001
0010
,
0100
100M
0M10
M001
1000
0000
0100
0000
,
0010
1000
0100
0010
0010
0001
0100
0010
,
0000
100M
01M0
M001
0010
0000
0001
0000
,
0100
M010
0M01
01M0
0000
001M
1M00
00M1
,
MMM0
M001
0M01
00M1
1000
0100
0010
0100
,
1000
0001
1001
0000
0001
0010
0100
0010
,
0001
1000
1001
0000
1000
0001
0010
0100
,
0010
0001
1000
0100
0000
0100
1000
0010
,
0001
0000
0000
0000
0010
1000
0010
1000
0010
0000
0000
0000
0000
0000
0000
0000
1000
0000
0000
0000
0010
0000
0000
0000
0100
0000
0000
0000
0001
0000
0000
0000
,
0010
0100
0110
0000
0100
1000
0001
1000
,
0100
0000
0000
0010
0000
0000
0220
0000
0000
0000
0000
0000
0030
0000
0020
0000
0000
0000
0030
0000
0020
0000
0000
0000
,
0330
0000
0000
0000
0001
0000
0000
0000
0100
0000
0000
0000
1000
0000
0000
0000
1000
0000
0000
0000
0010
0000
0000
0000
0001
0010
0001
0010
2000
0000
0000
0000
,
0000
0000
0000
3001
1001
0000
1000
0001
,
0010
0001
1000
0010
0100
0001
1000
0100
,
0010
0100
0010
0000
0001
0000
0000
0000
0100
0000
0000
0000
0001
0000
1000
0000
,
0100
0000
1000
0000
0001
0000
0100
0000
0010
0000
1000
0000
0001
0010
0100
0000
,
0010
0100
1000
0000
0001
0010
0011
0000
,
1000
0010
1010
0000
1000
0100
1100
0000
,
0001
0100
0101
0000
0011
0010
0110
0100
,
1100
0000
0000
0000
1000
0000
0000
0000
1001
0000
0000
0000
0001
0000
0000
0000
0101
0000
0000
0000
0000
0000
0000
0000
1010
0000
0000
0000
0010
1000
0020
0000
,
0000
0000
0000
0000
0000
0000
0000
0000
0000
0000
0000
0000
0000
0000
0000
2000
0000
0000
0000
0000
0000
0000
0000
0000
0000
0000
3030
0000
0000
0000
0000
0000
,
1010
0000
0101
0000
1010
0000
0100
0001
,
0010
0001
0010
0100
1000
0001
0100
0002
,
0000
1003
0010
0001
0010
1000
0100
0001
,
0100
0010
0001
0100
0010
1000
0001
2000
,
0010
0000
3001
0010
0001
1000
0010
1000
,
0200
0000
0310
0001
1000
0010
0001
1000
,
0100
0001
1000
0100
0001
0100
1000
0001
,
0100
1000
0001
0010
1000
0100
1100
0000
,
1001
0000
0101
0000
0110
0000
1000
0010
,
0100
0001
1000
0001
0010
0100
0001
2000
,
0000
3010
0001
0100
0010
1000
0100
0001
,
1000
0000
0001
0000
0100
0000
1000
0000
0001
0000
1000
0000
0001
1000
0001
0000
,
2002
0000
0000
3003
0110
0010
1000
0100
,
1100
0000
1000
0010
1010
1000
0001
0100
,
0101
0000
0001
0010
0011
0001
0001
0001
,
0010
1000
0010
0001
0100
0000
0101
0000
,
1010
0000
1100
0000
0010
0001
1000
0001
,
0010
0100
0100
0100
1000
0000
0100
0000
0010
0000
0001
0000
1000
0000
0010
0000
,
0001
0000
0010
0100
0010
0000
1000
0000
0100
0000
0001
0000
0100
0000
1000
0000
,
1100
0100
0110
0010
0011
0000
1001
0000
,
1000
0000
0000
0000
0001
0000
0000
0000
1000
0000
0000
0000
0000
0000
0000
0000
0001
0000
1000
0000
0010
0000
1000
0000
0100
0000
0010
0000
0001
0010
0001
0000
,
1000
0000
0000
0000
2002
0000
0000
0000
3003
0000
0001
0000
1000
0000
0010
0000
1000
0000
0001
0000
0010
0000
0001
0000
1000
0100
1000
0000
0001
0000
0100
0000
,
0001
0100
0010
0000
1000
0001
1000
0000
1001
0000
0000
0000
0001
0000
0000
0000
0010
0000
0000
0000
0100
0000
0000
0000
0010
0000
0000
0000
0001
0000
0000
0000
,
0011
0000
1000
0010
0001
1000
0100
0001
,
0101
0000
1000
0001
0010
0001
0100
0010
,
1000
0000
0001
0000
0010
0000
0100
0000
1000
0000
0010
0000
0001
0000
0010
1000
,
0010
0000
0100
0001
0100
0000
0001
0000
0101
0000
0100
0000
0010
0000
0100
0000
,
0110
0010
1000
0010
1010
0010
1000
0100
,
1100
1000
0001
1000
1001
0001
0010
0001
,
0011
0000
0010
0000
0001
0000
1000
0001
0000
1000
0010
0000
1010
0000
0101
0000
,
1000
2002
0000
0000
,
0000
0000
0000
3003
;
