#TITLE:Mac n' Cheese;
#SUBTITLE:(live mashup);
#ARTIST:sssShawnnnn;
#TITLETRANSLIT:;
#SUBTITLETRANSLIT:;
#ARTISTTRANSLIT:;
#GENRE:hot dog;
#CREDIT:Loodee;
#BANNER:Mac n' Cheese-bn.png;
#BACKGROUND:Mac n' Cheese-bg.png;
#LYRICSPATH:;
#CDTITLE:loodeecdtitle.png;
#MUSIC:Mac n' Cheese.ogg;
#OFFSET:-0.279;
#SAMPLESTART:69.960;
#SAMPLELENGTH:17.461;
#SELECTABLE:YES;
#DISPLAYBPM:124.000;
#BPMS:0.000=124.000,76.000=62.000,76.250=124.000,76.500=248.000,77.000=62.000,77.250=124.000,77.500=248.000,78.000=124.000,80.000=62.000,80.250=124.000,80.500=248.000,81.000=124.000,83.500=186.000,83.750=93.000,84.000=62.000,84.250=124.000,84.500=248.000,85.000=124.000,90.000=248.000,91.000=124.000,141.500=-124.000,143.500=124.000,182.000=248.000,183.000=124.000,204.000=186.000,206.250=124.000,218.000=248.000,219.000=124.000;
#STOPS:90.000=0.030
,90.125=0.030
,90.250=0.030
,90.375=0.030
,90.500=0.031
,90.625=0.030
,90.750=0.030
,90.875=0.030
,182.000=0.120
,182.500=0.120
,204.000=0.040
,204.250=0.040
,204.500=0.041
,204.750=0.040
,205.000=0.040
,205.250=0.041
,205.500=0.020
,205.625=0.020
,205.750=0.020
,205.875=0.020
,206.000=0.021
,206.125=0.020
,218.000=0.242
;
#BGCHANGES:;
#KEYSOUNDS:;

//---------------dance-single - Loodee----------------
#NOTES:
     dance-single:
     Loodee:
     Challenge:
     12:
     0.823,0.888,0.360,0.648,0.965:
0000
0000
0000
0000
,
0000
0000
0000
0000
,
0000
0000
0000
0000
,
0000
0000
0000
0000
,
1000
0000
0000
0000
0100
M00M
0100
0000
0001
0000
0000
0000
0010
0000
1000
0000
0000
0000
0010
0000
0001
0000
0000
0000
1000
0000
0000
0000
0010
0000
0000
0000
,
M2MM
0000
0000
0000
0000
0000
0000
0000
0310
M00M
0010
0000
0001
0000
1000
0000
0000
0000
1000
0000
0010
0000
0000
0000
0100
0000
0001
0000
1000
0000
0000
0000
,
1000
0000
0000
0100
0010
0100
2000
0000
0000
3000
0001
0100
0001
0100
0010
1000
,
0001
0000
0000
0010
0000
0100
0010
0000
0002
0000
1003
0100
0010
0001
0010
0000
,
1100
0000
0000
0000
0100
M00M
0100
0000
0001
0000
0000
0000
0100
0000
1000
0000
0000
0000
0100
0000
0001
0000
0000
0000
0010
0000
0000
0000
0100
0000
0000
0000
,
2MMM
0000
0000
0000
3001
0010
0001
0010
0000
0010
0100
0000
1000
0000
0010
0000
,
0010
0000
0010
1000
0100
0010
0100
1000
,
1000
0000
0000
0000
0000
0000
0000
0000
0010
0000
0000
0000
0100
0000
0000
0000
0001
0000
0000
0000
0100
0000
0000
0000
0001
1000
0001
1000
0001
1000
0001
1000
,
0002
0000
0000
0003
0101
0000
0001
0010
0100
0000
1000
0000
1200
0000
0000
0000
,
0310
0001
1000
0100
1000
0010
0000
0000
0110
0000
0002
0000
0023
0000
0230
0000
,
2300
0000
0000
3001
0100
0010
0100
0001
0000
0000
1010
0000
1000
0000
0010
0000
,
2000
0000
3001
0010
0000
0100
0010
0000
0002
0000
1003
0010
0100
0001
0100
0000
,
2002
0000
0000
3003
1010
0000
1000
0100
0010
0000
0100
0000
0120
0000
0031
0000
,
0000
0000
0000
0000
1000
0000
0000
0000
0001
0000
0000
0000
0100
0000
0000
0000
0101
0000
0000
0000
0000
0000
0000
0000
0010
0000
0000
0000
0000
0000
0000
0000
1001
0000
0000
0000
0000
1000
0000
0000
0100
0000
0000
0000
0000
0000
0000
0000
0110
0000
0000
0000
0000
0000
0000
0000
0020
0000
0000
0000
0000
0000
0000
0000
,
0032
0000
0000
1003
0001
0100
0010
0100
0001
0000
1000
0000
1000
0100
0010
0001
,
0022
0000
0000
0033
2020
0000
0000
3030
0011
0000
0001
1000
1100
0000
0001
1000
,
0010
0000
0000
0000
2002
0000
0000
0000
0000
0000
0000
0000
0000
3003
0001
0000
,
0100
0000
0000
0000
0000
0000
0000
0000
2200
0000
0000
0000
0000
0000
0000
0000
0000
0000
0000
0000
0000
0000
3300
0000
0001
0000
1000
0000
0001
0100
0001
0100
,
0001
0000
0000
0000
0000
0000
0000
0000
0000
0000
0000
0000
0000
0010
0000
0000
0000
0000
0000
0000
0000
0000
0000
0000
0100
0000
0000
0000
0000
0000
0000
0000
0000
0000
0000
0000
0000
0000
0000
0000
0000
0000
0000
0000
0000
0000
0000
0000
0022
0000
0000
0000
0000
0000
0000
0000
0000
0000
0000
0000
0000
0000
0000
0000
0000
0000
0000
0000
0000
0000
0000
0000
0000
0000
0000
0000
0000
0000
0000
0000
0000
0000
0000
0000
0033
0000
0000
0000
0000
0000
0000
0000
0000
0000
0000
0000
MM00
0000
0000
0000
0000
0000
0000
0000
0000
0000
0000
0000
MM00
0000
0000
0000
0000
0000
0000
0000
0000
0000
0000
0000
MM00
0000
0000
0000
0000
0000
0000
0000
0000
0000
0000
0000
MM00
0000
0000
0000
0000
0000
0000
0000
0000
0000
0000
0000
1000
0000
0000
0000
0000
0000
0000
0000
0000
0000
0000
0000
0000
0000
0000
0000
0000
0000
0000
0000
0000
0000
0000
0000
2020
0000
0000
0000
0000
0000
0000
0000
0000
0000
0000
0000
0000
0000
0000
0000
3030
0000
0000
0000
0000
0000
0000
0000
,
0000
0000
0000
0000
0002
0000
0000
0000
0013
0100
1000
0100
1000
0100
1000
0100
2000
0000
0000
0000
0000
0000
0000
0000
0000
0000
0000
0000
0000
0000
0000
0000
,
3001
0000
0000
0000
0200
0000
0000
0300
2002
0000
0000
0000
0000
0000
0000
0000
0000
0000
0000
0000
0000
0000
0000
0000
0000
0000
0000
0000
0000
0000
0000
0000
,
0000
0000
0000
0000
3003
2000
3200
0320
,
0031
0000
0000
1000
0010
0100
0001
0100
0000
0000
0010
0000
0010
0100
0001
0010
,
0200
0000
0000
0000
0000
0000
0000
0000
1300
0000
0000
0000
0001
0000
0000
0000
0000
0000
0000
0000
1000
0000
0000
0000
0001
0000
0000
0000
0000
0000
0000
0000
0201
0000
0000
0000
0000
0000
0000
0000
2300
0000
0000
0000
0000
0000
0000
0000
3200
0000
0000
0000
0000
0000
0000
0000
0320
0000
0000
0000
0000
0000
0000
0030
,
1100
0000
0000
0000
0100
M00M
0100
0000
0001
0000
0000
0000
0010
0000
0100
0000
0000
0000
0010
0000
0001
0000
0000
0000
0200
0000
0000
0000
2300
0000
0000
0000
,
3100
0000
0000
0000
0000
0000
0000
0000
0010
0000
M00M
0000
0010
0000
0000
0000
0001
0000
0000
0000
0000
0000
0000
0000
1000
0000
0000
0000
0010
0000
0000
0000
0000
0000
0000
0000
0100
0000
0000
0000
0010
0000
0000
0000
0000
0000
0000
0000
0002
0000
0000
0000
0000
0000
0000
0000
0023
0000
0000
0000
0000
0000
0000
0030
,
0110
0000
0000
0000
0100
M00M
0100
0000
1000
0000
0000
0000
0001
0000
1000
0000
0000
0000
0100
0000
0010
0000
0000
0000
0002
0000
0000
0000
0203
0000
0000
0000
,
0301
0000
0000
0000
0000
0000
0000
0000
0010
0000
M00M
0000
0010
0000
0000
0000
1000
0000
0000
0000
0000
0000
0000
0000
0001
0000
0000
0000
0010
0000
0000
0000
0000
0000
0000
0000
0100
0000
0000
0000
0010
0000
0000
0000
0000
0000
0000
0000
0002
0000
0000
0000
0000
0000
0000
0000
2003
0000
0000
0000
0000
0000
0000
3000
,
1010
0000
0001
0100
0001
0000
0010
0100
1000
0000
0010
0100
0010
0000
0001
0010
,
0100
0000
0001
0010
0100
0000
0010
0100
2000
0000
3010
1000
0001
0100
0010
1000
,
0020
0000
0000
0000
0000
0000
1030
0002
0000
0013
0400
0000
0000
0300
0010
0000
,
0002
0000
0000
0000
0000
0003
0000
0000
,
0000
0000
0000
0000
0000
0000
0000
0000
0000
0000
0000
0000
0000
0000
0000
0000
0000
0000
0000
0000
0000
0000
0000
0000
0000
0000
0000
0000
0000
00MM
00MM
00MM
00MM
00MM
00MM
00MM
00MM
00MM
00MM
00MM
00MM
00MM
00MM
00MM
00MM
00MM
00MM
00MM
10MM
0000
0000
0000
0000
0000
0000
0000
0010
0000
0000
0000
0000
0000
0000
0000
,
1001
0000
0000
0000
0000
0000
0000
0000
0001
0000
0000
0000
0010
0000
0000
0000
0100
0000
0000
0000
0000
0000
0000
0000
1100
0000
0000
0000
1000
0000
0000
0000
0001
0000
0000
0000
0100
0000
0000
0000
0002
0000
0000
0000
0000
0000
0000
0003
1010
0000
0000
0000
0000
0000
0000
0000
2000
0000
0000
0000
0000
0000
0000
3000
,
1100
0000
0100
0020
0000
0030
2002
0000
3003
1000
0002
0000
0103
0000
0010
0000
,
1001
0000
0000
0000
0000
0000
0000
0000
0001
0000
0000
0000
0100
0000
0000
0000
0001
0000
0000
0000
0000
0000
0000
0000
1100
0000
0000
0000
1000
0000
0000
0000
0100
0000
0000
0000
1000
0000
0000
0000
0020
0000
0000
0000
0000
0000
0000
0030
0101
0000
0000
0000
0000
0000
0000
0000
0001
0000
0000
0000
0000
0000
0000
0000
,
0001
0010
0100
1000
0100
0010
0001
0010
0100
1000
0100
0010
0002
0000
0103
0000
,
1010
0000
0000
0000
0000
0000
0000
0000
0010
0000
0000
0000
0100
0000
0000
0000
0010
0000
0000
0000
0000
0000
0000
0000
1001
0000
0000
0000
0001
0000
0000
0000
0010
0000
0000
0000
0100
0000
0000
0000
0020
0000
0000
0000
0000
0000
0000
0030
0110
0000
0000
0000
0000
0000
0000
0000
0001
0000
0000
0000
0000
0000
0000
0000
,
0101
0000
0001
0200
0000
0300
2020
0000
3030
0001
2000
0000
3002
0000
0013
0000
,
0110
0000
0001
1000
0001
0000
0011
0010
0100
1000
0010
0000
0101
0000
0001
0000
,
0001
1000
0010
0100
0010
1000
0001
1000
0010
0100
0010
1000
0004
0000
0200
0000
,
0000
0000
0000
0000
0000
0000
0000
0000
M3M3
0000
M0M0
0000
0001
0010
0100
1000
,
0004
0000
0000
0000
0000
0000
0000
0000
0000
0000
0000
0000
0000
0000
0000
0000
1003
0000
0000
0000
0010
0000
0000
0000
1000
0000
0000
0000
0000
0000
0000
0000
0001
0000
0000
0000
0010
0000
0000
0000
0100
0000
0000
0000
0000
0000
0000
0000
0002
0000
0000
0000
0000
0000
0000
0000
0203
0000
0000
0000
0000
0000
0000
0300
,
1100
1000
0010
0100
0001
0000
0202
0000
0303
0100
0010
0000
1010
0000
1000
0000
,
1400
0000
0000
0000
0000
0000
0000
0000
0000
0000
0000
0000
0000
0000
0000
0000
0310
0000
0000
0000
0100
0000
0000
0000
1000
0000
0000
0000
0000
0000
0000
0000
0010
0000
0000
0000
0000
0100
0000
0000
0010
0000
0000
0000
0000
0000
0000
0000
1010
0000
0000
0000
0000
0000
0000
0000
0001
0000
0000
0000
0000
0000
0000
0000
,
1000
0100
0010
0001
0010
0100
1000
0100
0010
0001
0010
0100
2000
0000
3100
0000
,
0041
0000
0000
0000
0000
0000
0000
0000
0000
0000
0000
0000
0000
0000
0000
0000
0031
0000
0000
0000
1000
0000
0000
0000
0010
0000
0000
0000
0000
0000
0000
0000
0100
0000
0000
0000
0001
0000
0000
0000
0100
0000
0000
0000
0000
0000
0000
0000
2000
0000
0000
0000
0000
0000
0000
0000
3200
0000
0000
0000
0000
0000
0000
0300
,
0110
0000
0010
0000
1000
0000
0100
0000
0010
0000
0010
0000
0001
1000
0001
1000
0001
1000
0001
0000
0100
0000
0000
0000
0110
0000
0000
0000
0010
0000
0000
0000
,
0104
0000
0000
0000
0013
0100
1000
0000
0100
0010
0200
0000
0310
0001
1000
0001
,
1000
0010
0100
0001
0100
0010
1000
0010
0100
0001
0100
0010
4000
0000
0002
0000
,
0000
0000
0000
0000
0000
0000
0000
3003
MMMM
0000
0000
0000
0011
0000
0100
0000
,
1010
0000
1000
0010
1000
0100
0010
0000
0011
0000
0001
0000
1000
0100
0010
0001
,
0200
0000
0000
0000
0000
0000
2300
0000
0000
0000
0000
0000
3200
0000
0000
0000
0000
0000
0301
1000
0100
0010
0100
1000
,
0002
0000
0000
0000
0000
0000
0000
0000
0000
0000
0000
0000
0000
0000
0000
0000
0000
0000
0000
0000
0000
0000
0000
0000
0003
0000
0000
0000
0000
0000
0000
0000
0000
0000
0000
0000
0001
0000
0000
0000
0000
0000
0000
0000
0000
0000
0000
0000
0200
0000
0000
0000
0000
0000
0000
0000
0000
0000
0000
0000
0000
0000
0000
0000
0300
0000
0000
0000
0000
0000
0000
0000
0000
0000
0000
0000
0000
0000
0000
0000
0000
0000
0000
0000
0010
0000
0000
0000
0000
0000
0100
0000
0000
0000
0000
0000
0010
0000
0000
0000
0000
0000
0000
0000
0000
0000
0000
0000
1000
0000
0000
0000
0000
0000
0000
0000
0000
0000
0000
0000
0010
0000
0000
0000
0000
0000
0000
0000
0000
0000
0000
0000
0100
0000
0000
0000
0000
0000
0000
0000
0000
0000
0000
0000
0001
0000
0000
0000
0000
0000
0000
0000
0000
0000
0000
0000
0010
0000
0000
0000
0000
0000
0000
0000
0000
0000
0000
0000
0100
0000
0000
0000
0000
0000
0000
0000
0000
0000
0000
0000
0010
0000
0000
0000
0000
0000
0000
0000
0000
0000
0000
0000
,
0001
0010
0100
1000
0010
0100
0010
1000
0001
0100
0001
0010
0002
0000
1000
0003
,
1010
0000
0000
0000
0000
0000
0000
0000
0010
0000
0000
0000
0100
0000
0000
0000
0002
0000
0000
0000
0000
0000
0000
0000
0000
0000
0000
0000
0003
0000
0000
0000
0011
0000
0000
0000
0000
0000
0000
0000
0010
0000
0000
0000
0000
0100
0000
0000
1000
0000
0000
0000
0100
0000
0000
0000
1000
0000
0000
0000
0010
0000
0000
0000
,
0200
0000
0302
0000
0013
0100
0010
0000
2000
0000
0000
0000
3020
0000
0000
0031
,
0100
0000
0000
0000
0000
0000
0000
0000
0000
0000
0000
0000
0001
0000
0000
0000
0000
0000
0000
0000
0000
0000
0000
0000
1000
0000
0000
0000
0000
0000
0000
0000
0000
0000
0000
0000
0010
0000
0000
0000
0000
0000
0000
0000
0000
0000
0100
0000
0000
0000
0000
0000
0000
0000
0000
0000
0000
0000
0000
0000
0001
0000
0000
0000
0000
0000
1000
0000
0000
0000
0000
0000
0001
0000
0000
0000
0000
0000
0000
0000
0000
0000
0000
0000
0010
0000
0000
0000
0000
0000
0000
0000
0000
0000
0000
0000
0100
0000
0000
0000
0000
0000
0000
0000
0000
0000
0000
0000
0010
0000
0000
0000
0000
0000
0000
0000
0000
0000
0000
0000
0001
0000
0000
0000
0000
0000
0000
0000
0000
0000
0000
0000
1000
0000
0000
0000
0000
0000
0001
0000
0000
0000
0000
0000
0010
0000
0000
0000
0000
0000
0000
0000
0000
0000
0000
0000
0000
0000
0000
0000
0000
0000
0001
0000
0000
0000
0000
0000
0000
0000
0000
0000
0000
0000
0000
0000
0000
0000
0000
0000
1000
0000
0000
0000
0000
0000
0000
0000
0000
0000
0000
0000
,
0001
0000
0000
0010
0000
0000
0100
0000
1000
0001
0100
0001
0000
0000
0100
0000
0010
0000
1000
0000
0100
0000
1000
0000
0100
0000
0010
0000
0001
0000
0010
0000
,
0001
0000
0000
0000
1000
0010
0100
0000
0001
0000
0000
0000
1000
0000
0100
0000
0000
0000
1000
0000
0100
0000
0000
0000
0010
0000
0001
0000
0100
0000
0010
0000
,
1000
0000
0000
0000
0001
0010
0100
0000
1000
0000
0000
0000
0001
0000
0100
0000
0000
0000
0001
0000
0100
0000
0000
0000
0001
0000
0010
0000
0000
0000
0100
0000
,
1000
0000
0010
0000
0100
0000
0001
0000
1000
0000
0100
0000
0010
0000
0100
1000
0100
1000
0100
0000
0010
0000
0001
0000
0100
0000
0010
0000
1000
0000
0010
0000
,
0100
0000
0000
0000
0000
0000
0000
0000
0001
0000
0000
0000
0000
0000
0000
0000
0100
0000
0000
0000
0000
0000
0000
0000
0001
0000
0000
0000
0000
0000
0000
0000
0100
0000
0000
0000
0000
0000
0000
0000
0001
0000
0000
0000
0000
0000
0000
0000
1000
0000
0000
0000
0000
0000
0000
0000
0010
0000
0000
0000
0000
0000
0000
0000
1000
0000
0000
0000
0000
0000
0000
0000
0010
0000
0000
0000
0000
0000
0000
0000
1000
0000
0000
0000
0000
0000
0000
0000
0010
0000
0000
0000
0000
0000
0000
0000
0100
0000
0000
0000
0000
0000
0000
0000
0010
0000
0000
0000
0000
0000
0000
0000
0100
0000
0000
0000
0000
0000
0000
0000
0010
0000
0000
0000
0000
0000
0000
0000
0100
0000
0000
0000
0000
0000
0000
0000
0010
0000
0000
0000
0000
0000
0000
0000
1000
0000
0000
0000
0000
0000
0001
0000
0000
0000
0000
0000
1000
0000
0000
0000
0000
0000
0001
0000
0000
0000
0000
0000
0020
0000
0000
0000
0000
0000
0000
0000
0000
0000
0000
0000
0000
0000
0000
0000
0000
0000
0000
0000
0000
0000
0000
0000
,
0032
0000
0000
0000
0000
0000
0000
0000
0023
0000
0000
0031
1000
0010
0100
0001
,
1000
0100
0010
0100
1000
0000
1000
0100
0010
0100
1000
0000
0001
0100
0010
1000
,
0010
0000
0100
0000
0001
0000
1000
0000
0001
0010
0001
0010
0100
0000
1000
0100
1000
0100
0000
0010
0000
0001
1000
0000
0010
0000
0100
0000
0010
0000
1000
0000
,
0002
0000
0000
0000
0023
0000
0000
0000
0230
0000
0000
0000
1300
0001
1000
0001
,
0200
0000
0000
0000
,
0301
0000
0010
0100
1000
0000
0000
0000
,
0010
0000
1000
0100
0010
0000
0100
1000
,
0001
0000
0000
0000
0010
0000
0100
1000
,
0001
0000
1000
0010
0100
0000
0000
0000
,
0001
0000
1000
0010
1000
0000
0000
0000
,
0001
0000
1000
0100
0010
0000
0001
1000
,
0002
0003
0000
0000
;

//---------------dance-single - Loodee----------------
#NOTES:
     dance-single:
     Loodee:
     Hard:
     10:
     0.701,0.784,0.200,0.547,0.627:
0000
0000
0000
0000
,
0000
0000
0000
0000
,
0000
0000
0000
0000
,
0000
0000
0000
0000
,
1000
0000
0010
0100
0010
0000
1000
0100
0000
1000
0001
0000
0010
0000
0001
0000
,
0020
0000
0000
0000
0130
1000
0100
1000
0000
1000
0000
0000
0010
0000
0100
0000
,
0002
0000
0000
0013
0000
0000
0200
0000
0000
0000
1300
0000
0010
0000
0100
0000
,
0002
0000
0000
0013
0000
0000
0100
0000
0020
0000
0130
0010
0001
1000
0002
0000
,
0013
0000
0100
1000
0100
0000
1000
0001
0000
1000
0010
0000
0100
0000
0001
0000
,
0020
0000
0000
0000
0031
1000
0001
1000
0000
1000
0000
0000
0010
0000
0100
0000
,
0020
0000
1030
0100
0010
0001
0010
0100
,
2000
0000
0000
0000
0000
0000
0000
0000
3001
0000
0000
0000
1000
0000
0000
0000
0010
0000
0000
0000
0100
0000
0000
0000
0004
4000
0000
0000
0000
0000
3003
0000
,
0011
0000
0000
0000
0110
0000
0100
1000
0001
0000
0100
0000
0020
0000
0000
0000
,
1030
0000
0100
1000
0100
0010
0000
0000
0001
0000
2000
0000
3200
0000
0320
0000
,
0032
0000
0003
0010
0001
1000
0001
1000
0000
0000
0200
0000
0310
0000
0002
0000
,
2003
0000
3010
1000
0000
0010
1000
0000
0200
0000
0310
0001
0010
0001
1000
0000
,
0110
0000
0101
0001
0010
0100
0020
0031
,
0000
0000
1000
0010
1000
0000
0010
0000
0101
0000
1000
0000
1100
0000
0200
0000
,
0320
0000
0000
0130
1000
0001
1000
0010
0000
0000
0100
0000
0101
0000
0000
0000
,
2002
0000
0000
3003
0220
0000
0000
0330
1001
0000
0001
1000
0001
0000
0010
0100
,
1000
0000
2100
0000
0000
0000
0000
3001
,
0000
0000
0000
0000
1020
0000
0000
0000
0000
0000
0000
0000
1030
0100
0010
0001
,
0100
0001
0100
0000
0102
0000
0000
0000
0003
0000
0000
0000
0000
0000
2200
3300
,
0000
0000
0002
0000
1003
0100
0010
0001
2000
0000
0000
0000
0000
0000
0000
0000
,
3001
0220
0000
0000
,
0000
0000
0330
0000
1000
0002
0023
0230
,
0310
0000
0000
0001
1000
0010
1000
0000
0000
0000
0200
0000
0320
0000
0230
0000
,
1300
0000
0000
0010
1000
0000
0010
1000
0100
0000
0010
0000
1000
0000
0010
0000
,
0011
0000
0001
1000
0100
0000
1000
0010
0000
0100
0001
0000
0020
0000
0230
0000
,
1300
0000
0001
0100
0010
0000
1000
0001
0000
0100
0010
0000
0200
0000
0302
0000
,
0013
0000
0100
1000
0100
0000
1000
0010
0000
1000
0001
0000
0020
0000
0230
0000
,
1300
0000
0000
0000
0000
0000
0000
0000
0001
0000
0000
0000
0100
0000
0000
0000
0010
0000
0000
0000
0000
0000
0000
0000
1000
0000
0000
0000
0010
0000
0000
0000
0000
0000
0000
0000
0100
0000
0000
0000
0010
0000
0000
0000
0000
0000
0000
0000
2000
0000
0000
0000
0000
0000
0000
0000
3002
0000
0000
0000
0000
0000
0000
0003
,
0011
0000
0001
1000
0010
0000
1000
0001
0100
0000
0010
1000
0100
0000
0010
0001
,
0100
0000
0001
1000
0001
0000
1000
0010
0100
0000
0001
0010
0100
1000
0100
1000
,
0002
0000
0000
0000
0000
0000
1003
0002
0000
0000
0203
0000
0000
0000
0320
0000
,
0000
0000
0000
0000
0000
0030
0000
0000
,
0000
0000
0000
0000
0000
0000
M00M
M00M
M00M
M00M
M00M
0000
1000
0000
0001
0000
,
0011
0000
0010
0100
1000
0000
0001
0000
1000
0100
1000
0000
0010
0000
0100
0000
,
1001
0000
0001
0010
0000
0000
0200
0000
0000
0000
1300
0000
0010
0000
0100
0000
,
0101
0000
0001
1000
0001
0000
0010
0000
0100
0010
0001
0000
1000
0000
0010
0000
,
1000
0100
1000
0100
1000
0100
0010
0001
0010
0001
0010
0001
1000
0000
0010
0000
,
0110
0000
0100
0001
0100
0000
0001
0000
0010
0100
1000
0000
0001
0000
1000
0000
,
0010
0000
0100
0001
0000
0000
0200
0000
0000
0000
0310
0000
1000
0000
0100
0000
,
0011
0000
0001
1000
0010
0000
0100
0000
0010
1000
0100
0000
1000
0100
0010
0001
,
1000
0010
1000
0010
1000
0010
0100
0001
0100
0001
0100
0001
1000
0000
0400
0000
,
0000
0000
0000
0000
0000
0000
0000
0000
0300
0000
0000
0000
0100
1000
0100
1000
,
0020
0000
0000
0000
0130
0000
0001
0000
0010
0100
0010
0000
0002
0000
2003
0000
,
3010
0100
0001
1000
0010
0000
2000
0000
0000
0000
3100
0000
0010
0000
0001
0000
,
2001
0000
0000
0000
0000
0000
0000
0000
0000
0000
0000
0000
0000
0000
0000
0000
3010
0000
0000
0000
0000
0000
0000
0000
0100
0000
0000
0000
0000
0000
0000
0000
0001
0000
0000
0000
0000
0010
0000
0000
0100
0000
0000
0000
0000
0000
0000
0000
1000
0000
0000
0000
0000
0000
0000
0000
0001
0000
0000
0000
0000
0000
0000
0000
,
0100
0001
1000
0010
1000
0010
0100
0001
1000
0010
1000
0010
0100
0000
0001
0000
,
0012
0000
0000
0000
1003
0000
0001
0000
1000
0100
0010
0000
0002
0000
2003
0000
,
3001
0010
0100
1000
0010
1000
0004
0000
0000
0000
0103
0000
0010
0000
0100
0000
,
0201
0000
0000
0000
0301
0000
1000
0000
0001
0010
0200
0000
1300
0000
0010
0000
,
1000
0100
0010
0001
0010
0001
1000
0100
0010
0001
0010
0001
1000
0000
0040
0000
,
0000
0000
0M3M
1010
,
0012
0000
0000
0000
0103
0000
0010
0000
1010
0000
1000
0000
0001
0010
0100
1000
,
0200
0000
0000
0000
0000
0000
0320
0000
0000
0000
0000
0000
0230
0000
0000
0000
0000
0000
4300
0004
0000
0000
0000
3003
,
0101
0000
0000
0001
0010
0000
0000
0100
0000
0010
0001
0100
0010
1000
0010
0100
,
0001
0010
0100
1000
0100
0010
0100
1000
0010
0100
0001
0010
0002
0000
1003
0000
,
2010
0000
0000
0000
3200
0000
0000
0000
0310
0000
0001
1000
0010
0100
0010
1000
,
0200
0000
0310
0000
0001
1000
0010
0000
0200
0000
0000
0000
0302
0000
0000
0013
,
0100
1000
0100
1000
0010
0100
0001
0010
0001
0100
0010
1000
0400
0000
0000
0000
,
0310
0000
0001
0000
1000
0010
0100
0001
0100
0010
1000
0100
0010
0001
0010
0100
,
1000
0000
0010
1000
0001
0000
0010
0100
0000
1000
0100
0000
1000
0001
1000
0001
,
0100
0000
0010
0100
0010
0000
1000
0001
0000
1000
0100
0000
0010
0001
0000
0100
,
0001
0010
0100
1000
0100
0010
0001
0100
0010
1000
0010
0100
0010
1000
0001
1000
,
0001
0010
0001
0010
0100
1000
0100
1000
0001
1000
0001
1000
0001
0010
0100
1000
,
0002
0000
0000
0000
0000
0000
0000
0000
0203
0000
0000
0310
1000
0001
1000
0001
,
0010
0001
0010
0100
1000
0000
0010
0100
0001
1000
0010
0000
1000
0010
0100
0001
,
1000
0100
0010
0001
0100
0010
1000
0100
0010
0001
1000
0001
0100
0001
0100
0010
,
2000
3020
0032
0023
,
2030
0000
0000
0000
,
3001
0000
1000
0100
0010
0000
0000
0000
,
0100
0000
1000
0001
0100
0000
0001
1000
,
0100
0000
0000
0000
0010
0000
0001
0010
,
0100
0000
1000
0010
0100
0000
0000
0000
,
0001
0000
1000
0001
0100
0000
0000
0000
,
0001
0000
0010
0100
1000
0000
0010
0100
,
0002
0003
0000
0000
;

//---------------dance-single - Loodee----------------
#NOTES:
     dance-single:
     Loodee:
     Medium:
     7:
     0.456,0.496,0.234,0.434,0.140:
0000
0000
0000
0000
,
0000
0000
0000
0000
,
0000
0000
0000
0000
,
0000
0000
0000
0000
,
0001
0000
0100
0001
0100
0000
0000
0010
0000
0000
1000
0000
0100
0000
0010
0000
,
0002
0000
0000
0000
1003
0100
1000
0100
0000
0000
0000
0000
0011
0000
0001
0000
,
0200
0000
0000
0310
0000
0000
2000
0000
0000
0000
3100
0000
0010
0000
0001
0000
,
0200
0000
0000
0310
0000
0000
1000
0000
0100
0000
0010
0001
0010
0000
0001
0000
,
0100
0000
0010
1000
0010
0000
0000
0100
0000
0000
0001
0000
0010
0000
0100
0000
,
0020
0000
0000
0000
0031
1000
0001
1000
0000
0000
0000
0000
1010
0000
0010
0000
,
1000
0000
0001
1000
0001
0010
0100
1000
,
0001
0000
0000
0000
1000
0000
0001
0000
1000
0000
0100
0000
4000
0000
0000
3000
,
1001
0000
0011
0000
0001
1000
0020
0130
,
0001
0000
0000
0001
1000
0000
0000
0000
0001
0000
2000
0000
3020
0000
2030
0000
,
3002
0000
0000
0013
0000
0000
0100
0000
0000
0000
1000
0000
0010
0000
0100
0000
,
0002
0000
0000
0013
0000
0000
0100
0000
2000
0000
0000
0000
3004
0000
0000
0003
,
0101
0000
1100
0000
0001
0100
0020
1030
,
0000
0000
0000
1000
0100
0000
0010
0000
0001
0000
0000
0000
0100
0000
0020
0000
,
2030
0000
0000
3001
0000
0000
0100
0000
0000
0000
0001
0000
0010
0000
0100
0000
,
2002
3003
2002
3003
1000
0001
0100
0010
,
1000
0000
2200
0000
0000
0000
0000
3300
,
0000
0000
0202
0000
0000
0303
4004
0000
,
0000
3003
0220
0000
0330
0000
0000
2002
,
3003
1000
0000
0000
0022
0000
0000
0000
,
0033
2020
0000
0000
,
0000
0000
3030
0000
1000
0002
0203
0302
,
1003
0000
0000
0000
0010
0100
0010
0100
0000
0000
0001
0000
0010
0000
0100
0000
,
0010
0000
0000
0001
0000
0000
1000
0000
1400
0000
0000
0000
0000
0000
0300
0000
,
2002
0000
0000
0003
,
0020
0000
0000
3000
,
0200
0000
0000
0030
,
0002
0000
0000
0303
,
0001
0100
1000
0100
0001
1000
0100
1000
,
0001
0000
0010
0000
1000
0000
0010
0000
0001
0000
1000
0000
0001
1000
0001
1000
,
0002
0000
0000
0000
,
0203
0000
0000
0300
0000
0000
0000
0000
,
0000
M0M0
M0M0
0000
0000
0000
0000
0000
,
1001
0000
0001
0101
0000
0001
0010
0100
,
0010
0000
0000
0010
0000
0000
0200
0000
0000
0300
1000
0000
0001
0000
0100
0000
,
0101
0000
0001
1001
0000
1000
0100
0010
,
0004
0040
0000
0000
0000
0000
0000
0000
0000
0000
0000
0003
0030
0000
0000
0000
,
0101
0000
0100
0110
0000
0010
1000
0100
,
0010
0000
0000
0010
0000
0000
0200
0000
0000
0300
1000
0000
0010
0000
0100
0000
,
0110
0000
1000
1001
0000
0001
0010
0100
,
0040
0400
0000
0000
0000
0000
0000
0000
0000
0000
0000
0000
0330
0000
2002
0000
,
0000
0000
3003
0000
,
0101
0000
0000
0000
0001
0000
1000
0000
0010
1000
0010
0000
0200
0000
0320
0000
,
1030
0000
0010
0020
0030
0100
0001
0010
,
0011
0000
0000
0000
0001
0000
1000
0000
0010
1000
0010
0000
0100
0000
0001
0000
,
0400
0004
0000
0000
0000
0000
0000
0000
0000
0000
0000
0000
0303
0000
0000
0000
,
1100
0000
1000
0010
0000
1000
0200
0310
,
0110
0000
0000
0000
0001
0000
0002
0000
0000
0003
1000
0000
0010
0000
0100
0000
,
0110
0000
0000
0000
0001
0000
1000
0000
0100
1000
0100
0000
0010
0000
0001
0000
,
4000
0004
0000
0000
0000
0000
0000
0000
0000
0000
0000
0000
3003
0000
0220
0000
,
0000
0000
0330
0000
,
2010
0000
3010
0100
0001
0010
0100
1000
,
0200
0000
0302
0000
0203
0000
1300
0100
,
2000
3000
0020
0030
0100
0001
1000
0001
,
0010
0100
1000
0100
0010
0001
0100
0000
,
0102
0000
2003
0000
0000
0000
3001
0010
,
0100
0010
0001
1000
0020
0000
0230
0000
,
0301
0010
0100
0010
0100
1000
0100
0000
,
0100
1000
0010
0100
0001
1000
0001
1000
,
0010
0000
0000
0000
0100
0000
0000
0001
0000
0000
0100
0000
0001
1000
0001
1000
,
0001
0000
0000
0000
0010
0000
0000
0100
0000
0000
1000
0000
0010
0000
0000
0000
,
0110
0000
0010
0000
1000
0000
0001
0000
1000
0000
0100
0000
0010
0001
0010
0001
,
0040
0430
4300
3004
,
0203
0000
0000
0000
0310
0000
1000
0000
0001
0000
0000
0000
0010
0100
0010
0100
,
0010
0000
0001
1000
0010
0000
0100
0010
,
1000
0000
1000
0100
1000
0010
0100
0001
,
0010
0000
0000
0100
0000
0000
0001
0000
0000
0100
0000
0000
1000
0100
1000
0100
,
2000
0000
0000
0000
,
3100
0000
1000
0100
0010
0000
0000
0000
,
0001
0000
1000
0010
1000
0000
0001
0010
,
0001
0000
0000
0000
0100
0000
0010
1000
,
0010
0000
1000
0001
0010
0000
0000
0000
,
0001
0000
1000
0100
0010
0000
0000
0000
,
0001
0000
1000
0010
1000
0000
0001
0100
,
0002
0003
0000
0000
;

//---------------dance-single - Loodee----------------
#NOTES:
     dance-single:
     Loodee:
     Easy:
     5:
     0.399,0.444,0.100,0.354,0.000:
0000
0000
0000
0000
,
0000
0000
0000
0000
,
0000
0000
0000
0000
,
0000
0000
0000
0000
,
0001
0000
1000
0100
0000
1000
0001
1000
,
0020
0000
0130
0100
0000
0100
0001
0010
,
0200
0000
1300
0001
0000
0000
0001
0010
,
0200
0000
1300
0010
0200
0000
0301
0000
,
1001
0000
0001
0010
0000
0100
1000
0001
,
0200
0000
0310
0010
0000
0000
0100
0001
,
2000
0000
3100
1000
0100
1000
0001
1000
,
0002
0000
0103
0010
0100
0010
2000
0000
,
3100
0000
1100
0000
0001
0100
0001
0000
,
0010
0000
0100
0100
1000
0002
2003
3002
,
0013
0000
0010
0100
1000
0001
1000
0001
,
0010
0000
0010
0100
1000
0100
1000
0001
,
0100
0000
0101
0000
0001
0010
0100
1000
,
0000
0000
1000
0010
0100
0000
0001
1000
,
0002
0000
0013
0100
0010
0001
1000
0010
,
2000
3002
1003
0010
,
0100
0020
0000
0030
,
0000
2002
0000
3003
,
0000
0000
2000
0000
3000
0000
0000
0001
,
0000
0000
0202
0000
,
0303
2002
0000
0000
,
0000
0000
3003
0000
1000
0100
0010
0100
,
1000
0000
1000
0001
0000
0000
0001
0100
,
0001
0000
1000
0001
2000
0000
3000
0000
,
2200
0000
0000
0000
,
0000
0000
0000
0000
,
0000
0000
0000
0000
,
0000
0000
0000
3300
,
0001
1000
0001
1000
0010
0100
0010
0100
,
0001
1000
0001
1000
0001
0010
0100
1000
,
0200
0000
0000
0000
,
0000
0000
0000
0300
0000
0000
0000
0000
,
0000
0000
0000
0000
,
1001
0000
0001
0100
0000
0001
0010
0100
,
1000
0000
0010
0010
0000
0100
0010
0000
,
0110
0000
0001
1000
0000
0001
1000
0100
,
0010
0010
0010
0010
0100
0100
0100
0000
,
1001
0000
0001
0100
0000
0010
0100
0010
,
1000
0000
0100
0100
0000
0010
0001
1000
,
0001
0000
0010
0100
0000
0010
0100
1000
,
0100
0100
0100
0100
1000
1000
1000
2000
,
0000
0000
3000
0000
,
1001
0000
0001
0100
0001
0010
0001
1000
,
0200
0000
0310
0001
0000
1000
0010
0000
,
0110
0000
1000
0001
1000
0100
1000
0100
,
0010
0010
0010
0010
0001
0001
0001
0000
,
0011
0000
0001
1000
0000
0010
1000
0010
,
2000
0000
3100
0010
0000
0000
0001
0000
,
1001
0000
1000
0010
1000
0001
0010
0001
,
0010
0010
0010
0010
0100
0100
0100
0200
,
0000
0000
0300
0000
,
0220
0000
0330
0000
1000
0000
0001
0100
,
0002
0203
0320
2030
,
3100
0000
0100
0000
1000
0100
0010
0001
,
0100
0010
0100
0010
1000
0001
1000
0001
,
0020
0000
0230
0000
0320
0000
0031
1000
,
0001
0010
0100
0010
0200
0000
2300
0000
,
3001
0010
0100
1000
0001
0010
0100
1000
,
0001
1000
0100
0010
0001
1000
0100
0010
,
0001
0000
0000
0001
0000
1000
0010
0010
,
0010
0000
0000
0100
0000
0001
1000
0000
,
1000
0100
1000
0100
1000
0001
0100
0100
,
0200
0320
2030
3002
,
0023
0000
0000
0000
0230
0000
1300
1000
,
1000
0001
1000
0001
1000
0001
0100
0010
,
0100
0001
1000
0010
0100
0001
0100
0100
,
0200
0302
2003
3200
,
0320
0000
0000
0000
,
0030
0000
0000
0000
,
0001
0000
1000
0100
1000
0000
0001
0000
,
0100
0000
0010
1000
,
0100
0000
0010
0001
0010
0000
0000
0000
,
0100
0000
0010
0001
0010
0000
0000
0000
,
0001
0000
1000
0010
1000
0000
0010
0000
,
0200
0300
0000
0000
;
