#VERSION:0.81;
#TITLE:Joyful Rock;
#SUBTITLE:(JAKAZiD Mashup);
#ARTIST:いきものがかり vs. Daft Punk;
#TITLETRANSLIT:;
#SUBTITLETRANSLIT:;
#ARTISTTRANSLIT:Ikimono-gakari vs. Daft Punk;
#GENRE:;
#ORIGIN:;
#CREDIT:;
#BANNER:[Mash-up] - Joyful Rock (JAKAZiD Mashup).png;
#BACKGROUND:[Mash-up] - Joyful Rock (JAKAZiD Mashup)-bg.png;
#PREVIEWVID:;
#JACKET:[Mash-up] - Joyful Rock (JAKAZiD Mashup)-jacket.png;
#CDIMAGE:;
#DISCIMAGE:;
#LYRICSPATH:;
#CDTITLE:cdtitle.png;
#MUSIC:[Mash-up] - Joyful Rock (JAKAZiD Mashup).ogg;
#OFFSET:-0.115;
#SAMPLESTART:23.678;
#SAMPLELENGTH:16.000;
#SELECTABLE:YES;
#BPMS:0.000=120.000;
#STOPS:;
#DELAYS:;
#WARPS:;
#TIMESIGNATURES:0.000=4=4;
#TICKCOUNTS:0.000=4;
#COMBOS:0.000=1;
#SPEEDS:0.000=1.000=0.000=0;
#SCROLLS:0.000=1.000;
#FAKES:;
#LABELS:0.000=Song Start;
#BGCHANGES:;
#KEYSOUNDS:;
#ATTACKS:
;

//---------------dance-single - ----------------
#NOTEDATA:;
#CHARTNAME:;
#STEPSTYPE:dance-single;
#DESCRIPTION:;
#CHARTSTYLE:;
#DIFFICULTY:Hard;
#METER:9;
#RADARVALUES:0.688,0.649,0.456,0.078,0.698,497.000,53.000,9.000,0.000,0.000,0.000,0.000,0.000,0.688,0.649,0.456,0.078,0.698,497.000,53.000,9.000,0.000,0.000,0.000,0.000,0.000;
#CREDIT:;
#NOTES:
0000
0000
0000
0000
,
0000
0000
0000
0000
,
0000
0000
0000
0000
,
0000
0000
0000
0000
,
1010
0110
0101
1001
,
1100
0000
0000
0000
0110
0000
0000
0000
0011
0000
0000
0000
0002
2000
0000
0000
,
0000
0000
0000
0000
,
0000
0000
0000
3003
,
0001
0000
0100
0000
0010
0000
1000
0000
0001
0010
0001
0000
0000
0011
0000
0000
,
0110
0000
0100
0000
1000
0000
0001
0000
1000
0001
1000
0001
0000
1001
0000
0000
,
1010
0000
1000
0000
0010
0100
0010
0100
0000
0000
0110
0000
0000
0101
0000
0000
,
1001
0000
0000
1000
0100
0000
0000
0100
0010
0000
0011
0000
1001
0000
0001
0000
,
0101
0000
1000
0000
1100
0000
0001
0000
0101
0000
0001
0000
1000
0100
0010
0001
,
0000
2000
0000
0000
3010
0100
0010
1000
0000
0001
0010
0000
0100
0000
1000
0000
,
1100
0000
0001
0000
0101
0000
1000
0000
1100
0000
0100
0000
0010
0001
1000
0010
,
0000
0200
0000
0000
0301
1000
0100
0010
0000
0001
1000
0000
1001
0000
0001
0000
,
1000
0100
0010
0100
0001
0100
0010
0100
,
1000
0010
0100
0010
0001
0010
0100
0010
,
1000
0100
0001
0100
1000
0010
0001
0010
,
1000
0000
0000
0000
0010
0000
0000
0000
1000
0000
0000
0000
0001
0000
0000
0000
1000
0000
0000
0000
0001
0000
0000
0000
0010
0000
0000
0000
0000
0000
0100
0000
0000
0010
0000
0000
0100
0000
0000
0010
0000
0000
0100
0000
0000
0000
0000
0000
,
2000
0000
0000
0000
3100
1000
0001
0100
0010
0000
1000
0000
1000
0001
0000
0001
,
0010
0000
0100
0000
1000
0001
0100
0010
0000
0010
1000
0000
0001
0000
1001
0000
,
1000
0000
0100
0000
0010
0100
1000
0001
0100
0000
0010
0000
0010
1000
0000
1000
,
0001
0000
0010
0000
0100
1000
0001
0100
0000
0010
0100
0010
1000
0001
1000
0000
,
1001
0000
0001
0000
0100
0001
0100
0001
0100
0000
0110
0000
0000
1010
0000
0000
,
1001
0000
0000
0001
0010
0000
0000
0010
0100
0000
0000
0100
1000
0100
1000
0001
,
0000
0000
0100
0000
0010
0100
0010
0100
0010
0000
1010
0000
0000
1001
0000
0000
,
0011
0000
0000
0000
0000
0000
0000
0000
0000
0000
0000
0000
0001
0000
0000
0010
0000
0000
0100
0000
0000
1000
0000
0000
0001
0000
0100
0000
0001
0000
0100
0000
0000
0000
0000
0000
0010
0000
1000
0000
0010
0000
1000
0000
0000
0000
0000
0000
,
0001
1000
0001
0000
0010
0100
0010
0000
0100
1000
0001
0100
0010
1000
0000
0000
,
0001
1000
0001
0000
0100
0010
0100
0000
0010
1000
0001
1000
0100
0010
0000
0000
,
0001
0010
0001
1000
0010
0000
1000
0010
0100
0001
0100
0000
0001
0000
0001
0000
,
1000
0100
0010
0001
0011
1001
1010
0110
,
0101
0000
0001
0000
1000
0000
0001
0000
1000
0100
1000
0100
0010
0100
0000
0000
,
0010
0000
0100
0000
0010
0000
0001
0000
0010
0001
1000
0001
1000
0010
0000
0000
,
0100
0001
1000
0100
0010
0000
0100
0010
0100
1000
0001
0000
0100
0000
0010
0000
,
1000
1000
0001
0001
1001
1010
1001
0011
,
1001
0000
0000
1000
0010
0000
0000
0010
0100
0000
0000
0100
0001
0000
0100
0000
,
0101
0000
0000
0001
0010
0000
0000
0010
0100
0000
0000
0100
1000
0000
0100
0000
,
1100
0000
0000
1000
0001
0000
0000
0001
1000
0000
0000
1000
0001
0000
1000
0000
,
1001
0000
0000
0001
0100
0000
0000
0100
0010
0000
0000
0010
0100
0100
0000
0000
,
0001
0000
0010
0000
1000
0000
0010
0000
0001
0000
0100
0000
0010
1000
0000
1000
,
0001
0000
0000
1000
0001
0000
0000
1000
0001
0000
1000
0000
1001
0000
0001
0000
,
1010
0000
0001
0000
0011
0000
1000
0000
1010
0000
0001
0000
0010
0100
1000
0001
,
0000
0200
0000
0000
0301
0100
0001
1000
0000
1000
0100
0000
0010
0000
0001
0000
,
0011
0000
1000
0000
1010
0000
0001
0000
0011
0000
1000
0000
0010
0100
0001
1000
,
0000
0002
0000
0000
1003
0100
0010
0001
0000
0001
0100
0001
0100
0010
1000
0010
,
1000
0100
0001
0100
1000
0100
1000
0001
,
1000
0010
0001
0010
1000
0010
1000
0001
,
0010
0100
1000
0001
0100
0010
1000
0001
,
0010
0000
0000
0000
0100
0000
0000
0000
0010
0000
0000
0000
0100
0000
0000
0000
1000
0000
0000
0000
0100
0000
0000
0000
1000
0000
0000
0001
0000
0000
0100
0000
0000
0010
0000
0000
1000
0000
0000
0001
0000
0000
0010
0000
0000
0000
0000
0000
,
0200
0000
0000
0000
1300
0100
1000
0001
0100
0000
0010
0000
0010
1000
0000
1000
,
0001
0000
0000
0001
0010
0100
1000
0001
0000
0001
0100
0000
0010
0000
0110
0000
,
0010
0000
0100
0000
0001
1000
0100
1000
0100
0000
0010
0000
0010
0001
0000
0001
,
1000
0000
0000
1000
0010
0100
0001
1000
0000
1000
0100
0010
0001
1000
0010
0000
,
0200
0000
0000
0000
0301
0100
0001
1000
0100
0000
0010
0000
0010
0001
0000
0001
,
1000
0000
0000
1000
0010
0100
0001
1000
0000
1000
0001
0000
1000
0000
1001
0000
,
0001
0000
0010
0000
0100
1000
0001
0100
0010
0000
0100
0000
0100
0010
0000
0010
,
1000
0000
0000
1000
0001
0010
0100
1000
0000
1000
0010
0100
0001
1000
0100
0010
;

//---------------dance-single - ----------------
#NOTEDATA:;
#CHARTNAME:;
#STEPSTYPE:dance-single;
#DESCRIPTION:;
#CHARTSTYLE:;
#DIFFICULTY:Medium;
#METER:7;
#RADARVALUES:0.470,0.424,0.103,0.586,0.069,302.000,12.000,68.000,0.000,0.000,0.000,0.000,0.000,0.470,0.424,0.103,0.586,0.069,302.000,12.000,68.000,0.000,0.000,0.000,0.000,0.000;
#CREDIT:;
#NOTES:
0000
0000
0000
0000
,
0000
0000
0000
0000
,
0000
0000
0000
0000
,
0000
0000
0000
0000
,
2000
3020
0230
0302
,
2003
3200
0310
2002
,
0000
0000
0000
0000
,
0000
0000
0000
3003
,
1000
0000
0010
0000
0100
0000
0001
0000
1000
0000
0100
0000
0000
0100
0000
0000
,
0100
0000
0010
0000
0001
0000
1000
0000
0010
0000
0000
0010
0000
0100
0000
0000
,
0100
0000
0010
0000
0100
0000
0001
0000
0000
0000
1000
0000
0000
0001
0000
0000
,
0010
0000
0100
0000
1000
0100
1000
0001
,
2000
0000
3020
0000
0230
0000
0301
1000
,
0200
0000
0010
0000
1000
1000
1000
0000
,
2300
0000
3002
0000
0203
0000
0310
1000
,
0002
0000
1000
0000
0100
0100
0100
0000
,
0013
0100
1000
0001
0100
0000
0101
0000
,
0001
0100
0010
1000
0100
0000
1100
0000
,
1000
0100
0010
0001
1000
0000
1001
0000
,
1000
0000
0000
0000
1000
0000
0010
0000
0000
0000
0010
0000
0100
0000
0000
0001
0000
0000
1000
0000
0000
0100
0000
0000
,
0020
0000
0000
0000
0031
0000
0010
0000
0001
0000
2000
0000
0000
3020
0000
0000
,
0230
0000
0301
0000
1000
0100
0010
0000
,
0002
0000
0000
0000
0013
0000
0001
0000
1000
0000
0020
0000
0000
0230
0000
0000
,
0302
0000
1003
0000
0100
0010
0001
1000
,
0020
0000
0000
0000
0130
0000
0010
0000
0100
0000
0002
0000
0000
2003
0000
0000
,
3002
0000
0013
0000
0100
0000
1000
0100
,
1000
0000
0000
0000
0001
0000
0100
0000
0001
0000
0200
0000
0000
0320
0000
0000
,
2030
0000
3010
1000
0001
0010
0100
1000
,
0001
0100
0010
0010
0100
0010
1000
0000
,
0010
1000
0001
0001
1000
0100
0010
0000
,
0100
0010
0100
0100
0010
0001
0010
0010
,
0001
0001
1000
1000
0001
0010
1000
0010
,
0001
1000
0010
0000
1010
0000
0110
0000
,
0010
0100
0001
0000
0101
0000
1001
0000
,
1000
0100
0010
0000
0100
0010
0001
0000
,
0010
0001
1000
0001
1000
0010
1000
0001
,
2000
0000
3200
0000
0320
0000
0031
0010
,
0002
0000
2003
0000
3020
0000
0130
0010
,
0200
0000
0302
0000
2003
0000
3100
1000
,
0200
0320
0032
2003
,
3010
0010
0100
0100
0001
0001
1000
1000
,
0001
0000
1000
0000
0001
1000
1001
0000
,
0002
0000
0203
0000
0320
0000
1030
0001
,
0020
0000
1000
0000
0001
0001
0001
0000
,
0032
0000
0203
0000
0320
0000
0130
0010
,
2000
0000
0100
0000
0001
0001
0001
0000
,
3001
0010
1000
0000
0010
0000
0011
0000
,
0001
0100
1000
0000
0100
0000
0101
0000
,
0001
1000
0010
0000
1000
0000
1010
0000
,
1000
0000
0000
0000
1000
0000
0001
0000
0000
0000
0001
0000
0010
0000
0000
0100
0000
0000
1000
0000
0000
0001
0000
0000
,
0200
0000
0000
0000
0310
0000
1000
0000
0001
0000
0020
0000
0000
0230
0000
0000
,
0320
0000
0130
0000
1000
0001
0100
0000
,
0020
0000
0000
0000
1030
0000
0010
0000
1000
0000
0002
0000
0000
0023
0000
0000
,
0230
0000
1300
0000
0001
0100
0010
1000
,
0002
0000
0000
0000
0013
0000
0100
0000
1000
0000
0002
0000
0000
0203
0000
0000
,
0320
0000
0130
0000
0010
1000
0001
0000
,
2000
0000
0000
0000
3100
0000
1000
0000
0100
0000
0020
0000
0000
0230
0000
0000
,
0320
0000
0031
0000
0010
0001
1000
0010
;

//---------------dance-single - ----------------
#NOTEDATA:;
#CHARTNAME:;
#STEPSTYPE:dance-single;
#DESCRIPTION:;
#CHARTSTYLE:;
#DIFFICULTY:Easy;
#METER:4;
#RADARVALUES:0.262,0.249,0.095,0.043,0.000,197.000,11.000,5.000,0.000,0.000,0.000,0.000,0.000,0.262,0.249,0.095,0.043,0.000,197.000,11.000,5.000,0.000,0.000,0.000,0.000,0.000;
#CREDIT:;
#NOTES:
0000
0000
0000
0000
,
0000
0000
0000
0000
,
0000
0000
0000
0000
,
0000
0000
0000
0000
,
1000
0001
0010
0100
,
1000
0001
0100
0020
,
0000
0000
0000
0000
,
0000
0000
0000
0030
,
0100
0010
1000
0000
,
0010
1000
0001
0000
,
1000
0001
0010
0000
,
0100
0010
0100
0110
,
0010
0100
1000
0001
,
0100
0101
0001
0101
,
0100
0010
1000
0100
,
1000
1100
0100
1100
,
1000
0001
0100
0100
,
0010
1000
0001
0001
,
1000
0100
0010
0010
,
0001
1000
2002
3003
,
0001
0100
0010
0000
,
0100
0010
1000
1000
,
0001
0010
0100
0000
,
0010
0100
1000
1000
,
0001
0100
0001
1000
,
1000
0100
1000
0001
,
0001
1000
0001
1000
,
1000
0001
0100
0010
,
1000
0010
1000
0000
,
0001
0010
0001
0000
,
0010
0010
0100
0100
,
1000
0001
0100
0010
,
1000
0010
1010
0000
,
1000
0001
0011
0000
,
0010
0010
0100
0100
,
1000
0001
0100
0010
,
1000
0010
1000
0010
,
1000
0001
1000
0001
,
0010
0001
0010
0001
,
0010
0100
0010
0100
,
1000
0010
0100
0001
,
1000
0001
1001
1001
,
1000
0100
0010
0001
,
1000
1000
1000
1000
,
0010
0100
0001
1000
,
0001
0001
0001
0001
,
0010
0100
0010
0010
,
0001
1000
0001
0001
,
0100
0010
0100
0100
,
0010
1000
2002
3003
,
0001
0010
0010
0001
,
1000
0010
0010
0100
,
0001
0100
0100
0001
,
1000
0100
0100
1000
,
0010
0100
0001
1000
,
0001
0010
0100
1000
,
0100
0010
0001
1000
,
0001
0100
0010
1000
;

//---------------dance-single - ----------------
#NOTEDATA:;
#CHARTNAME:;
#STEPSTYPE:dance-single;
#DESCRIPTION:;
#CHARTSTYLE:;
#DIFFICULTY:Beginner;
#METER:2;
#RADARVALUES:0.102,0.196,0.000,0.000,0.000,83.000,0.000,0.000,0.000,0.000,0.000,0.000,0.000,0.102,0.196,0.000,0.000,0.000,83.000,0.000,0.000,0.000,0.000,0.000,0.000,0.000;
#CREDIT:;
#NOTES:
// measure 0
0000
0000
0000
0000
,  // measure 1
0000
0000
0000
0000
,  // measure 2
0000
0000
0000
0000
,  // measure 3
0000
0000
0000
0000
,  // measure 4
1000
1000
1000
1000
,  // measure 5
1000
1000
1000
1000
,  // measure 6
0000
0000
0000
0000
,  // measure 7
0000
0000
0000
0000
,  // measure 8
0001
0000
0000
0000
,  // measure 9
1000
0000
0000
0000
,  // measure 10
0001
0000
0000
0000
,  // measure 11
1000
0000
1000
0000
,  // measure 12
0100
0000
0100
0000
,  // measure 13
0100
0000
0000
0000
,  // measure 14
0010
0000
0010
0000
,  // measure 15
0010
0000
0000
0000
,  // measure 16
0001
0000
0000
0000
,  // measure 17
1000
0000
0000
0000
,  // measure 18
0001
0000
0000
0000
,  // measure 19
1000
0000
1000
0000
,  // measure 20
1000
0000
0000
0000
,  // measure 21
0010
0000
0000
0000
,  // measure 22
0100
0000
0000
0000
,  // measure 23
0001
0000
0000
0000
,  // measure 24
1000
0000
0000
0000
,  // measure 25
0001
0000
0000
0000
,  // measure 26
1000
0000
0000
0000
,  // measure 27
0001
0000
1000
0000
,  // measure 28
0001
0000
0000
0000
,  // measure 29
1000
0000
0000
0000
,  // measure 30
0100
0000
0100
0000
,  // measure 31
0010
0000
0010
0000
,  // measure 32
0001
0000
0000
0000
,  // measure 33
1000
0000
0000
0000
,  // measure 34
0010
0000
0010
0000
,  // measure 35
0100
0000
0100
0000
,  // measure 36
0001
0001
0001
0000
,  // measure 37
1000
1000
1000
0000
,  // measure 38
0001
0001
0001
0000
,  // measure 39
1000
1000
1000
0000
,  // measure 40
0001
0001
0001
0001
,  // measure 41
0001
0000
0000
0000
,  // measure 42
1000
0000
1000
0000
,  // measure 43
1000
0000
0000
0000
,  // measure 44
0100
0000
0100
0000
,  // measure 45
0100
0000
0000
0000
,  // measure 46
0010
0000
0000
0000
,  // measure 47
0001
0000
0000
0000
,  // measure 48
0010
0000
0010
0000
,  // measure 49
0001
0001
0001
0000
,  // measure 50
1000
0000
0000
0000
,  // measure 51
0010
0000
0000
0000
,  // measure 52
1000
0000
0000
0000
,  // measure 53
0010
0000
0000
0000
,  // measure 54
1000
0000
0000
0000
,  // measure 55
0001
0000
0000
0000
,  // measure 56
1000
0000
0000
0000
,  // measure 57
0001
0000
0000
0000
;
