#TITLE:Far east squall;
#SUBTITLE:;
#ARTIST:猫叉Master+ / Mash-up by Byakko+;
#TITLETRANSLIT:;
#SUBTITLETRANSLIT:;
#ARTISTTRANSLIT:Nekomata Master+ / Mash-up by Byakko+;
#GENRE:;
#CREDIT:brunobg24;
#MENUCOLOR:;
#METERTYPE:DDR;
#BANNER:[Mash-up] - Far east squall.png;
#BACKGROUND:[Mash-up] - Far east squall-bg.png;
#LYRICSPATH:;
#CDTITLE:;
#MUSIC:[Mash-up] - Far east squall.mp3;
#OFFSET:-0.040;
#SAMPLESTART:83.062;
#SAMPLELENGTH:20.526;
#SELECTABLE:YES;
#LISTSORT:;
#BPMS:0.000=190.000;
#STOPS:197.500=1.263
,201.500=0.947
;
#BGCHANGES:;
#ATTACKS:;

//---------------dance-single - ----------------
#NOTES:
     dance-single:
     :
     Hard:
     10:
     0.810,1.000,0.109,0.109,0.593:
0000
0000
0000
0000
,
0000
0000
0000
0000
,
1000
1000
1000
1000
,
0001
0000
0000
0000
0001
0000
0000
0000
0001
0000
0000
1000
0001
0000
0100
0000
,
0010
0000
1000
0000
0100
0000
1000
0000
0001
0000
1000
0000
,
0001
0000
0100
0000
0001
0000
0010
0000
0100
0000
0010
0000
,
0000
0000
0001
0000
1000
0000
0010
0000
0100
0000
0010
0000
,
0100
0000
0001
0000
0100
0000
0001
0000
0010
0001
1000
0001
,
1000
0000
0100
0000
0010
0000
0001
0000
0010
0000
0100
0000
,
1000
0000
0001
0100
0001
0000
2000
0000
,
0000
0000
0000
0000
3001
0010
0100
0010
,
0001
0000
1000
0010
1000
0000
0002
0000
,
0000
0000
0000
0000
0000
0000
0000
0000
0013
0000
0001
1000
0001
0000
0100
0000
,
0010
0000
1000
0001
1000
0000
0020
0000
,
0000
0000
0000
0000
1030
0001
0100
0001
,
1000
0000
0001
0010
0001
0000
0200
0000
,
0010
0000
0000
0000
0000
0000
0000
0000
0010
0000
0000
0000
0000
0000
0000
0000
0010
0000
0000
0000
0000
0000
0000
0000
0310
0000
0000
0000
0000
0000
0000
0000
0000
0000
0000
0000
1001
0000
0000
0000
0000
0000
1000
0000
0000
0001
0000
0000
,
1000
0100
0010
0100
1000
0001
0010
1000
,
0010
0001
0100
0010
1000
0100
0010
0001
,
0000
0001
1000
0100
0001
0100
0010
0100
,
1000
0000
0100
0000
0010
0000
0001
0000
0010
0000
0100
1000
0100
0000
0010
0000
,
0000
0001
0100
1000
0100
0010
0100
0001
,
0100
0010
1000
0100
0010
0001
1000
0010
,
1000
0000
0100
0000
1000
0001
1000
0000
0001
0000
0100
0010
0200
0000
0000
0000
,
0000
0000
0301
0000
0010
0000
0100
0000
1000
0100
1000
0000
0001
1000
0001
0000
,
0110
0000
0000
0000
0010
0000
0000
1000
0001
0000
1000
0000
0100
0000
0000
0000
,
1000
0000
0001
0000
0010
0000
0000
0001
0100
0000
0010
0000
1000
0000
0000
0000
,
0001
0000
0100
0000
0010
0000
0000
1000
0010
0000
0100
0000
0001
0000
0000
0000
,
0010
0000
0001
0000
1000
0000
0000
0100
1000
0000
0001
0000
0100
0000
0000
0000
,
0010
0000
1000
0000
0010
0000
0000
0100
0001
0000
0010
0000
0001
0000
0000
0000
,
1000
0000
0100
0000
0010
0000
0000
0100
1000
0000
0001
0000
0100
0000
0000
0000
,
0001
0000
0010
0000
0100
0000
0000
0001
0100
0000
1000
0000
0010
0000
0000
0000
,
1000
0000
0100
0000
0010
0000
0001
0000
1000
0010
1000
0000
0001
0100
0001
0100
,
0001
0000
0010
0000
0100
0000
0000
0010
0001
0000
1000
0000
0010
0000
0000
0000
,
0100
0000
0001
0000
0100
0000
0000
0010
1000
0000
0100
0000
1000
0000
0000
0000
,
0001
0000
0100
0000
0001
0000
0000
1000
0010
0000
0100
0000
0001
0000
0000
0000
,
0010
0000
0000
0000
0000
0000
0100
0000
0000
0000
0000
0000
0000
0000
0000
0000
0000
0000
0100
0000
0000
0000
0000
0000
0010
0000
0000
0001
0000
0000
0010
0000
0000
0000
0000
0000
0001
0000
0000
0000
0010
0000
0000
0000
0100
0000
0000
0000
,
1000
0000
0001
1000
0001
1000
0001
1000
0001
1000
0001
0000
1001
0000
0000
0000
,
1000
0000
0001
0000
0100
0000
0010
1000
0010
0000
0100
0000
0001
0000
0000
0000
,
0010
0000
0001
0000
1000
0000
0100
1000
0100
0000
0010
0000
0001
0000
0000
0000
,
1000
0000
0001
0000
0100
0000
0010
0000
0100
0001
0100
0000
0010
1000
0010
1000
,
0010
1000
0001
0100
0010
0010
1000
0100
,
0010
0001
0010
1000
0010
0100
0010
0001
,
1000
1000
0010
0100
0001
0001
0100
0010
,
1000
0100
0010
0001
0010
0100
1000
0001
,
0010
0010
0100
0010
0001
0001
1000
0010
,
0100
0001
0010
0100
0001
0100
1000
0010
,
1000
1000
0001
0010
0100
0100
0010
0001
,
1000
0100
0010
1000
0010
0001
0100
0001
,
1000
0000
0000
0000
0010
0000
0100
0000
0010
0000
0100
0000
0020
0030
0000
0000
1000
0000
0000
0000
0010
0000
0000
0000
0100
0000
0000
0000
0001
0000
0000
0000
,
0010
0000
0000
0000
0100
0000
1000
0000
0100
0000
1000
0000
0200
0300
0000
0000
1000
0000
0000
0000
0001
0000
0000
0000
1000
0000
0001
0000
1000
0000
0001
0000
,
1000
0000
0000
0000
0100
0000
0000
0000
0010
0000
0000
0000
0001
0000
0000
0000
0000
0000
0100
0000
0000
0010
0000
0000
0100
0000
0000
0010
0000
0000
0100
0000
0000
0000
0000
0000
0001
0000
0000
0100
0000
0000
0001
0000
0000
0100
0000
0000
,
0001
0000
1000
0001
1000
0001
1000
0000
0010
1000
0010
1000
0010
0000
0100
0000
,
0000
0000
0001
0000
1000
0000
0001
0100
0001
0100
0001
0000
1000
0010
1000
0010
,
1000
0000
0100
0010
0100
0010
0100
0000
0010
0001
0010
0001
0010
0000
0001
0000
,
1000
0000
0000
0001
0000
0000
0100
0000
0000
0000
0101
0000
0000
0000
0101
0000
0000
0000
0010
0000
0000
0000
1010
0000
,
0000
0000
0000
0000
1010
0000
0000
0000
0000
0000
0000
0000
1000
0000
0000
0000
0000
0000
0100
0000
0000
0000
0000
0000
0010
0000
0000
0000
0000
0000
0001
0000
0000
0100
0000
0000
0001
0000
0000
0000
0000
0000
0010
0000
0000
0000
0000
0000
,
0100
0000
1000
0000
0001
0000
0100
0000
0010
0000
1000
0000
0001
0100
0001
0100
,
0010
1000
0010
1000
0100
0000
0010
0000
0001
0000
1000
0100
1000
0000
0001
0000
,
0100
0000
0000
0000
0000
0000
0010
0000
0000
0000
0000
0000
1000
0000
0000
0100
0000
0000
0000
0000
0000
0100
0000
0000
0010
0000
0000
0000
0000
0000
0001
0000
0000
0000
0000
0000
1000
0000
0000
0000
0010
0000
0000
0000
1000
0000
0000
0000
,
0001
0000
0000
0000
0100
0000
0000
0000
0001
0000
0000
0000
0010
0000
0000
0000
0000
0000
0100
0000
0000
0000
0000
0000
1000
0000
0000
0000
0000
0000
0001
0000
0000
0100
0000
0000
0001
0000
0000
0000
0000
0000
1000
0000
0000
0000
0000
0000
,
0010
0000
1000
0000
0100
0000
0010
0000
0001
0000
0100
0000
0010
0000
1000
0001
,
1000
0001
1000
0001
1000
0000
0001
0100
0001
0100
0010
0000
1000
0010
1000
0010
,
0100
0000
0000
0001
0000
0000
0100
0000
0000
0001
0000
0000
1000
0000
0100
0000
0010
0000
0001
0000
0010
0000
0100
0000
,
1000
0010
0100
0010
1000
0000
0000
1000
0001
0000
0000
0001
0100
0000
0010
0000
,
0200
0000
0000
0000
0301
0010
0100
0001
,
0100
0000
1000
0000
0010
0000
0000
0010
1000
0000
0000
1000
0001
0010
0001
0000
,
2000
0000
0000
0000
3001
0100
0010
1000
,
0100
0000
1001
0000
1000
1010
0000
0001
,
0102
0000
0000
0000
1003
0010
0001
0010
,
1000
0000
0100
0000
0010
0000
0001
0000
0100
0010
0100
0000
0001
0000
0100
0000
,
0010
0000
0100
0000
0001
1000
0001
0000
0010
0000
0100
0000
0001
0000
0100
0000
,
1000
0000
0010
0000
1000
0000
0000
1000
0100
0000
0000
0100
0010
0000
0001
0000
,
0020
0000
0000
0000
0130
1000
0001
0100
,
1000
0000
0100
0000
0010
0000
0000
0010
1000
0000
0000
1000
0001
0100
0001
0000
,
2000
0000
0000
0000
,
3010
1000
1010
0000
0001
0101
0000
0100
,
0120
0000
0000
0000
1030
0100
0001
0100
,
1000
0000
0001
0000
0010
0000
0100
0000
0001
0100
0001
0000
0100
0000
1000
0000
,
0100
0000
0010
0000
0001
0100
0001
0000
0010
0000
1000
0000
0010
0000
0001
0000
,
0100
0010
1000
0000
1000
0000
1000
0000
,
1000
0000
0001
0000
0001
0000
0001
0100
,
0000
0010
0010
0010
,
0010
0000
0000
0000
0100
0000
0000
0000
0100
0000
0000
0000
0100
0000
0000
0010
,
1000
0000
0000
0100
0000
0000
0010
0000
0000
0000
0001
0000
0000
0000
1000
0000
0000
0000
0010
0000
0000
0000
0100
0000
,
0000
0001
0000
0010
0000
0100
0000
1000
0000
0100
0000
0010
,
0000
0001
0000
0000
0000
1000
0000
0010
0000
0100
0000
0001
,
0000
0100
0000
0010
0000
1000
0000
0001
0000
0010
0000
0100
,
0000
1000
0000
0000
0000
0000
0000
0000
0000
0000
0000
0000
;

//---------------dance-single - ----------------
#NOTES:
     dance-single:
     :
     Medium:
     8:
     0.556,0.593,0.236,0.126,0.076:
0000
0000
0000
0000
,
0000
0000
0000
0000
,
0001
0001
0001
0001
,
1000
0000
0000
0000
1000
0000
0000
0000
1000
0000
0000
1000
0001
0000
0100
0000
,
0010
0010
0010
0010
,
0100
0000
0100
0000
0100
0001
0000
0000
,
1000
1000
1000
1000
,
0001
0000
0000
0001
0000
0000
0001
0000
1000
0010
1000
0010
,
0000
0000
0000
0000
,
1001
0000
0000
1000
0010
0000
0200
0000
,
0000
0000
0000
0000
0301
0010
0100
0010
,
0001
0000
0000
0001
0100
0000
0020
0000
,
0000
0000
0000
0000
1030
0100
0010
0100
,
1000
0000
0000
1000
0010
0000
2000
0000
,
0000
0000
0000
0000
3001
0100
0010
1000
,
0010
0000
0000
0010
0100
0000
0002
0000
,
0000
0000
0003
1001
,
1000
0100
1000
0000
0001
1000
0010
0000
,
0100
0001
0100
0010
1000
0100
0010
0001
,
0000
0001
0010
0100
0010
0001
1000
0000
,
0001
0100
0010
0100
0001
0010
0100
1000
,
0001
0010
0001
0000
1000
0010
1000
0000
,
0001
0100
0010
1000
0100
0010
0001
0100
,
0001
0010
0001
0010
0100
1000
0020
0000
,
0000
1030
0001
0100
0001
0000
0010
0000
,
1100
0000
0000
0100
1000
0000
0000
1000
,
0001
0000
0000
0001
0100
0000
0000
0100
,
0010
0000
0000
0010
1000
0000
0000
0000
,
0001
0100
0001
0000
1000
0010
1000
0000
,
0100
0000
0000
0100
0010
0000
0000
0000
,
1000
0000
0001
0100
0001
0000
0000
0001
,
1000
0000
0000
1000
0010
0000
0000
0100
,
0001
0100
0010
0000
1000
0010
1000
0000
,
0101
0000
0000
0001
0010
0000
0000
0010
,
0100
0000
0000
0100
1000
0000
0000
1000
,
0010
0000
0000
0010
0100
0000
0000
0000
,
0100
0001
0000
0001
1000
0000
1001
0000
,
1000
0010
1000
0010
0100
0001
0101
0000
,
0001
0000
0000
0001
1000
0000
1000
0000
,
0010
0100
0020
0000
0000
0000
0000
0000
,
0000
1030
0100
0010
0001
0010
0100
1000
,
1010
0000
0000
0101
0000
0000
1000
0100
,
0010
0100
1000
0001
0010
0100
0010
0001
,
1001
0000
0000
0110
0000
0000
0001
0010
,
0100
0010
0001
1000
0100
0010
0001
0100
,
0110
0000
0000
1010
0000
0000
1000
0100
,
0001
0100
0010
0100
1000
0100
0010
0001
,
0101
0000
0000
1010
0000
0000
0001
0010
,
1000
0010
0100
0010
0001
0010
0100
0010
,
1000
0010
0001
0011
0000
0000
0000
0000
,
1000
0100
0001
0101
0000
0000
0000
0000
,
0000
0000
1000
0010
0100
0001
0100
0010
,
1000
0010
0100
0001
0100
0010
1000
0001
,
0000
0001
1000
0100
0010
1000
0010
0001
,
1000
0100
0010
1000
0010
0001
0100
0010
,
0100
0000
0000
0010
0000
0000
1000
0000
0000
0000
1000
0000
0000
0000
1000
0000
0000
0000
0001
0000
0000
0000
0001
0000
,
0000
0000
0001
0000
0000
0000
0100
0000
0000
0000
0000
0000
0000
0000
0000
0100
0000
0000
0001
0000
0000
0000
0000
0000
,
2000
0000
0000
0000
0000
0000
3001
0010
,
1000
0010
0001
0000
0000
0001
1000
0000
,
0020
0000
0000
0000
0000
0000
1030
0100
,
0010
0001
1000
0000
0000
1000
0010
0000
,
0200
0000
0000
0000
0000
0000
0301
1000
,
0010
1000
0001
0000
0000
1001
0000
0000
,
2200
0000
0000
0000
,
3300
0000
0000
0000
0001
0000
0000
0001
1000
0000
0000
1000
0010
0000
0100
0000
,
0020
0000
0000
0000
1030
0100
1000
0001
,
0100
0000
0010
0000
0100
0000
0000
0100
0001
0000
0000
0001
0010
0000
0100
0000
,
2000
0000
0000
0000
3001
0010
0100
0010
,
0001
0000
1001
0000
0000
1010
0000
0000
,
1100
0000
0000
0000
1000
0001
0100
0010
,
0100
0001
0100
0000
0000
0110
0000
0000
,
1010
0000
0000
0000
1000
0100
0010
0000
,
0100
0000
0000
0000
1000
0000
0000
1000
0001
0000
0000
0001
0100
0000
0010
0000
,
0200
0000
0000
0000
0301
0010
0100
0010
,
0001
0000
1000
0000
0010
0000
0000
0010
1000
0000
0000
1000
0100
0000
0010
0000
,
0002
0000
0000
0000
,
1003
0010
1000
0000
0000
0101
0000
0000
,
0011
0000
0000
0000
0001
0010
0100
0010
,
0001
1000
1100
0000
0000
1001
0000
0000
,
0110
0000
0000
0000
0001
0010
0100
0000
,
0010
0001
0001
0001
,
0001
0000
1000
0000
1000
0000
1000
0001
,
0000
0100
0100
0100
,
0100
0000
0000
0000
0010
0000
0000
0000
0010
0000
0000
0000
0010
0000
0000
0010
,
0100
0001
1000
0000
1000
0000
1000
0000
,
1000
0000
0001
0000
0001
0000
0001
1000
,
0000
0010
0010
0010
,
0010
0000
0000
0000
0100
0000
0000
0000
0100
0000
0000
0000
0100
0000
0000
0100
,
0001
0010
0000
0000
0000
0000
0000
0000
;

//---------------dance-single - ----------------
#NOTES:
     dance-single:
     :
     Easy:
     4:
     0.292,0.370,0.118,0.017,0.000: // measure 1
0000
0000
0000
0000
,  // measure 2
0000
0000
0000
0000
,  // measure 3
0000
0000
0000
0000
,  // measure 4
0000
0000
0000
0000
,  // measure 5
1000
1000
1000
1000
,  // measure 6
1000
1000
1000
0000
,  // measure 7
0001
0001
0001
0001
,  // measure 8
0001
0001
0001
0001
,  // measure 9
1001
0000
0000
0000
,  // measure 10
1000
0000
0000
0001
0000
0000
1000
0000
,  // measure 11
0000
0000
0001
0001
,  // measure 12
1000
0000
0000
0010
0000
0000
0100
0000
,  // measure 13
0000
0000
0010
0010
,  // measure 14
0100
0000
0000
0001
0000
0000
0010
0000
,  // measure 15
0000
0000
0100
0100
,  // measure 16
1000
0000
0000
0010
0000
0000
0100
0000
,  // measure 17
0000
0000
0000
0001
,  // measure 18
1000
1000
0010
0010
,  // measure 19
1000
0100
0010
0001
,  // measure 20
0000
0100
0010
0010
,  // measure 21
1000
0001
0100
0010
,  // measure 22
0000
1000
0100
0100
,  // measure 23
1000
0001
0100
0010
,  // measure 24
1000
0001
1000
0100
,  // measure 25
0000
0010
0001
1000
,  // measure 26
0001
0000
1000
0000
,  // measure 27
0010
0000
0100
0000
,  // measure 28
0001
0000
1000
0000
,  // measure 29
0100
0000
0010
0000
,  // measure 30
1001
0000
0010
0000
,  // measure 31
0000
1000
0001
0000
,  // measure 32
0100
0000
0010
0000
,  // measure 33
1000
1000
0001
0001
,  // measure 34
0100
0000
0010
0000
,  // measure 35
1000
0000
0001
0000
,  // measure 36
0100
0000
0010
0000
,  // measure 37
1000
0000
0001
0000
,  // measure 38
1000
0000
0100
0000
,  // measure 39
0010
0000
0001
0000
,  // measure 40
0100
0200
0000
0000
,  // measure 41
0301
0001
1000
1000
,  // measure 42
0110
0000
0000
0110
0000
0000
0000
0000
,  // measure 43
0000
0000
0000
0000
,  // measure 44
1001
0000
0000
1001
0000
0000
0000
0000
,  // measure 45
0000
0000
0000
0000
,  // measure 46
1100
0000
0000
1100
0000
0000
0000
0000
,  // measure 47
0000
0000
0000
0000
,  // measure 48
0011
0000
0000
0011
0000
0000
0000
0000
,  // measure 49
0000
0000
0000
0000
,  // measure 50
0001
0000
0000
1001
0000
0000
0000
0000
,  // measure 51
1000
0000
0000
1001
0000
0000
0000
0000
,  // measure 52
0000
0000
0001
0000
0000
0001
0000
0000
,  // measure 53
1000
0000
0000
1000
0000
0000
0010
0000
,  // measure 54
0010
0000
0100
0000
0000
0100
0000
0000
,  // measure 55
0010
0000
0000
0010
0000
0000
1000
0000
,  // measure 56
1000
0001
0000
0000
,  // measure 57
0000
0000
1000
0000
0000
0001
0000
0000
,  // measure 58
0100
0000
0000
0001
,  // measure 59
0001
0000
0100
0000
0000
0010
0000
0000
,  // measure 60
1000
0000
0000
0100
,  // measure 61
0100
0000
1000
0000
0000
0100
0000
0000
,  // measure 62
0010
0000
0000
0001
,  // measure 63
0001
0000
0100
0000
0000
0010
0000
0000
,  // measure 64
2000
0000
0000
0000
,  // measure 65
3000
0001
0100
0001
,  // measure 66
0100
0000
0010
1000
,  // measure 67
0010
1000
0100
0010
,  // measure 68
0001
0000
1000
0001
,  // measure 69
0100
0000
0010
0000
0000
0010
0000
0000
,  // measure 70
0010
0000
1000
0001
,  // measure 71
0100
0010
1000
0100
,  // measure 72
0010
0001
0010
0100
,  // measure 73
1000
0001
0100
0010
,  // measure 74
0100
0000
0001
1000
,  // measure 75
0100
0010
0100
1000
,  // measure 76
0010
0000
0000
0000
,  // measure 77
1000
0000
0001
0000
0000
0001
0000
0000
,  // measure 78
0001
0000
1000
0001
,  // measure 79
0100
0010
1000
0010
,  // measure 80
0100
0001
0010
0100
,  // measure 81
1000
0001
0001
0001
,  // measure 82
0001
1000
1000
1000
,  // measure 83
0000
0010
0010
0010
,  // measure 84
0010
0100
0100
0100
,  // measure 85
0110
1000
1000
1000
,  // measure 86
1000
0001
0001
0001
,  // measure 87
0000
0100
0100
0100
,  // measure 88
0100
0010
0010
0010
,  // measure 89
0110
0000
0000
0000
;
