#TITLE:Crawling In My Baby One More Time;
#SUBTITLE:;
#ARTIST:MC Fresh Dawg 3000;
#TITLETRANSLIT:;
#SUBTITLETRANSLIT:;
#ARTISTTRANSLIT:;
#GENRE:;
#CREDIT:;
#BANNER:[Mash-up] - Crawling In My Baby One More Time.png;
#BACKGROUND:[Mash-up] - Crawling In My Baby One More Time-bg.png;
#LYRICSPATH:;
#CDTITLE:cdtitle.png;
#MUSIC:Crawling In My Baby One More Time.ogg;
#OFFSET:0.010000;
#SAMPLESTART:43.896881;
#SAMPLELENGTH:20.649597;
#SELECTABLE:YES;
#BPMS:0.000000=92.980003
;
#STOPS:
;
#BGCHANGES:;
#KEYSOUNDS:;
#ATTACKS:;

//---------------dance-single - S-EXPERT----------------
#NOTES:
     dance-single:
     xRGTMx-ESP:
     Hard:
     7:
     0.419634,0.358506,0.138776,0.150341,0.132994,229.000000,12.000000,13.000000,0.000000,0.000000,0.000000,0.419634,0.358506,0.138776,0.150341,0.132994,229.000000,12.000000,13.000000,0.000000,0.000000,0.000000:
// measure 0
0000
0000
0000
0000
,  // measure 1
1001
1000
0100
1000
0001
0002
0103
0001
,  // measure 2
1000
0000
1000
0000
0010
0000
1000
0001
0010
0000
0001
0100
0010
0100
0010
0000
,  // measure 3
1000
0000
1000
0000
0100
0000
1000
0000
0010
0000
0010
0000
0100
0010
0100
0000
,  // measure 4
0001
0010
0200
0000
0310
0000
1001
0000
,  // measure 5
0110
1000
0001
0001
0010
0010
0100
0100
,  // measure 6
1000
1000
0010
0010
1000
0002
0013
0002
,  // measure 7
0103
0000
0100
0000
0010
1000
0010
0000
0100
0000
0001
0000
1000
0100
1000
0000
,  // measure 8
0001
0000
0001
0000
0010
0000
0001
0000
1000
0000
0010
0100
0010
0100
0010
0000
,  // measure 9
1000
0100
0010
0010
0001
0001
1000
1000
,  // measure 10
0010
0010
1000
0100
0010
0200
1300
0002
,  // measure 11
1003
0000
1000
0000
0001
0100
0001
0000
0010
0000
0010
0000
0100
1000
0100
0000
,  // measure 12
0010
0000
0010
0000
0001
0000
1000
0000
0010
0000
0100
0001
1000
0001
0100
0000
,  // measure 13
0002
0010
0010
0000
1000
0000
0100
0000
,  // measure 14
0103
0200
0010
0000
1000
0000
0001
0000
,  // measure 15
0320
0100
0100
0000
0001
0000
0100
0000
,  // measure 16
2030
0000
0100
0000
3001
0011
1100
0110
,  // measure 17
1001
1000
0001
0100
0001
0001
1000
0100
,  // measure 18
1000
0001
1000
0000
0010
0000
1000
0000
0001
1000
0001
0000
0010
0000
0001
0000
,  // measure 19
0100
0010
0100
0100
0001
0001
1000
0100
,  // measure 20
0010
0000
0100
1000
0100
0000
1000
0000
0010
0000
1000
0000
0001
0010
0100
0000
,  // measure 21
1001
0001
1000
0100
1000
1000
0001
0100
,  // measure 22
0001
1000
0001
0000
0010
0000
0001
0000
1000
0000
1000
0000
0010
0000
0100
0000
,  // measure 23
1010
0011
0100
0100
1000
1000
0001
0100
,  // measure 24
0220
0000
0000
0000
0330
0100
0010
0000
,  // measure 25
1001
1000
0100
0100
0001
0001
0100
0100
,  // measure 26
1000
0000
0001
0000
0100
0000
0100
0000
0010
0000
1000
0100
1000
0001
0100
0000
,  // measure 27
0010
0010
1000
0100
0010
0010
0001
0100
,  // measure 28
0010
0000
1000
0000
0100
1000
0001
0010
0001
0000
1000
0100
0001
0100
1000
0000
,  // measure 29
0002
0000
0000
0000
,  // measure 30
0000
0000
0000
0000
,  // measure 31
0003
0000
0000
0000
;

//---------------dance-single - S-DIFFICULT----------------
#NOTES:
     dance-single:
     xRGTMx-DSP:
     Medium:
     4:
     0.213121,0.215104,0.034694,0.104082,0.000000,117.000000,3.000000,9.000000,0.000000,0.000000,0.000000,0.213121,0.215104,0.034694,0.104082,0.000000,117.000000,3.000000,9.000000,0.000000,0.000000,0.000000:
0000
0000
0000
0000
,
1000
1000
0001
0001
,
1000
0000
0001
0000
0000
0100
0010
0010
,
1000
1000
0001
0001
,
1000
0200
0310
0110
,
1001
1000
0001
0001
,
0100
0100
0001
1000
,
0001
0001
0010
0010
,
0001
0000
1000
0000
0000
0010
0100
0100
,
0010
1000
1000
0001
,
0010
0001
0001
1000
,
0100
0100
0010
0010
,
0001
0000
1000
0000
0000
0010
0100
0100
,
0020
1030
2000
3100
,
0200
0310
0020
0031
,
0002
1003
2000
3001
,
0001
0000
0100
0000
0000
0001
1000
1000
,
0001
0010
0010
1000
,
0001
0010
0010
1000
,
0001
0100
0100
1000
,
0001
0100
0100
1000
,
1000
0010
0010
0001
,
1000
0100
0100
0001
,
1000
0100
0010
0001
,
0200
0000
0000
0310
,
1001
1000
0100
0100
,
1000
0000
1000
0000
0000
0001
0100
0100
,
0001
0001
1000
1000
,
0100
0000
0100
0000
0000
0010
0001
1000
,
0002
0000
0000
0000
,
0000
0000
0000
0000
,
0003
0000
0000
0000
;

//---------------dance-single - S-BASIC----------------
#NOTES:
     dance-single:
     xRGTMx-BSP:
     Easy:
     1:
     0.066084,0.067075,0.046259,0.023129,0.000000,34.000000,4.000000,2.000000,0.000000,0.000000,0.000000,0.066084,0.067075,0.046259,0.023129,0.000000,34.000000,4.000000,2.000000,0.000000,0.000000,0.000000:
0000
0000
0000
0000
,
0000
0010
0000
0010
,
0000
0010
0000
0000
,
0000
0100
0000
0100
,
0000
0100
0000
0000
,
0001
0000
0000
0000
,
0001
0000
0000
0000
,
1000
0000
0000
0000
,
1000
0000
0000
0000
,
0001
0000
0000
0000
,
0001
0000
0000
0000
,
1000
0000
0000
0000
,
1000
0000
0000
0000
,
0020
0030
0000
0000
,
0000
0000
0000
0000
,
0200
0300
0000
0000
,
0000
0000
0000
0000
,
1001
0000
0000
0000
,
1000
0000
1000
0000
,
0001
0000
0001
0000
,
1000
0000
0000
0000
,
0110
0000
0000
0000
,
0010
0000
0010
0000
,
0100
0000
0100
0000
,
0010
0000
0000
0000
,
1001
0000
0000
0000
,
0000
0010
0000
0010
,
0000
0000
0000
0100
,
0000
0100
0000
0000
,
1001
0000
0000
0000
;

//---------------dance-single - BEGINNER----------------
#NOTES:
     dance-single:
     xRGTMx-BEG:
     Beginner:
     1:
     0.039650,0.050306,0.046259,0.000000,0.000000,20.000000,4.000000,0.000000,0.000000,0.000000,0.000000,0.039650,0.050306,0.046259,0.000000,0.000000,20.000000,4.000000,0.000000,0.000000,0.000000,0.000000:
0000
0000
0000
0000
,
0010
0000
0000
0000
,
0010
0000
0000
0000
,
0100
0000
0000
0000
,
0100
0000
0000
0000
,
0001
0000
0000
0000
,
0000
0000
0000
0000
,
1000
0000
0000
0000
,
0000
0000
0000
0000
,
0001
0000
0000
0000
,
0000
0000
0000
0000
,
1000
0000
0000
0000
,
0000
0000
0000
0000
,
0010
0000
0000
0000
,
0000
0000
0000
0000
,
0100
0000
0000
0000
,
0000
0000
0000
0000
,
1001
0000
0000
0000
,
0000
0000
0000
0000
,
1000
0000
0000
0000
,
0001
0000
0000
0000
,
0110
0000
0000
0000
,
0000
0000
0000
0000
,
0100
0000
0000
0000
,
0010
0000
0000
0000
,
1001
0000
0000
0000
,
0000
0000
0000
0000
,
0010
0000
0000
0000
,
0100
0000
0000
0000
,
1001
0000
0000
0000
;
