#TITLE:ChiraliTROOPERS;
#SUBTITLE:;
#ARTIST:かめりあ REASM Des-TRACT/msh.t7r;
#TITLETRANSLIT:;
#SUBTITLETRANSLIT:;
#ARTISTTRANSLIT:Camellia REASM Des-TRACT/msh.t7r;
#GENRE:;
#CREDIT:;
#MENUCOLOR:;
#METERTYPE:DDR;
#BANNER:[Mash-up] - ChiraliTROOPERS.png;
#BACKGROUND:[Mash-up] - ChiraliTROOPERS-bg.png;
#LYRICSPATH:;
#CDTITLE:./CDTITLES/NONE.PNG;
#MUSIC:[Mash-up] - ChiraliTROOPERS.mp3;
#OFFSET:-0.393;
#SAMPLESTART:29.000;
#SAMPLELENGTH:15.000;
#SELECTABLE:YES;
#LISTSORT:;
#BPMS:0.000=201.000;
#STOPS:287.500=0.298507
,353.000=0.298507
;
#BGCHANGES:;
#ATTACKS:;

//---------------dance-single - ----------------
#NOTES:
     dance-single:
     :
     Beginner:
     2:
     0.123,0.155,0.000,0.000,0.000:
0000
0000
0000
0000
,
0000
0000
0000
0000
,
0000
0000
0000
0000
,
0000
0000
0000
0000
,
0000
0000
0000
0000
,
0000
0000
0000
0000
,
0000
0000
0000
0000
,
0000
0000
0000
0000
,
1000
0000
0000
0000
,
1000
0000
0000
0000
,
0001
0000
0000
0000
,
0001
0000
0000
0000
,
0010
0000
0000
0000
,
0010
0000
0000
0000
,
0100
0000
0000
0000
,
0100
0000
0000
0000
,
1000
0000
0000
0000
,
1000
0000
0000
0000
,
0001
0000
0000
0000
,
0001
0000
0000
0000
,
0100
0000
0000
0000
,
0100
0000
0000
0000
,
0010
0000
0000
0000
,
0010
0000
0000
0000
,
1000
0000
0000
0000
,
0001
0000
0000
0000
,
1000
0000
0000
0000
,
0100
0000
0000
0000
,
0010
0000
0000
0000
,
0001
0000
0000
0000
,
0100
0000
0000
0000
,
0010
0000
0000
0000
,
1000
0000
1000
0000
,
1000
0000
0000
0000
,
0001
0000
0001
0000
,
0001
0000
0000
0000
,
0100
0000
0100
0000
,
0100
0000
0000
0000
,
0010
0000
0010
0000
,
0010
0000
0000
0000
,
1000
0000
0001
0000
,
1000
0000
0000
0000
,
0001
0000
1000
0000
,
0001
0000
0000
0000
,
0010
0000
0100
0000
,
0010
0000
0000
0000
,
0100
0000
0010
0000
,
0100
0000
0000
0000
,
1000
0000
0000
0000
,
0001
0000
0000
0000
,
0100
0000
0000
0000
,
0010
0000
0000
0000
,
1000
0000
0000
0000
,
0001
0000
0000
0000
,
1000
0000
0000
0000
,
0001
0000
0000
0000
,
1000
0000
0000
0000
,
1000
0000
0000
0000
,
0001
0000
0000
0000
,
0001
0000
0000
0000
,
0100
0000
0000
0000
,
0100
0000
0000
0000
,
0010
0000
0000
0000
,
0010
0000
0000
0000
,
1000
0000
1000
0000
,
1000
0000
0000
0000
,
0001
0000
0001
0000
,
0001
0000
0000
0000
,
0100
0000
0100
0000
,
0100
0000
0000
0000
,
0010
0000
0010
0000
,
0010
0000
0000
0000
,
0000
0001
0000
0001
,
0000
0000
0000
1000
,
0000
1000
0000
1000
,
0000
0000
0000
0010
,
0000
0010
0000
0010
,
0000
0000
0000
0100
,
0000
0000
0000
0100
,
0000
0000
0000
0001
,
0000
0000
0000
1000
,
0000
0000
0000
0001
,
0000
0000
0000
1000
,
0000
1000
0000
1000
,
0000
0000
0000
0100
,
0000
0000
0000
0010
,
0000
0000
0000
0100
,
0000
0100
0000
0010
,
0000
0010
0000
0000
;

//---------------dance-single - ----------------
#NOTES:
     dance-single:
     :
     Easy:
     5:
     0.311,0.408,0.088,0.114,0.000:
0000
0000
0000
0000
,
0000
0000
0000
0000
,
0000
0000
0000
0000
,
0000
0000
0000
0000
,
0000
0000
0000
0000
,
0000
0000
0000
0000
,
0000
0000
0000
0000
,
0000
0000
0000
0000
,
0010
0000
0000
0000
0000
0100
0000
0200
,
0000
0000
0000
0300
,
0001
0000
0000
0000
0000
1000
0000
2000
,
0000
0000
0000
3000
,
1000
0000
0000
0000
0000
0001
0000
0002
,
0000
0000
0000
0003
,
0100
0000
0000
0000
0000
0100
0000
0020
,
0000
0000
0000
0030
,
1000
0000
0001
0000
,
1000
0100
0010
0001
,
0100
0000
0010
0000
,
0100
0001
1000
0010
,
1000
0000
0001
0000
,
1000
0100
1000
0001
,
0100
0000
0010
0000
,
0100
0000
0001
0000
,
1001
0000
0010
0000
,
1000
0001
1000
0000
,
0001
0000
0010
0000
,
0001
1000
0001
0000
,
0110
0000
0100
0000
,
0010
0100
0001
0000
,
1000
0000
0100
0000
,
0010
0100
1000
0000
,
1000
1000
0100
0100
,
1000
1000
0010
0000
,
0100
0100
0001
0001
,
0010
0010
0001
0000
,
1000
1000
0001
0001
,
0100
0100
0010
0000
,
0100
0100
0001
0001
,
0010
0010
0001
0000
,
1000
0000
0000
0001
0000
0000
1000
0000
,
0000
1001
0000
0000
0000
0000
0000
0000
,
0001
0000
0000
1000
0000
0000
0001
0000
,
0000
0110
0000
0000
0000
0000
0000
0000
,
0010
0000
0000
0100
0000
0000
0001
0000
,
0000
0011
0000
0000
0000
0000
0000
0000
,
0100
0000
0000
1000
0000
0000
0010
0000
,
0000
1010
0000
0000
1000
0000
0001
0000
,
2000
0000
0000
0000
0000
3100
0000
0100
,
0000
0000
0000
0000
,
0020
0000
0000
0000
0000
0031
0000
0001
,
0000
0000
0000
0000
,
0200
0000
0000
0000
0000
0310
0000
0010
,
0000
0000
0000
0000
,
2000
0000
0000
0000
0000
3001
0000
0001
,
1000
0000
1001
0000
,
0110
0000
0001
0000
,
0100
0100
0001
0001
,
0010
0000
0100
0000
,
1000
1000
0100
0010
,
0200
0000
1300
0000
,
0001
0100
0010
0010
,
0200
0000
0301
0000
,
1000
0000
0001
0000
,
1000
1000
0001
0001
,
0100
0100
0010
0010
,
0100
0100
0001
0001
,
1000
1000
0010
0010
,
1000
0000
0001
0000
,
0100
0000
0010
0000
,
1000
1000
0100
0100
,
0010
0000
0010
0000
0001
0000
0002
0003
,
1000
0001
0000
1000
,
1000
0010
0010
0100
,
0001
0010
0000
0001
,
0001
0010
0010
0100
,
1000
0010
0000
0100
,
0100
0001
0001
1000
,
0000
0001
0000
1000
,
0000
1001
0000
0010
,
0010
0010
0010
0100
,
0100
0100
0100
0001
,
0001
0001
0001
1000
,
1000
1000
1000
0010
,
1000
0100
0010
0001
,
0100
0010
1000
0001
,
0010
0100
1000
0001
,
0010
0100
1000
0001
,
0001
0001
0220
0000
,
0000
0000
0000
0000
,
0000
0000
0000
0000
,
0000
0000
0000
0000
,
0000
0000
0000
0330
;

//---------------dance-single - ----------------
#NOTES:
     dance-single:
     :
     Medium:
     7:
     0.484,0.572,0.150,0.150,0.009:
0000
0000
0000
0000
,
0000
0000
0000
0000
,
0000
0000
0000
0000
,
0000
0000
0000
0000
,
0000
0000
0000
0000
,
0000
0000
0000
0000
,
0000
0000
0000
0000
,
0000
0000
0000
0000
,
1001
0000
0000
0000
0010
0100
0000
0200
,
0000
0000
0000
0300
,
1001
0000
0000
0000
0100
0010
0000
0020
,
0000
0000
0000
0030
,
0011
0000
0000
0000
0100
1000
0000
2000
,
0000
0000
0000
3000
,
1010
0000
0000
0000
0100
0001
0000
0001
,
1000
0000
1001
0000
,
0010
0100
0000
0100
0001
0000
0100
0000
,
0001
0010
0100
1000
,
0100
1000
0000
1000
0010
0000
1000
0000
,
0010
1000
0100
0001
,
0100
0010
0000
0010
0001
0000
0100
0000
,
0010
1000
0001
0100
,
0010
1000
0000
1000
0010
0000
1000
0000
,
0002
0000
2000
3003
,
0010
1000
0000
0001
0100
0000
0001
0000
,
0010
0001
0100
1000
,
0100
0010
0000
0100
1000
0000
0100
0000
,
0010
1000
0100
0001
,
0110
0001
0000
0001
,
0100
0100
0000
0100
0010
0000
1000
0000
,
0001
1000
0000
1000
,
0020
0230
0302
0003
,
1000
0100
0000
0010
0001
1000
0000
0010
,
1000
0001
0000
0100
0000
0100
0000
0100
,
0001
1000
0000
0001
0010
0100
0000
0010
,
0001
1000
0000
0010
0000
0010
0000
1000
,
0010
0100
0000
0010
0100
0001
0000
1000
,
0100
0010
0000
0100
0000
0100
0000
0100
,
1000
0001
0000
0100
0001
0010
0000
0100
,
1000
0010
0000
2000
0000
0000
3001
0000
,
1000
1000
0000
0001
0001
0000
0100
0100
,
0000
0010
0010
0000
0100
0000
0110
0000
,
0001
0001
0000
0010
0010
0000
0100
0100
,
0000
1000
1000
0000
0010
0000
0110
0000
,
1000
1000
0000
0010
0010
0000
0100
0100
,
0000
0001
0001
0000
1000
0000
1100
0000
,
0001
0001
0000
0100
0100
0000
0010
0010
,
1000
0000
0001
0000
1000
0001
0000
1000
,
0200
0000
0000
0000
0310
0100
0000
0100
,
0000
0000
0000
0000
,
2000
0000
0000
0000
3001
1000
0000
1000
,
0000
0000
0000
0000
,
0020
0000
0000
0000
0130
0010
0000
0010
,
0000
0000
0000
0000
,
0200
0000
0000
0000
0301
0100
0000
0100
,
0001
0000
1001
0000
,
1000
0100
1000
0000
0100
0000
0100
0000
,
0010
0001
0100
1000
,
0100
0001
0100
0000
0001
0000
0010
0000
,
0100
1000
0010
0001
,
0110
1000
1000
1000
,
0100
0010
0000
0010
0100
0000
1000
0000
,
0001
0100
0000
0100
,
0001
0010
0200
0300
,
0010
0001
0000
1000
0010
0000
1000
0001
,
0000
1000
0100
0000
0010
0100
1000
0000
,
0010
1000
0000
0001
1000
0000
0100
1000
,
0000
0010
0100
0000
0001
0010
0100
0000
,
0010
0001
0000
1000
0100
0000
0001
0100
,
0000
1000
0010
0000
0001
0010
1000
0000
,
0010
0000
0000
0100
0000
0000
0100
0000
0001
0000
0000
1000
0000
0000
1000
0000
,
0001
0000
0010
0200
0000
1300
0100
0010
,
0001
0010
0100
0000
1000
0010
0000
0100
,
0001
0000
0010
0100
1000
0000
0010
0100
,
0000
0001
0100
0000
1000
0100
0000
0001
,
0010
0000
0100
1000
0010
0000
1000
0100
,
0000
0001
0100
0000
1000
0010
0000
0001
,
0010
0000
1000
0100
0001
0000
1100
0000
,
0100
0101
0100
1010
,
0010
0000
0011
0000
0010
0000
1000
0010
,
0000
1000
0001
1000
1000
0000
0001
0000
,
0001
0001
1000
0001
0000
0001
0010
0000
,
0100
0000
0010
0001
0000
1000
0100
0000
,
0010
0100
0000
0100
0000
0100
1000
0000
,
0100
0000
0010
0001
0000
0001
0100
0000
,
0100
0100
0010
0100
0000
0100
0001
0000
,
1000
0000
0010
1000
0000
0001
0000
0100
,
0001
0000
1000
0000
0001
1000
0001
0000
,
1000
1001
0220
0000
,
0000
0000
0000
0000
,
0000
0000
0000
0000
,
0000
0000
0000
0000
,
0000
0000
0000
0330
;

//---------------dance-single - ----------------
#NOTES:
     dance-single:
     :
     Hard:
     9:
     0.676,0.776,0.405,0.114,0.136: // measure 1
0000
0000
0000
0000
,  // measure 2
0000
0000
0000
0000
,  // measure 3
0000
0000
0000
0000
,  // measure 4
0000
0000
0000
0000
,  // measure 5
0000
0000
0000
0000
,  // measure 6
0000
0000
0000
0000
,  // measure 7
0000
0000
0000
0000
,  // measure 8
0000
0000
0000
0000
,  // measure 9
1100
0000
0000
0000
0001
0010
0000
1100
,  // measure 10
0000
0000
0000
0000
0001
1000
0001
0000
,  // measure 11
0101
0000
0000
0000
1000
0010
0000
0101
,  // measure 12
0000
0000
0000
2000
0000
0000
3001
0000
,  // measure 13
1100
0000
0000
0000
0001
0010
0000
0101
,  // measure 14
0000
0000
0000
0000
0010
0100
0010
0000
,  // measure 15
0110
0000
0000
0000
0001
1000
0000
1100
,  // measure 16
0001
0000
1000
0000
0001
1000
0100
0000
,  // measure 17
1000
0000
0010
0000
0010
0000
0000
0000
0100
0000
0000
0100
0000
0000
0100
0000
,  // measure 18
0001
0010
0100
0000
1000
0010
0100
0000
,  // measure 19
0001
0000
0010
0000
0001
0000
0000
0000
1000
0000
0000
1000
0000
0000
1000
0000
,  // measure 20
0010
0000
1000
0000
0100
0000
0000
1000
0001
0000
0000
0000
0110
0000
0000
0000
,  // measure 21
0001
0000
0100
0000
0010
0000
0000
0000
0100
0000
0000
0100
0000
0000
0100
0000
,  // measure 22
0001
1000
0100
0100
1000
0001
1000
0000
,  // measure 23
0100
0000
0010
0000
0010
0000
0000
0000
0001
0000
0000
0001
0000
0000
0001
0000
,  // measure 24
1000
0010
0200
0000
0301
0010
0200
0000
,  // measure 25
1300
0000
0001
0000
0001
0000
0000
0001
0010
0000
0000
0010
0000
0000
0010
0000
,  // measure 26
0001
0100
0010
0000
1000
0100
0010
0000
,  // measure 27
0001
0000
1000
0000
1000
0000
0000
1000
0100
0000
0000
0100
0000
0000
0100
0000
,  // measure 28
1000
0000
0010
0000
1000
0000
0001
1000
0001
0000
0000
0000
0110
0000
0000
0000
,  // measure 29
1001
0000
0000
0100
0000
0000
0100
0000
0010
0000
0100
0000
0010
0000
0000
0000
,  // measure 30
0100
0001
0100
0000
0001
0000
1000
0000
0001
0000
0000
0000
1010
0000
0000
0000
,  // measure 31
1000
0010
0001
0000
0001
0010
1000
0100
,  // measure 32
0001
1100
1000
0101
,  // measure 33
0010
0010
1000
0001
0100
0001
0010
0010
,  // measure 34
0001
0001
0010
0100
1000
0100
0010
0000
,  // measure 35
1000
1000
0100
1000
0010
0100
0001
0001
,  // measure 36
0100
0100
0010
0001
1000
0010
0100
0000
,  // measure 37
0010
0010
0100
0100
0001
1000
0001
0001
,  // measure 38
0010
0010
0001
0100
1000
0100
0010
0000
,  // measure 39
0100
0100
1000
0100
0010
1000
0001
0010
,  // measure 40
0100
0100
0001
0001
0100
0010
0001
0000
,  // measure 41
1100
0100
0000
0001
0001
0000
0100
0010
,  // measure 42
0000
1100
0002
0000
0100
0000
0103
0000
,  // measure 43
0101
0100
0000
1000
1000
0000
0100
0010
,  // measure 44
0000
0011
2000
0000
0010
0000
3001
0000
,  // measure 45
1010
0010
0000
0001
0001
0000
0011
1000
,  // measure 46
0000
1010
0200
0000
1000
0000
0310
0000
,  // measure 47
0101
0010
0000
1100
0010
0000
0110
1000
,  // measure 48
0000
0110
0001
0000
1000
0001
0000
1000
,  // measure 49
0020
0000
0000
0000
1030
0100
0000
1100
,  // measure 50
0000
0000
0100
0100
,  // measure 51
0020
0000
0000
0000
0031
0100
0000
0101
,  // measure 52
0000
0000
0010
0010
,  // measure 53
1000
0100
0010
0000
1100
0100
0000
0100
,  // measure 54
0000
0000
1000
1000
,  // measure 55
0001
0100
0010
0000
0101
0100
0000
0100
,  // measure 56
0010
0000
0110
0000
,  // measure 57
0001
0000
0100
0000
0100
0000
0000
0100
0001
0000
0000
1000
0000
0000
0001
0000
,  // measure 58
0010
0100
1000
0000
0010
0100
0001
0000
,  // measure 59
1000
0000
0010
0000
0010
0000
0000
1000
0100
0000
0000
1000
0000
0000
0001
0000
,  // measure 60
1000
0000
0000
0000
0010
0000
0100
0010
1000
0000
0000
0000
1010
0000
0000
0000
,  // measure 61
0101
0000
0000
0100
0000
0000
0100
0000
0001
0000
0010
0000
0100
0000
0000
0000
,  // measure 62
1000
0010
1000
0000
0100
0000
1000
0000
0001
0000
1000
0000
1000
0000
0000
0000
,  // measure 63
0110
0000
0000
0000
0001
0000
0000
0000
0100
0000
0000
0010
0000
0000
1000
0000
,  // measure 64
0010
0010
1000
0000
0001
0001
0100
0000
,  // measure 65
1000
0100
0010
0100
1000
0000
0001
0100
,  // measure 66
0010
0100
0001
0000
1000
0010
0001
0010
,  // measure 67
1000
0100
0010
0100
0001
0000
0001
0100
,  // measure 68
0010
0100
1000
0000
0010
1000
0001
0100
,  // measure 69
1000
0100
0001
0100
0010
0000
0001
0100
,  // measure 70
1000
0100
0010
0000
0100
1000
0010
0001
,  // measure 71
0010
0000
0000
0010
1000
0000
0001
0000
1000
0000
0000
1000
0100
0000
0010
0000
,  // measure 72
0100
0000
1000
0001
1000
0000
0002
0000
0000
0000
0103
0000
0010
0000
2000
3000
,  // measure 73
0010
0100
0001
0000
1000
0010
0001
0010
,  // measure 74
1000
0000
0100
0010
0001
0100
1000
0100
,  // measure 75
0010
1000
0001
0000
1000
0100
0001
0100
,  // measure 76
0010
0000
0001
0010
0100
1000
0010
0100
,  // measure 77
0001
0100
0010
0000
0100
0010
1000
0100
,  // measure 78
0001
0000
0000
0000
0010
0000
1000
0000
0001
0000
0100
0000
0001
0000
0000
0001
,  // measure 79
0010
0000
0100
0000
1000
0000
0000
1000
0010
0000
0100
0000
0001
0000
1000
0001
,  // measure 80
0000
0100
0001
0000
1000
0000
0001
1000
0000
0100
1000
0000
0110
0000
0010
0000
,  // measure 81
0000
0001
0100
1000
1000
0000
0110
0000
,  // measure 82
1000
0100
0001
0100
0000
1000
1010
0000
,  // measure 83
0001
0000
0001
0010
0000
0010
0011
0000
,  // measure 84
1000
0100
0001
0100
0000
1000
1100
0000
,  // measure 85
0100
0000
0110
0001
0000
0100
0101
0000
,  // measure 86
0010
0010
0100
0010
0000
1000
0001
0000
,  // measure 87
0011
0000
1100
0010
0000
0101
0000
0100
,  // measure 88
1100
0000
0000
0000
0011
0000
1000
0000
0100
0000
0001
0000
0100
0000
0010
0001
,  // measure 89
1000
0000
0010
1000
0002
0003
0000
0000
0220
0000
0000
0000
0000
0000
0000
0000
,  // measure 90
0000
0000
0000
0000
,  // measure 91
0000
0000
0000
0000
,  // measure 92
0000
0000
0000
0000
,  // measure 93
0000
0000
0000
0330
;
