#TITLE:Bad Battery Romance;
#SUBTITLE:;
#ARTIST:Sega & Lady Gaga;
#TITLETRANSLIT:;
#SUBTITLETRANSLIT:;
#ARTISTTRANSLIT:;
#GENRE:;
#CREDIT:;
#BANNER:[Mash-up] - Bad Battery Romance.png;
#BACKGROUND:[Mash-up] - Bad Battery Romance-bg.png;
#LYRICSPATH:;
#CDTITLE:cdtitle.png;
#MUSIC:[Mash-up] - Bad Battery Romance.ogg;
#OFFSET:0.192000;
#SAMPLESTART:46.594074;
#SAMPLELENGTH:13.200000;
#SELECTABLE:YES;
#BPMS:0.000000=144.000000
;
#STOPS:
;
#BGCHANGES:;
#KEYSOUNDS:;
#ATTACKS:;

//---------------dance-single - ----------------
#NOTES:
     dance-single:
     :
     Challenge:
     9:
     0.627876,0.554702,0.108254,0.497970,0.248985,350.000000,10.000000,46.000000,0.000000,0.000000,0.000000,0.627876,0.554702,0.108254,0.497970,0.248985,350.000000,10.000000,46.000000,0.000000,0.000000,0.000000:
// measure 0
0000
0000
0000
0000
,  // measure 1
0000
0000
0000
0000
,  // measure 2
0000
0000
0000
0000
,  // measure 3
0000
0000
0000
0000
,  // measure 4
0000
0000
0000
0000
0000
0000
0000
0000
0001
0000
0100
0000
0010
0000
1000
0010
,  // measure 5
1000
0000
0100
0000
0010
0000
0001
0010
0001
0000
0100
0000
0010
0000
1000
0010
,  // measure 6
1000
0000
0100
0000
1000
0000
0010
0000
1000
0000
0100
0000
0010
0000
0001
0010
,  // measure 7
0001
0000
0100
0000
0010
0000
1000
0010
1000
0000
0100
0000
0010
0000
0001
0010
,  // measure 8
0002
0000
1000
0000
1003
0000
0000
0000
1000
0000
0100
0000
0010
0000
0001
0010
,  // measure 9
0001
0000
0100
0000
0010
0000
1000
0010
1000
0000
0100
0000
0010
0000
0001
0010
,  // measure 10
0001
0000
0100
0000
0001
0000
0010
0000
0001
0000
0100
0000
0010
0000
1000
0010
,  // measure 11
1000
0000
0100
0000
0010
0000
0001
0010
0001
0000
0100
0000
0010
0000
1000
0010
,  // measure 12
2000
0001
3001
0000
1000
0100
0010
0100
,  // measure 13
0010
0001
0000
0001
0100
1000
0100
0001
,  // measure 14
1000
0000
1001
0000
1000
0100
0001
0100
,  // measure 15
1000
0010
0001
0010
1000
0100
0010
0001
,  // measure 16
0000
0001
1000
0001
2000
0000
3002
0000
,  // measure 17
0100
0000
0000
0100
0000
0000
0103
0000
0110
0000
0000
0000
0110
0000
0000
0000
,  // measure 18
0100
0010
1000
0001
1000
0100
0010
0000
,  // measure 19
0001
0100
0010
0000
1000
0100
0001
0000
,  // measure 20
1000
0010
0001
0000
0001
0100
0010
0100
,  // measure 21
0010
1000
0000
1000
0100
0001
0100
1000
,  // measure 22
0001
0000
1001
0000
0001
0100
1000
0100
,  // measure 23
0001
0010
1000
0010
0001
0100
0010
1000
,  // measure 24
0000
1000
0001
1000
0002
0000
2003
0000
,  // measure 25
0100
0000
0000
0100
0000
0000
3100
0000
0110
0000
0000
0000
0110
0000
0000
0000
,  // measure 26
0100
0010
0001
1000
0001
0100
0010
0000
,  // measure 27
1000
0100
0010
0000
0001
0100
1000
0000
,  // measure 28
0001
0000
0010
0000
1000
0000
0100
0000
0020
0000
0000
0230
0000
0000
2300
0000
,  // measure 29
0000
0000
0000
0000
0000
0000
3001
1000
0002
0000
0000
0203
0000
0000
0320
0000
,  // measure 30
0000
0000
0000
0000
1030
0000
0100
0000
0020
0000
0000
0230
0000
0000
2300
0000
,  // measure 31
0000
3001
0001
1000
0002
0000
0023
0000
,  // measure 32
2030
0000
0000
0000
3200
0000
0000
0000
0302
0000
0000
0023
0000
0000
0230
0000
,  // measure 33
0000
0000
0000
0000
0000
0000
0310
0001
0020
0000
0000
0032
0000
0000
0203
0000
,  // measure 34
0000
0000
0000
0000
0310
0000
1000
0000
0200
0000
0000
2300
0000
0000
3002
0000
,  // measure 35
0000
0000
1003
0000
1000
0000
0001
0000
1000
0001
1000
0000
0001
0000
0100
0010
,  // measure 36
0000
0100
0010
0000
1000
0000
0100
0000
0020
0000
0000
0230
0000
0000
1300
0000
,  // measure 37
0000
0000
1010
0000
0000
0000
0010
1000
0020
0000
0000
2030
0000
0000
3001
0100
,  // measure 38
0000
0001
0100
0000
0010
0000
1000
0000
0002
0000
0000
0000
1003
0000
0100
0000
,  // measure 39
0010
0100
0010
0001
2000
0000
3020
0000
,  // measure 40
0032
0000
0000
0000
0203
0000
0000
0000
2300
0000
0000
3002
0000
0000
0103
0000
,  // measure 41
0000
0000
0110
0000
0000
0000
0100
0001
0200
0000
0000
0302
0000
0000
0013
0100
,  // measure 42
0000
0010
0100
0000
1000
0000
0001
0000
2000
0000
0000
0000
3001
0000
0100
0000
,  // measure 43
0010
0000
0100
0000
0010
0000
1000
0000
0001
1000
0001
0000
1000
0000
0100
0010
,  // measure 44
0000
0100
0010
0000
0001
0000
1000
0000
0001
0000
0100
0000
0010
0000
1000
0001
,  // measure 45
1000
0000
1002
2003
,  // measure 46
3001
0100
0001
0100
0000
0100
0001
0000
,  // measure 47
0010
0000
0100
0000
0010
0000
0100
0000
1000
0000
0001
0000
0100
0000
0010
0100
,  // measure 48
0010
0000
1000
0000
0100
0000
0010
0100
0010
0000
0001
0000
0100
0000
0010
0100
,  // measure 49
0010
1000
0001
0000
2001
0000
3002
0000
,  // measure 50
1003
0100
1000
0100
0000
0100
1000
0000
,  // measure 51
0010
0000
0100
0000
0010
0000
0100
0000
0001
0000
1000
0000
0100
0000
0010
0100
,  // measure 52
0010
0000
0001
0000
0100
0000
0010
0100
0010
0000
1000
0000
0100
0000
0010
0100
,  // measure 53
0010
0000
0001
0000
1000
0000
0000
0000
0001
0000
1000
0000
1000
0000
0001
1000
;

//---------------dance-single - ----------------
#NOTES:
     dance-single:
     :
     Hard:
     8:
     0.516528,0.467118,0.313938,0.000000,0.005413,305.000000,29.000000,0.000000,0.000000,0.000000,0.000000,0.516528,0.467118,0.313938,0.000000,0.005413,305.000000,29.000000,0.000000,0.000000,0.000000,0.000000:
0000
0000
0000
0000
,
0000
0000
0000
0000
,
0000
0000
0000
0000
,
0000
0000
0000
0000
,
0000
0000
1001
1001
,
0001
0100
0001
0100
0000
0100
0001
0000
,
0010
0100
0010
0000
0110
0000
1001
0000
,
0001
1000
0100
0010
0000
0010
0100
1000
,
0001
0001
0001
0000
1001
0000
1001
0000
,
1000
0100
1000
0100
0000
0100
1000
0000
,
0010
0100
0010
0000
0110
0000
1001
0000
,
1000
0001
0100
0010
0000
0010
0100
0001
,
1000
1000
1000
0000
0001
1000
0100
0010
,
0100
1000
0000
1000
0001
0100
0010
0100
,
0001
0000
1001
0000
0001
0100
1000
0000
,
0001
0010
1000
0000
1000
0100
0001
0000
,
1000
0010
0001
0000
1001
0000
1001
0000
,
1000
0100
0010
0000
0110
0000
0110
0000
,
0100
0010
0001
1000
0001
0100
0010
0000
,
0001
0010
1000
0000
1000
0100
0010
0000
,
1000
0010
0001
0000
1000
0001
0100
0010
,
0100
0001
0000
0001
1000
0100
0010
0100
,
1000
0000
1001
0000
1000
0100
0001
0000
,
1000
0010
0001
0000
0001
0100
1000
0000
,
0001
0010
1000
0000
1001
0000
1001
0000
,
0001
0100
0010
0000
0110
0000
0110
0000
,
0100
0010
1000
0001
1000
0100
0010
0000
,
1000
0010
0001
0000
0001
0100
0010
0000
,
0001
0010
1000
0000
0001
1000
0100
0010
,
0100
1000
0000
0001
0100
0010
0100
0001
,
0000
0010
0100
1000
0000
0010
0100
0001
,
0010
0000
0010
0001
1000
0000
1001
0000
,
1000
0001
1000
0001
1000
0001
0100
0010
,
0100
0100
0001
1000
0100
0010
0100
1000
,
0000
0010
0100
0001
0000
0010
0100
1000
,
0010
0000
0010
1000
0001
0000
1001
0000
,
0001
0100
1000
0010
0001
0000
1000
0010
,
0100
0010
1000
0100
0010
0000
0001
0100
,
0010
0000
0110
0000
1001
0000
1000
0100
,
0010
0100
0010
0001
1000
0000
1001
0000
,
1000
0100
0001
0010
1000
0000
0001
0010
,
0100
0010
0001
0100
0010
0000
1000
0100
,
0010
0000
0110
0000
1001
0000
0001
0100
,
0010
0100
0010
1000
0001
0010
0100
0000
,
0100
0010
0001
0000
1000
0010
0100
0010
,
1000
0000
1001
1001
,
0001
0100
0001
0100
0000
0100
0001
0000
,
1000
0100
0010
0100
0010
0001
0100
0000
,
0010
1000
0100
0000
0010
0001
0100
1000
,
0100
0001
1000
0000
1001
0000
1001
0000
,
1000
0100
1000
0100
0000
0100
1000
0000
,
0001
0100
0010
0100
0010
1000
0100
0000
,
0010
0001
0100
0000
0010
1000
0100
0001
,
0100
0000
1000
0000
0001
0000
0000
0000
1000
0000
1000
0000
0001
0000
1000
0001
;

//---------------dance-single - ----------------
#NOTES:
     dance-single:
     :
     Medium:
     5:
     0.298473,0.321516,0.368065,0.064953,0.000000,153.000000,34.000000,6.000000,0.000000,0.000000,0.000000,0.298473,0.321516,0.368065,0.064953,0.000000,153.000000,34.000000,6.000000,0.000000,0.000000,0.000000:
0000
0000
0000
0000
,
0000
0000
0000
0000
,
0000
0000
0000
0000
,
0000
0000
0000
0000
,
0000
0000
1002
2003
,
3001
0001
0000
0010
,
0100
0010
0100
1000
,
0001
0001
0000
1000
,
0001
1000
0001
0000
2001
0000
3002
0000
,
1003
1000
0000
0010
,
0100
0010
0100
0001
,
1000
1000
0000
0001
,
1000
0001
1000
0000
0001
0000
0100
0000
,
1000
0000
1000
0100
,
0001
0000
0101
0000
,
1100
0000
1010
0000
,
0011
0000
1002
0000
,
0000
0000
1000
1000
,
1003
0000
1100
0000
,
0101
0000
0011
0000
,
1010
0000
1000
0100
,
0001
0000
0001
0100
,
1000
0000
1100
0000
,
0101
0000
0011
0000
,
1010
0000
2001
0000
,
0000
0000
0001
0001
,
3001
0000
0101
0000
,
1100
0000
1010
0000
,
0011
0000
1001
0001
,
0100
0000
0010
1000
,
0000
0001
1000
0001
0000
1000
0001
0000
,
1000
1000
0001
0100
,
1000
0010
0001
1000
,
0100
0000
0010
0001
,
0000
1000
0001
1000
0000
0001
1000
0000
,
0001
0001
1001
0000
,
1000
0000
0100
0000
0001
0000
0100
0010
,
0100
0000
0010
0000
0010
0000
0001
0100
,
0010
0110
1000
0100
,
0001
0010
1000
0000
,
0001
0000
0100
0000
1000
0000
0100
0010
,
0100
0000
0010
0000
0010
0000
1000
0100
,
0010
0110
0001
0100
,
1000
0010
0001
0000
,
0000
0000
0000
0000
,
1001
0000
0001
0001
,
1000
0100
1000
0000
0000
0000
0010
0000
,
0000
1000
1100
0000
,
0101
0000
0011
0000
,
1010
0000
1000
1000
,
0001
0100
0001
0000
0000
0000
0010
0000
,
0000
0001
0101
0000
,
1100
0000
1010
0000
,
0011
0000
0000
0000
,
1001
0000
0000
0000
;

//---------------dance-single - ----------------
#NOTES:
     dance-single:
     :
     Easy:
     3:
     0.275275,0.263058,0.378890,0.021651,0.000000,141.000000,35.000000,2.000000,0.000000,0.000000,0.000000,0.275275,0.263058,0.378890,0.021651,0.000000,141.000000,35.000000,2.000000,0.000000,0.000000,0.000000:
0000
0000
0000
0000
,
0000
0000
0000
0000
,
0000
0000
0000
0000
,
0000
0000
0000
0000
,
0000
0000
1001
1001
,
1000
1000
0000
0100
,
0010
0100
0010
0001
,
1000
1000
0000
0001
,
1000
1000
1001
1001
,
0001
0001
0000
0100
,
0010
0100
0010
1000
,
0001
0001
0000
1000
,
0001
0001
1000
0100
,
0010
0000
0100
0010
,
0001
0000
0101
0000
,
1100
0000
1010
0000
,
0011
0000
1002
0000
,
0000
0000
1000
1000
,
1003
0000
1100
0000
,
0101
0000
0011
0000
,
1010
0000
1000
0001
,
0100
0000
0001
1000
,
0100
0000
1100
0000
,
0101
0000
0011
0000
,
1010
0000
2001
0000
,
0000
0000
0001
0001
,
3001
0000
0101
0000
,
1100
0000
1010
0000
,
0011
0000
1001
0001
,
0100
0000
0010
1000
,
0000
0001
0001
1000
,
0100
0010
0001
0100
,
1000
0010
0001
1000
,
0100
0000
0010
0001
,
0000
1000
1000
0001
,
0100
0010
1000
0000
,
1000
0100
0010
0001
,
1000
0001
0001
1000
,
0001
1001
1000
0100
,
0001
0010
1000
0000
,
0001
0100
0010
1000
,
0001
1000
1000
0001
,
1000
1001
0001
0100
,
1000
0010
0001
0000
,
0000
0000
0000
0000
,
1001
0000
1000
1000
,
0001
0001
0000
0010
,
0000
0100
1100
0000
,
0101
0000
0011
0000
,
1010
0000
0001
0001
,
1000
1000
0000
0010
,
0000
0100
0101
0000
,
1100
0000
1010
0000
,
0011
0000
0000
0000
,
1001
0000
0000
0000
;
