#TITLE:BEMANI HIT TRACKS;
#SUBTITLE:;
#ARTIST:K.M.D.J. team feat. Seigo "M" Takei;
#TITLETRANSLIT:;
#SUBTITLETRANSLIT:;
#ARTISTTRANSLIT:;
#GENRE:;
#CREDIT:DMAxel;
#BANNER:BEMANI HIT TRACKS.png;
#BACKGROUND:BEMANI HIT TRACKS-bg.png;
#LYRICSPATH:;
#CDTITLE:beatmania.png;
#MUSIC:BEMANI HIT TRACKS.ogg;
#OFFSET:0.660000;
#SAMPLESTART:28.279053;
#SAMPLELENGTH:12.000000;
#SELECTABLE:YES;
#BPMS:0.000000=137.000000
;
#STOPS:142.500000=0.440000,
157.500000=0.440000,
210.000000=0.880000
;
#BGCHANGES:;
#KEYSOUNDS:;
#ATTACKS:;

//---------------dance-single - ----------------
#NOTES:
     dance-single:
     :
     Easy:
     4:
     0.231579,0.250551,0.043812,0.014604,0.000000,214.000000,6.000000,2.000000,0.000000,0.000000,0.000000,0.231579,0.250551,0.043812,0.014604,0.000000,214.000000,6.000000,2.000000,0.000000,0.000000,0.000000:
0000
0000
0000
0000
,
0000
0000
0000
0000
,
0000
0000
0000
0000
,
0000
0000
0000
0000
,
0000
0000
0000
0000
,
1000
0000
0000
0000
,
0001
0000
0000
0000
,
0100
0000
0100
0000
,
0010
0000
0000
0000
,
1000
0000
0000
0000
,
0100
0000
0000
0000
,
0010
0000
0000
0000
,
0001
0001
0001
0001
,
1000
0000
0100
0000
,
0010
0100
1000
1000
,
1000
0010
0010
0000
,
0100
0000
0001
0001
,
0001
0000
1000
0000
,
0100
0100
0100
0100
,
0100
0000
0000
0000
,
1000
1000
1000
1000
,
0001
0001
0100
0100
,
0001
0001
1000
1000
,
0100
0100
1000
1000
,
0001
0001
0010
0010
,
0001
0100
0001
0001
,
1000
0010
1000
0000
,
0100
0010
0100
0100
,
0010
0100
0010
0000
,
0000
0000
0000
0000
,
1001
0000
0000
0100
0000
0000
0100
0000
,
0000
0100
0000
0000
0100
0000
0100
0000
,
1001
0000
0000
0010
0000
0000
0010
0000
,
0000
0010
0000
0000
0010
0000
0010
0000
,
1000
1000
1000
1000
,
1000
1000
1000
0100
,
0100
0100
0100
0100
,
0010
0010
0010
0010
,
0001
0001
0001
0001
,
1000
1000
0001
0001
,
0100
0100
0001
0001
,
1000
1000
0001
0000
,
1000
0100
1000
0000
,
0001
0001
0010
0001
,
0100
0010
0100
0001
,
0010
0100
1000
0000
,
0001
0001
0100
0000
,
0010
0010
1000
0100
,
0100
0010
0100
1000
,
0001
0100
0010
0000
,
1000
0000
0001
0001
,
0100
0100
0001
0000
,
0001
0000
1000
0000
,
0100
0000
0000
0000
,
0010
0000
0000
0000
,
0001
0000
0000
0000
,
1000
0000
0000
0000
,
1000
1000
0001
0001
,
0100
0100
0001
0001
,
1000
1000
0010
0010
,
1000
1000
0001
0001
,
0010
0001
0100
0010
,
1000
0100
0010
1001
,
0010
0001
0100
0010
,
1000
0100
1000
0101
,
0001
1000
0100
0010
,
0001
0100
0010
1000
,
0100
1000
0100
0010
,
0001
0100
0010
0100
,
0001
1000
0100
1000
,
0010
0100
0001
0010
,
0100
1000
0001
1000
,
0010
0100
0001
0010
,
0110
0000
0000
0000
,
0000
0000
2002
0000
,
0000
0000
0000
0000
,
0000
3003
0000
0000
;

//---------------dance-single - ----------------
#NOTES:
     dance-single:
     :
     Hard:
     8:
     0.402655,0.471712,0.284780,0.087624,0.062067,335.000000,39.000000,12.000000,0.000000,0.000000,0.000000,0.402655,0.471712,0.284780,0.087624,0.062067,335.000000,39.000000,12.000000,0.000000,0.000000,0.000000:
0000
0000
0000
0000
,
0000
0000
0000
0000
,
0000
0000
0000
0000
,
0000
0000
0000
0000
,
0000
0000
0000
0000
,
1000
0100
0010
0001
,
0100
0000
0000
0000
0010
0000
0000
0000
1000
0000
0000
0100
0000
0000
1000
0000
,
0001
0100
0010
1000
,
0100
0000
0000
0000
1000
0000
0000
0010
,
0100
0000
0000
0100
0000
0000
0000
0001
,
1000
0000
0000
1000
0000
0000
0000
1100
,
0010
0000
0000
0010
0000
0000
0000
0000
,
0001
0000
0001
0000
0100
0000
0010
1000
,
0100
0000
0000
0000
0100
0000
0000
1000
,
1000
0000
0010
0010
0100
0000
0000
0010
,
0100
0000
0001
0000
0010
0000
0000
0100
,
0100
0000
0000
0000
1000
0000
0000
0000
0010
0000
0000
0100
0000
0000
0001
0000
,
0010
0100
1000
0001
,
0100
0000
0010
0000
1000
0000
0100
1000
,
1000
0000
0001
0000
0100
0000
0010
0100
,
0100
0000
0001
0010
0010
0000
0001
0000
,
0100
0010
1000
0100
,
1000
0010
0100
0001
,
0010
0100
1000
0001
,
2002
3003
0100
0100
,
0001
0010
0100
0001
,
0100
0000
0000
1000
0000
0000
0001
0000
1000
0000
0100
0000
,
1000
0100
0001
0100
,
1000
0000
0000
0001
0000
0000
0100
0000
1000
0000
0001
0000
,
0010
0000
1000
0000
0001
0000
0010
0000
0100
0000
0000
0000
,
2001
0000
0000
0100
0000
0000
0001
0000
,
0000
0010
0000
0000
0001
0000
3100
0000
,
1002
0000
0000
0100
0000
0000
1000
0000
,
0000
0010
0000
0000
1000
0000
0103
0000
,
1001
0000
0100
1000
0010
0100
0001
0010
,
1100
0000
0000
0000
0001
0000
0100
0000
0010
0000
2000
3000
1100
0000
0000
0000
,
0100
0010
0001
0100
0010
0100
0101
0000
,
0001
0100
0010
1000
0100
0010
1001
0000
,
0001
0100
0010
1000
0100
0010
0011
0000
,
0001
0000
0100
0000
0010
0000
0200
0300
0101
0000
0000
0000
0001
0000
0010
0000
,
0100
1000
0001
0100
0110
0000
0010
1000
,
0100
0010
0001
0100
1000
0000
0000
0000
,
0100
0001
0100
0010
0000
0000
0010
0000
,
0000
0101
0000
1001
0000
0001
0100
0010
,
0100
0001
0000
1001
0000
1000
0100
0010
,
0100
1000
0000
1001
0000
0000
0000
0001
,
0100
0010
1000
0100
0000
0000
0011
0000
,
0001
1000
0000
1001
0000
0001
0100
0010
,
0100
0001
0000
1001
0000
1000
0100
0010
,
0100
1000
0000
1001
0100
0000
0000
0100
,
0010
0000
0010
0000
0000
0100
0010
0000
,
0100
0000
0100
0000
0010
0000
0000
0100
,
0010
0100
2002
3003
,
1001
1000
0001
1000
,
1001
0001
1000
0001
,
0101
0001
0100
0010
,
1010
0010
1000
0100
,
1000
0000
0000
0100
0000
0000
1000
0000
0000
0001
0000
0000
0100
0000
0010
0000
,
1000
0000
0000
0100
0000
0000
0001
0000
0000
1000
0000
0000
0010
0000
0001
0000
,
0100
0000
0000
0010
0000
0000
1000
0000
0000
0100
0000
0000
0010
0000
0100
0000
,
1000
0000
0000
0010
0000
0000
0001
0000
0000
1000
0000
0000
0100
0000
0001
0000
,
0001
0100
1000
0100
1000
0100
0001
0100
,
0001
0010
1000
0010
0001
0010
1000
0010
,
1000
0010
0001
0100
1000
0100
0001
0010
,
1000
0010
0001
0010
0001
0100
1000
0100
,
0001
0000
0010
0000
0100
0000
1100
0010
,
0100
0000
0001
0000
1000
0000
1001
0001
,
0010
0000
0001
0000
0100
0000
0110
0100
,
0001
0000
0010
0000
0100
0000
1001
0001
,
0101
0000
0010
0000
1000
0000
1010
1000
,
1100
0000
0010
0000
0001
0000
0101
0001
,
0110
0000
0010
0000
1000
0000
1001
1000
,
1100
0000
1000
0000
0010
0000
1001
0100
,
0202
0000
0000
0000
,
0000
0303
2002
0000
,
0000
0000
0000
0000
,
3003
0000
0000
0000
;

//---------------dance-single - ----------------
#NOTES:
     dance-single:
     :
     Medium:
     6:
     0.340066,0.388469,0.065718,0.065718,0.058416,308.000000,9.000000,9.000000,0.000000,0.000000,0.000000,0.340066,0.388469,0.065718,0.065718,0.058416,308.000000,9.000000,9.000000,0.000000,0.000000,0.000000:
0000
0000
0000
0000
,
0000
0000
0000
0000
,
0000
0000
0000
0000
,
0000
0000
0000
0000
,
0000
0000
0000
0000
,
1000
0000
0000
0000
,
0001
0000
0100
0000
,
0100
0000
0010
0000
,
0010
0000
0000
0000
1000
0000
0000
0100
,
0100
0000
0000
0200
0000
0000
0300
0010
,
0010
0000
0000
0020
0000
0000
0030
0001
,
0001
0000
0000
0002
0000
0000
0003
0000
,
0100
0000
0100
0000
0100
0000
0010
0010
,
0020
0000
0030
0000
2000
0000
3000
0100
,
0100
0000
0100
0100
0100
0000
0000
0010
,
0020
0000
0031
0000
0002
0000
0003
0100
,
0100
0000
0000
0000
0000
0000
0100
0000
0010
0000
0000
1000
0000
0000
1000
0000
,
0100
0010
0001
0100
,
0010
0000
0100
0000
0001
0000
1000
0100
,
0100
0000
1000
0000
0001
0000
0010
0001
,
0001
0000
1000
0010
0010
0100
0001
0010
,
0100
0100
1000
1000
,
0001
0100
0001
0001
,
1000
0010
1000
1000
,
0100
1000
0010
0010
,
1000
0001
0010
0001
,
0100
0000
0000
0010
0000
0000
1000
0000
0010
0000
0100
0000
,
0001
0010
0100
1000
,
0001
0000
0000
0100
0000
0000
0010
0000
1000
0000
0100
0000
,
0010
0000
0001
0000
0100
0000
0010
0000
1000
0000
0000
0000
,
1001
0000
0000
0100
0000
0000
0010
0000
,
0000
1000
0000
0000
0001
0000
0010
0000
,
1100
0000
0000
0001
0000
0000
0100
0000
,
0000
0010
0000
0000
1000
0000
0100
0000
,
1000
0000
1000
0000
0001
0000
0100
0010
,
0100
0010
0000
1000
0000
0100
0010
0000
,
0010
0000
0001
0000
0100
0010
0100
0001
,
0000
1000
0000
0100
0000
0100
1000
0000
,
0010
0000
0010
0000
0100
0001
0100
0010
,
0000
1000
0000
0100
0010
0000
0010
0000
,
0001
0000
0100
0010
0100
0001
0000
0010
,
0000
0100
1000
0100
0010
0000
0000
0010
,
0001
0100
0000
0101
0000
0000
0000
0000
,
0000
0100
0000
0100
0000
0010
1000
0100
,
1000
0100
0000
1100
0000
0100
0010
0001
,
0010
0001
0000
0011
0001
0000
0100
0010
,
0100
0010
0000
0110
0000
0000
0010
0000
,
1000
0100
0000
0100
1000
0010
0100
0001
,
0010
0100
0000
1100
0000
1000
0100
0010
,
0001
0100
0000
0100
0010
0000
0010
0000
,
1000
1000
0001
0001
,
0100
0100
0001
0001
,
0010
0010
0100
0000
,
1000
0000
0001
0000
0001
0000
0100
0100
,
0001
0000
1000
0000
0010
0000
1000
1000
,
0100
0000
0010
0000
0100
0000
1000
1000
,
0001
0000
0100
0000
0010
0000
0100
0001
,
0010
0000
0000
0010
0000
0000
0010
0000
0000
0010
0000
0000
0100
0000
0100
0000
,
1000
0000
0000
1000
0000
0000
1000
0000
0000
1000
0000
0000
0001
0000
0001
0000
,
0100
0000
0000
0100
0000
0000
0100
0000
0000
0100
0000
0000
0010
0000
0010
0000
,
1000
0000
0000
1000
0000
0000
1000
0000
0000
1000
0000
0000
0001
0000
0001
0000
,
1000
0100
1000
0000
0001
0100
0001
0000
,
1000
0010
1000
0000
0001
0010
0001
0000
,
0100
0010
0100
0000
0010
1000
0010
0000
,
0100
0100
0100
0100
,
0001
0010
0100
0100
,
1000
0010
0100
0100
,
0001
1000
0100
0100
,
1000
0001
0100
0100
,
0001
0000
0010
0000
0100
1000
0100
0000
,
0010
0000
0001
0000
0100
0010
0100
0000
,
0010
0000
1000
0000
0100
1000
0010
0000
,
0100
0000
0001
0000
0010
0001
0100
0000
,
1001
0000
0000
0000
,
0000
0000
0220
0000
,
0000
0000
0000
0000
,
0330
0000
0000
0000
;

//---------------dance-single - ----------------
#NOTES:
     dance-single:
     :
     Challenge:
     9:
     0.519488,0.693694,0.335894,0.073020,0.313988,442.000000,46.000000,10.000000,0.000000,0.000000,0.000000,0.519488,0.693694,0.335894,0.073020,0.313988,442.000000,46.000000,10.000000,0.000000,0.000000,0.000000:
// measure 0
0000
0000
0000
0000
,  // measure 1
0000
0000
0000
0000
,  // measure 2
0000
0000
0000
0000
,  // measure 3
0000
0000
0000
0000
,  // measure 4
0000
0000
0000
0000
,  // measure 5
1000
0001
0100
0010
,  // measure 6
1000
0000
0000
0000
0100
0000
0000
0000
1000
0000
0000
0010
0000
0000
0100
0000
,  // measure 7
0001
0010
0100
1000
,  // measure 8
0001
0000
0000
0000
0100
0000
0000
0010
,  // measure 9
1000
0000
0000
1100
0000
0000
0000
0010
,  // measure 10
0001
0000
0000
0101
0000
0000
0000
0001
,  // measure 11
1000
0000
0000
1100
0000
0000
0000
0000
,  // measure 12
0001
0000
1000
0000
0010
0000
0100
0001
,  // measure 13
0010
0000
0000
0000
0100
0000
0000
1000
,  // measure 14
0010
0000
0100
0001
0001
0000
0000
0010
,  // measure 15
0100
0000
1000
0000
1000
0000
0000
0010
,  // measure 16
0100
0000
0000
0000
0001
0000
0010
0100
0010
0000
0000
0100
0000
0000
1000
0000
,  // measure 17
0001
0000
0000
0000
0100
0000
0010
0100
0010
0000
0000
0000
0100
0000
0000
0000
,  // measure 18
0001
0000
0000
0000
0010
0000
0000
0000
0100
0000
0000
1000
0000
0000
0101
0000
,  // measure 19
1001
0000
0010
0000
1000
0000
0100
1010
,  // measure 20
1100
0000
0000
0000
1000
0000
0101
0000
0011
0000
0001
1000
0001
0000
0100
0000
,  // measure 21
0010
0000
0000
0000
1001
0000
0000
0001
0000
0000
0010
0000
0100
0000
1000
0000
,  // measure 22
0100
0001
0000
0001
0100
0000
0100
1000
0000
0010
0100
0000
0001
0000
0010
0000
,  // measure 23
0100
0000
0000
0000
0110
0000
0000
0100
0000
0000
1000
0000
0010
0000
0100
0000
,  // measure 24
0001
0100
0000
0010
1000
0000
0010
0100
0000
0001
0100
0000
0010
0000
1000
0000
,  // measure 25
0100
0000
0000
0000
0011
0000
0000
0001
0000
0000
1000
0000
0010
0000
0100
0000
,  // measure 26
0001
0000
0000
0010
0000
0000
0000
0000
0000
0100
0000
0000
1000
0000
0000
0000
0000
0000
0100
0000
0000
0000
0000
0000
0011
0000
0000
0000
0000
0000
0000
0000
0101
0000
0000
0000
0000
0000
0000
0000
1001
0000
0000
0000
0000
0000
0000
0000
,  // measure 27
1010
0000
0000
0000
0010
0000
0000
1000
0000
0000
0100
0000
1000
0000
0010
0000
,  // measure 28
0100
0000
0000
0001
0000
0000
0000
0000
0000
0010
0000
0000
0100
0000
0000
0000
0000
0000
0010
0000
0000
0000
0000
0000
0011
0000
0000
0000
0000
0000
0000
0000
1100
0000
0000
0000
0000
0000
0000
0000
1010
0000
0000
0000
0000
0000
0000
0000
,  // measure 29
0101
0000
1001
0000
0110
0000
1010
0000
0101
0000
0000
0000
,  // measure 30
2001
0000
0000
0100
0000
0000
0001
0000
,  // measure 31
0000
0010
0000
0000
0001
0000
3100
0000
,  // measure 32
1002
0000
0000
0100
0000
0000
1000
0000
,  // measure 33
0000
0010
0000
0000
1000
0000
0103
0000
,  // measure 34
1001
0000
0010
1000
0100
0010
0001
0100
,  // measure 35
1000
0000
0100
0000
0001
0000
0010
0000
0100
0000
2000
3000
1001
0000
0000
0000
,  // measure 36
0001
0010
0100
1000
0100
0001
0100
1000
,  // measure 37
0001
0100
1000
0100
0001
0100
0110
0000
,  // measure 38
0010
1000
0100
0001
0100
1000
0001
0100
,  // measure 39
1000
0000
0100
0000
0001
0000
0200
0300
0110
0000
0000
0000
0010
0000
1000
0000
,  // measure 40
0010
0001
0010
1000
0100
0001
0100
1000
,  // measure 41
0010
0001
0010
1000
1100
0000
0100
0010
,  // measure 42
0001
0100
0010
0100
0000
0000
0101
0000
,  // measure 43
0001
1000
0000
1000
0100
1000
0001
0100
,  // measure 44
0010
0100
0000
0101
0000
0001
0010
0100
,  // measure 45
1000
0100
0000
0011
0001
0000
0100
0010
,  // measure 46
1000
0100
0000
1001
0000
0000
0101
0000
,  // measure 47
0001
1000
0000
1010
0010
0100
0001
0010
,  // measure 48
0100
1000
0000
1001
0000
0001
0100
0010
,  // measure 49
0100
0001
0000
0011
0100
0000
0100
1000
,  // measure 50
0010
0000
0010
0100
0001
0000
0001
0010
,  // measure 51
0100
0010
0001
0100
0010
0000
0010
0100
,  // measure 52
0001
0010
0100
1000
2002
0000
3003
0000
,  // measure 53
1100
0000
0000
0000
0100
0000
0000
0010
0001
0000
0100
0000
0010
0000
0100
0000
,  // measure 54
0101
0000
0000
0000
0001
0000
0000
1000
0100
0000
1000
0000
0010
0000
0100
0000
,  // measure 55
1001
0000
0000
0000
0001
0000
0000
0010
0100
0000
1000
0000
0010
0000
0100
0000
,  // measure 56
0101
0001
1000
1000
,  // measure 57
0100
0000
0000
1000
0000
0000
0010
0000
0000
0100
0000
0000
0001
0000
0010
0000
,  // measure 58
0100
0000
0000
1000
0000
0000
0001
0000
0000
0100
0000
0000
1000
0000
0100
0000
,  // measure 59
0001
0000
0000
1000
0000
0000
0010
0000
0000
0001
0000
0000
0010
0000
1000
0000
,  // measure 60
0001
0000
0000
0100
0000
0000
0010
0000
0000
1000
0000
0000
0100
0000
0010
0000
,  // measure 61
0001
0000
0100
0000
0010
0000
0100
0001
0010
0000
0100
0000
0010
0000
0100
1000
,  // measure 62
0010
0000
0100
0000
0010
0000
1000
0100
0010
0000
0100
0000
0010
0000
0001
0100
,  // measure 63
0010
0000
0100
0000
0001
0000
1000
0100
1000
0000
0001
0000
0100
0000
0001
0100
,  // measure 64
0001
0100
0001
1000
0100
1000
0100
1000
0001
0100
0001
1000
0010
1000
0001
0010
,  // measure 65
0001
1000
0000
0000
1000
0000
0001
0100
0000
0010
0000
0100
0001
0000
0001
0000
,  // measure 66
0010
0100
0000
0000
0100
0000
1000
0010
0000
0010
0000
0100
0001
0000
0001
0000
,  // measure 67
1000
0100
0000
0000
0100
0000
1000
0010
0000
0010
0000
0100
0001
0000
0001
0000
,  // measure 68
0010
0001
0000
0000
0001
0000
1000
0010
0000
0010
0000
0100
0001
0000
0001
0000
,  // measure 69
0010
0100
0000
0000
1000
0000
0001
0100
0000
0010
0000
1000
0100
0000
1000
0000
,  // measure 70
0010
0100
0000
0000
0001
0000
0010
0100
0000
1000
0000
0001
0100
0000
0001
0000
,  // measure 71
1000
0010
0000
0000
0100
0000
0001
0010
0000
0100
0000
1000
0100
0000
0001
0000
,  // measure 72
0100
1000
0000
0000
0001
0000
0100
1000
0000
0100
0000
0001
0100
0000
0010
0000
,  // measure 73
2002
0000
0000
0000
,  // measure 74
0000
3003
0220
0000
,  // measure 75
0000
0000
0000
0000
,  // measure 76
0330
0000
0000
0000
;

//---------------dance-single - ----------------
#NOTES:
     dance-single:
     :
     Beginner:
     1:
     0.098056,0.108800,0.014604,0.000000,0.000000,92.000000,2.000000,0.000000,0.000000,0.000000,0.000000,0.098056,0.108800,0.014604,0.000000,0.000000,92.000000,2.000000,0.000000,0.000000,0.000000,0.000000:
0000
0000
0000
0000
,
0000
0000
0000
0000
,
0000
0000
0000
0000
,
0000
0000
0000
0000
,
0000
0000
0000
0000
,
1000
0000
0000
0000
,
0001
0000
0000
0000
,
0100
0000
0100
0000
,
0010
0000
0000
0000
,
1000
0000
0000
0000
,
0100
0000
0000
0000
,
0010
0000
0000
0000
,
0001
0000
0000
0000
,
0100
0000
0100
0000
,
0010
0000
0010
0000
,
1000
0000
0000
0000
,
0000
0000
0000
0000
,
0001
0000
0001
0000
,
0100
0000
0100
0000
,
0010
0000
0000
0000
,
1000
0000
0000
0000
,
0001
0000
0001
0000
,
1000
0000
1000
0000
,
0100
0000
0100
0000
,
0010
0000
0010
0000
,
0001
0000
0001
0000
,
0100
0000
0100
0000
,
0010
0000
0010
0000
,
1000
0000
0100
0000
,
0000
0000
0000
0000
,
1001
0000
0000
0000
,
0000
0000
0010
0000
,
0010
0000
0000
0000
,
0000
0000
0100
0000
,
0100
0000
0100
0000
,
0100
0000
0000
0000
,
0000
0010
0000
0010
,
0000
0000
0000
1000
,
0000
1000
0000
1000
,
0000
0000
0000
0000
,
0001
0000
0001
0000
,
0001
0000
0100
0000
,
0000
0000
0000
0000
,
0010
0000
0010
0000
,
0100
0000
0100
0000
,
0001
0000
0001
0000
,
0000
0000
0000
0000
,
0000
0000
1000
0000
,
0100
0000
0100
0000
,
0100
0000
1000
0000
,
0000
0000
0001
0000
,
0000
0000
0100
0000
,
0000
0000
0010
0000
,
0010
0000
0000
0000
,
0010
0000
0000
0000
,
0100
0000
0000
0000
,
0100
0000
0000
0000
,
0001
0000
0000
0000
,
0001
0000
0000
0000
,
1000
0000
0000
0000
,
1000
0000
0000
0000
,
0100
0000
0100
0000
,
0010
0000
0010
0000
,
0001
0000
0001
0000
,
1000
0000
1000
0000
,
0010
0000
0000
0000
,
0100
0000
0000
0000
,
0001
0000
0000
0000
,
1000
0000
0000
0000
,
0100
0000
0000
0000
,
1000
0000
0000
0000
,
0001
0000
0000
0000
,
0010
0000
0000
0000
,
0100
0000
0000
0000
,
0000
0000
1001
0000
;
