#VERSION:0.81;
#TITLE:99 Balloons But A Glitch Ain't One;
#SUBTITLE:;
#ARTIST:Freddie Fustercluck;
#TITLETRANSLIT:;
#SUBTITLETRANSLIT:;
#ARTISTTRANSLIT:;
#GENRE:;
#ORIGIN:;
#CREDIT:;
#BANNER:99 Balloons But A Glitch Ain't One - Freddie Fustercluckbn.png;
#BACKGROUND:99 Balloons But A Glitch Ain't One - Freddie Fustercluckbg.png;
#PREVIEWVID:;
#JACKET:;
#CDIMAGE:;
#DISCIMAGE:;
#LYRICSPATH:99 Balloons But A Glitch Ain't One - Freddie Fustercluck.lrc;
#CDTITLE:encorerebirth.png;
#MUSIC:99 Balloons But a Glitch Ain't One - Freddie Fustercluck.ogg;
#OFFSET:0.000;
#SAMPLESTART:48.480;
#SAMPLELENGTH:19.334;
#SELECTABLE:YES;
#BPMS:0.000=99.000;
#STOPS:;
#DELAYS:;
#WARPS:;
#TIMESIGNATURES:0.000=4=4;
#TICKCOUNTS:0.000=4;
#COMBOS:0.000=1;
#SPEEDS:0.000=1.000=0.000=0;
#SCROLLS:0.000=1.000;
#FAKES:;
#LABELS:0.000=Song Start;
#BGCHANGES:;
#KEYSOUNDS:;
#ATTACKS:
;

//---------------dance-single - Spork!----------------
#NOTEDATA:;
#CHARTNAME:;
#STEPSTYPE:dance-single;
#DESCRIPTION:Spork!;
#CHARTSTYLE:;
#DIFFICULTY:Beginner;
#METER:1;
#RADARVALUES:0.076,0.079,0.015,0.084,0.000,57.000,2.000,11.000,0.000,0.000,0.000,0.000,0.000,0.076,0.079,0.015,0.084,0.000,57.000,2.000,11.000,0.000,0.000,0.000,0.000,0.000;
#CREDIT:Spork!;
#NOTES:
0000
0000
0000
0000
,
0000
0000
0000
0000
,
0000
0000
0000
0000
,
0000
0000
0000
0000
,
1000
0000
1000
0000
,
0001
0000
0000
0000
,
0001
0000
0001
0000
,
1000
0000
0000
0000
,
0010
0000
0000
0000
,
0100
0000
0000
0000
,
0001
0000
0000
0000
,
1000
0000
0001
0000
,
1000
0000
0000
0000
,
0100
0000
0000
0000
,
1000
0000
0000
0000
,
0001
0000
1000
0000
,
0002
0000
0003
0000
,
0000
0000
0000
0000
,
2000
0000
3000
0000
,
0000
0000
0000
0000
,
0200
0000
0300
0000
,
0000
0000
0000
0000
,
0020
0000
0030
0000
,
0010
0010
0000
0000
,
1001
0000
0000
0000
,
0100
0100
0000
0000
,
0010
0000
0000
0000
,
0100
0100
0000
0000
,
1000
0000
0000
0000
,
0100
0000
0000
0000
,
0010
0000
0000
0000
,
0001
0000
1000
0000
,
0001
0000
0000
0000
,
0100
0000
0000
0000
,
0010
0000
0000
0000
,
1000
0000
0001
0000
,
2000
0000
3000
0000
,
1000
0000
0000
0000
,
0002
0000
0003
0000
,
0001
0000
0000
0000
,
0200
0000
0300
0000
,
0100
0000
0000
0000
,
0020
0000
0030
0000
,
0010
0000
0000
0000
,
2000
0000
3000
0000
,
0010
0000
1000
0000
,
0002
0000
0003
0000
,
0100
0100
0000
0000
,
1001
0000
0000
0000
,
0010
0000
0010
0000
,
0100
0000
0000
0000
0000
0000
0000
0200
,
0000
0000
0000
0000
,
0300
0000
0000
0000
;

//---------------dance-single - Spork!----------------
#NOTEDATA:;
#CHARTNAME:;
#STEPSTYPE:dance-single;
#DESCRIPTION:Spork!;
#CHARTSTYLE:;
#DIFFICULTY:Easy;
#METER:2;
#RADARVALUES:0.151,0.159,0.069,0.153,0.000,109.000,9.000,20.000,0.000,0.000,0.000,0.000,0.000,0.151,0.159,0.069,0.153,0.000,109.000,9.000,20.000,0.000,0.000,0.000,0.000,0.000;
#CREDIT:Spork!;
#NOTES:
0000
0000
0000
0000
,
0000
0000
0000
0000
,
0000
0000
0000
0000
,
0000
0000
0000
0000
,
0010
0000
0010
1000
,
0100
0000
0100
0000
,
0010
0000
0010
0001
,
0100
0000
0002
0000
,
1003
0000
0100
0000
,
1000
0000
0001
0000
,
0001
0000
0100
0000
,
0001
0000
0010
0000
,
0010
0000
0100
0000
,
1000
0000
0010
0000
,
0010
0000
0100
0000
,
0001
0000
1000
0000
,
2000
0000
3010
1000
,
0001
0000
0100
0000
,
0002
0000
0013
0001
,
1000
0000
0100
0000
,
0020
0000
0130
1000
,
0010
0000
1000
0000
,
0200
0000
0310
0001
,
0100
0100
0100
0000
,
2002
0000
0000
3003
,
0010
0010
0010
0100
,
2000
0000
3002
0000
,
0103
0100
0100
0000
,
0010
0000
1000
0000
,
0100
0000
0010
0000
,
0010
0000
0001
0000
,
1000
0000
0100
0000
,
0100
0000
0010
0000
,
0001
0000
0100
0000
,
0100
0000
0001
0000
,
1000
0000
0010
0000
,
0020
0000
0130
1001
,
0010
0000
0100
0000
,
0200
0000
0310
1001
,
0100
0000
0001
0000
,
2000
0000
3001
0110
,
1000
0000
1000
0000
,
0002
0000
1003
0110
,
0001
0000
0010
0000
,
0200
0000
0310
1001
,
0100
0000
0010
0000
,
0020
0000
0130
1001
,
0010
0010
0010
0000
,
2002
0000
0000
3003
,
0100
0000
0100
0000
,
2002
0000
0000
0000
3003
0000
0000
0020
,
0000
0000
0000
0000
,
0030
0000
0000
0000
;

//---------------dance-single - Spork!----------------
#NOTEDATA:;
#CHARTNAME:;
#STEPSTYPE:dance-single;
#DESCRIPTION:Spork!;
#CHARTSTYLE:;
#DIFFICULTY:Medium;
#METER:4;
#RADARVALUES:0.235,0.218,0.084,0.160,0.000,183.000,11.000,21.000,0.000,0.000,0.000,0.000,0.000,0.235,0.218,0.084,0.160,0.000,183.000,11.000,21.000,0.000,0.000,0.000,0.000,0.000;
#CREDIT:Spork!;
#NOTES:
0000
0000
0000
0000
,
0000
0000
0000
0000
,
0000
0000
0000
0000
,
0000
0000
0000
0000
,
1000
0100
0010
0001
,
0200
0000
0000
0300
0200
0000
0000
0300
,
0001
0010
0100
1000
,
0020
0000
0000
0030
0010
0000
0010
0000
,
1000
0001
1000
1000
,
0001
1000
0001
0001
,
0100
0010
0100
0100
,
0010
0100
0010
0010
,
1000
0100
0010
0010
,
0001
0100
0010
0010
,
1000
0010
0100
0100
,
0001
0010
0100
0100
,
2000
0100
3000
0001
,
0100
0010
1000
1000
,
0002
0010
0003
1000
,
0010
0000
0100
0000
0001
1000
0001
0000
,
0200
0001
0300
0010
,
1000
0100
0010
0010
,
0200
1000
0300
0010
,
0001
0000
0100
0000
0010
1000
0001
0000
,
0020
0000
0130
0100
,
0010
0001
0100
0000
0010
1000
0100
0000
,
0020
0000
0230
0000
,
0310
0001
1000
0000
0010
1000
0001
0000
,
1000
0001
0100
1001
,
0001
1000
0100
1001
,
0010
0001
0100
0110
,
0010
1000
0100
0110
,
0001
0000
0010
0000
0001
0100
0001
0000
,
0010
0000
0100
0000
1000
0010
1000
0000
,
0001
0000
1000
0000
0010
0100
0010
0000
,
1000
0000
0001
0000
0010
0100
0010
0000
,
0002
1000
0003
0110
,
0010
1000
0001
0001
,
2000
0001
3000
0110
,
0100
0001
0010
0100
,
0020
0000
0100
0000
0030
0001
1000
0000
,
0010
0100
0010
1001
,
2000
0000
0010
0000
3000
0100
0010
0000
,
0001
0010
0100
0110
,
0200
0000
0010
0000
0300
1000
0001
0000
,
0100
0010
0100
1001
,
0002
0000
0010
0000
0003
0100
0010
0000
,
0010
1000
0100
0000
0010
0001
0100
0000
,
0220
0000
0000
0330
,
0100
0001
1000
0100
,
0220
0000
0000
0000
0330
0000
0000
0002
,
0000
0000
0000
0000
,
0003
0000
0000
0000
;

//---------------dance-single - Spork!----------------
#NOTEDATA:;
#CHARTNAME:;
#STEPSTYPE:dance-single;
#DESCRIPTION:Spork!;
#CHARTSTYLE:;
#DIFFICULTY:Hard;
#METER:7;
#RADARVALUES:0.349,0.358,0.283,0.183,0.111,259.000,37.000,24.000,0.000,0.000,0.000,0.000,0.000,0.349,0.358,0.283,0.183,0.111,259.000,37.000,24.000,0.000,0.000,0.000,0.000,0.000;
#CREDIT:Spork!;
#NOTES:
0000
0000
0000
0000
,
0000
0000
0000
0000
,
0000
0000
0000
0000
,
0000
0000
0000
0000
,
0010
0000
0011
0000
0010
0001
0100
0000
,
0010
1000
0001
0100
,
0010
0000
1010
0000
0010
1000
0100
0000
,
0010
0001
1000
1000
,
0001
0010
0011
1002
,
1003
0010
1010
1002
,
1003
0001
0101
0021
,
0031
1000
1100
1020
,
1030
0100
0010
0000
0011
0000
1001
0000
,
0001
0010
0100
0000
0110
0000
0011
0000
,
0001
0100
0010
0000
1010
0000
1001
0000
,
1000
0010
0100
0000
0110
0000
1010
0000
,
0000
2000
0000
0000
0001
0000
0000
0010
3000
0000
1000
0000
0100
0000
0000
0000
,
0010
0001
0101
1001
,
0000
0002
0000
0000
1000
0000
0000
0100
0003
0000
0001
0000
0010
0000
0000
0000
,
0100
0010
0001
1000
0001
0100
0010
0000
,
0000
0020
0000
0000
0100
0000
0000
1000
0030
0000
0100
0000
0010
0000
0000
0000
,
0001
1000
0110
1001
,
0000
0200
0000
0000
0010
0000
0000
0001
0300
0000
0010
0000
0100
0000
0000
0000
,
1000
0010
0001
0010
1000
0001
0010
0000
,
0200
0010
0310
0110
,
0001
0100
1000
0100
0001
1000
0100
0000
,
0010
0001
0100
0000
0010
1000
0001
0000
,
1000
0100
0001
0100
1000
0001
0100
0000
,
0001
0000
0010
0000
0100
0010
1002
0000
,
1003
0000
0010
0000
0100
0010
0201
0000
,
0301
0000
0010
0000
0100
0010
1200
0000
,
1300
0000
0000
0000
0100
0000
0000
0000
0010
0000
0100
0000
1002
0000
0000
1000
,
0003
1000
0010
0000
0100
0000
0000
0000
0001
0000
0010
0000
0110
0000
0000
0001
,
0000
0001
0100
0000
0010
0000
1000
0000
0100
0000
0100
0000
1000
0000
0000
0001
,
0000
0001
0010
0000
0100
0000
0000
0000
1000
0000
0010
0000
0110
0000
0000
1000
,
0000
1000
0100
0000
0010
0000
0001
0000
0100
0000
0100
0000
1001
0000
0000
0000
,
0000
2000
0000
0000
0010
0000
0000
0100
3000
0000
1100
0000
1000
0000
0001
0000
,
0100
0010
1000
0110
,
0000
0002
0000
0000
0100
0000
0000
0010
0003
0000
0010
0000
0001
0000
0100
0000
,
0010
1000
0100
0010
0001
0100
0010
0000
,
0000
0020
0000
0000
0100
0000
0000
1000
0030
0000
1000
0000
0001
0000
0000
0000
,
0010
0001
0100
0000
0010
1000
0100
0000
,
0000
0020
0000
0000
0100
0000
0000
0001
0030
0000
0001
0000
1000
0000
0000
0000
,
0000
0010
0100
0000
0100
0000
0001
0000
1000
0000
0000
0000
1001
0000
0000
0000
,
0000
0020
0000
0000
0100
0000
0000
0001
0030
0000
0100
0000
0010
0000
0000
0000
,
1000
0001
0100
0010
0110
0010
1001
0000
,
0000
0200
0000
0000
0010
0000
0000
1000
0300
0000
0010
0000
0100
0000
0000
0000
,
0001
0010
1000
0010
0001
1000
0010
0000
,
0200
0000
0301
1001
2000
0000
3100
0110
,
0010
0001
0200
0000
0310
1000
0100
0100
,
0010
0010
0002
0000
0103
0010
1000
2000
,
0000
0000
0000
0000
,
3000
0000
0000
0000
;

//---------------dance-double - Spork!----------------
#NOTEDATA:;
#CHARTNAME:;
#STEPSTYPE:dance-double;
#DESCRIPTION:Spork!;
#CHARTSTYLE:;
#DIFFICULTY:Easy;
#METER:2;
#RADARVALUES:0.133,0.139,0.122,0.084,0.000,95.000,16.000,11.000,0.000,0.000,0.000,0.000,0.000,0.133,0.139,0.122,0.084,0.000,95.000,16.000,11.000,0.000,0.000,0.000,0.000,0.000;
#CREDIT:Spork!;
#NOTES:
00000000
00000000
00000000
00000000
,
00000000
00000000
00000000
00000000
,
00000000
00000000
00000000
00000000
,
00000000
00000000
00000000
00000000
,
00000010
00000000
00000010
00000000
,
00000001
00000100
00001000
00010000
,
01000000
00000000
01000000
00000000
,
10000000
00100000
00010000
00001000
,
00000010
00000000
00000000
00000110
,
00000000
00000000
00000000
00010100
,
00000000
00000000
00000000
01001000
,
00000000
00000000
00000000
10010000
,
00010000
00000000
00100000
00000000
,
00001000
00000000
01000000
00000000
,
00001000
00000000
00010000
00000000
,
00000010
00000000
00010000
00000000
,
00000200
00000000
00000300
00000000
,
00000010
00000001
00001000
00000000
,
00000020
00000000
00000030
00000000
,
00010000
00001000
01000000
00000000
,
00200000
00000000
00300000
00000000
,
01000000
00010000
10000000
00000000
,
02000000
00000000
03000000
00000000
,
00011000
00001000
00011000
00000000
,
00100000
00000000
00100000
00000000
,
00011000
00010000
00011000
00000000
,
00000010
00000000
00000010
00000000
,
00011000
00001000
00011000
00000000
,
00010000
00000000
00000000
00000110
,
00000000
00000000
00000000
00011000
,
00000000
00000000
00000000
01100000
,
00000000
00000000
00000000
00011000
,
00010000
00000000
00000100
00000000
,
00001000
00000000
00000010
00000000
,
00010000
00000000
00001000
00000000
,
01000000
00000000
00010000
00000000
,
00200000
00000000
00300000
00010000
,
10000000
00000000
00001000
00000000
,
00002000
00000000
00003000
00001000
,
00010000
00000000
00000100
00000000
,
00000200
00000000
00000300
00001000
,
00000001
00000000
00010000
00000000
,
00020000
00000000
00030000
00010000
,
00001000
00000000
01000000
00000000
,
02000000
00000000
03000000
00010000
,
00100000
00000000
00000010
00000000
,
00000020
00000000
00000030
00001000
,
00001100
00000000
01010000
00000000
,
00010000
00000000
10000000
00000000
,
00010000
00000000
00010000
00000000
,
00001000
00000000
00000000
00000000
00000001
00000000
00000000
00002000
,
00000000
00000000
00000000
00000000
,
00003000
00000000
00000000
00000000
;

//---------------dance-double - Spork!----------------
#NOTEDATA:;
#CHARTNAME:;
#STEPSTYPE:dance-double;
#DESCRIPTION:Spork!;
#CHARTSTYLE:;
#DIFFICULTY:Medium;
#METER:5;
#RADARVALUES:0.255,0.258,0.176,0.183,0.000,187.000,23.000,24.000,0.000,0.000,0.000,0.000,0.000,0.255,0.258,0.176,0.183,0.000,187.000,23.000,24.000,0.000,0.000,0.000,0.000,0.000;
#CREDIT:Spork!;
#NOTES:
00000000
00000000
00000000
00000000
,
00000000
00000000
00000000
00000000
,
00000000
00000000
00000000
00000000
,
00000000
00000000
00000000
00000000
,
00010000
00000000
01000000
00000000
01000000
00001000
00010000
00000000
,
00100000
01000000
00001000
00011000
,
00010000
00000000
00000010
00000000
00000010
00010000
00001000
00000000
,
00000100
00000010
00010000
00002000
,
00013000
00000100
00000010
00001001
,
00000010
00000100
00010000
00011000
,
00001000
01000000
00100000
10010000
,
00100000
01000000
00001000
00011000
,
00010000
00000000
00000010
00000000
00000100
00000010
00001000
00000000
,
00000001
00000100
00001000
00011000
,
00001000
00000000
00100000
00000000
01000000
00100000
00010000
00000000
,
10000000
01000000
00010000
00011000
,
00020200
00000000
00030300
00000000
,
00010000
00000000
00001000
00000000
00100000
01000000
00100000
00000000
,
00202000
00000000
00303000
00000000
,
00001000
00000000
00010000
00000000
00000010
00000100
00000010
00000000
,
00020020
00000000
00030030
00000000
,
00001000
00000000
01000000
00000000
01000000
00100000
01000000
00000000
,
02002000
00000000
03003000
00000000
,
00010000
00001000
00010000
00000100
00010000
00001000
00010000
00000000
,
00002000
01003000
02000000
03001000
,
00001000
00010000
00001000
00100000
00001000
00010000
00001000
00000000
,
00100000
01000000
01100000
10010000
,
10000000
01000000
10000000
00100000
10000000
01000000
10000000
00000000
,
00010000
10000000
01000000
00011000
,
00001000
00000001
00000100
00011000
,
00010000
10000000
00100000
00011000
,
00001000
00000001
00000010
00011000
,
00010000
00000100
00001000
00000000
00000001
00000000
00000100
00000000
,
00000010
00010000
00001000
00000000
00010000
00000000
00010000
00000000
,
00001000
00100000
00010000
00000000
10000000
00000000
00100000
00000000
,
01000000
00001000
00010000
00000000
00001000
00000000
00010000
00000000
,
00020020
00000000
00030030
00000000
,
00010000
00000000
00001000
00000000
01000000
00100000
01000000
00000000
,
02002000
00000000
03003000
00000000
,
00001000
00000000
00010000
00000000
00000100
00000010
00000100
00000000
,
00020200
00000000
00030300
00000000
,
00001000
00000000
00100000
00000000
00100000
01000000
00100000
00000000
,
00202000
00000000
00303000
00000000
,
00001000
00000000
01000000
00000000
00100000
01000000
00100000
00000000
,
20020000
00000000
30030000
00000000
,
00010000
00000000
00000010
00000000
00000100
00000010
00000100
00000000
,
00002002
00000000
00003003
00000000
,
00000001
00000010
00000001
00000100
00000001
00000010
00000001
00000000
,
00001000
00000010
00010000
00001000
,
01000000
00010000
00100000
00001000
,
00010000
00000000
00000100
00000000
00000010
00000000
00000001
00002000
,
00000000
00000000
00000000
00000000
,
00003000
00000000
00000000
00000000
;

//---------------dance-single - Spork!----------------
#NOTEDATA:;
#CHARTNAME:;
#STEPSTYPE:dance-single;
#DESCRIPTION:Spork!;
#CHARTSTYLE:;
#DIFFICULTY:Challenge;
#METER:9;
#RADARVALUES:0.524,0.512,0.046,0.031,0.814,470.000,6.000,4.000,21.000,4.000,1.000,0.000,0.000,0.524,0.512,0.046,0.031,0.814,470.000,6.000,4.000,21.000,4.000,1.000,0.000,0.000;
#CREDIT:Spork!;
#NOTES:
0000
0000
0000
0000
,
0000
0000
0000
0000
,
0000
0000
0000
0000
,
0000
0000
0000
0000
,
0001
0000
0010
0000
0001
0000
0100
0000
0010
1000
0000
1000
0001
0000
0000
0000
,
0100
0001
0000
0001
1000
0000
0100
0000
0010
0100
0000
0010
0000
0001
0000
1000
,
0000
0100
0000
1000
0010
0000
0000
0100
0000
0010
0100
0010
0000
0000
0010
0000
,
1000
0100
0000
0100
0010
0000
0001
0000
1000
0001
0000
0000
1000
1000
1000
1000
,
0010
0100
0010
0000
1000
0000
0100
0000
0010
0000
0001
0100
0000
0000
0000
0010
,
0000
0010
1000
0000
0001
0000
0010
0000
0001
0000
0100
0010
0000
0000
0000
0100
,
0000
0100
0001
0010
0100
0000
0100
1000
0001
1000
0000
0001
0000
0100
0001
0100
,
0010
0000
1000
0010
0100
0001
0000
0001
0010
0000
0010
0100
0000
0000
0000
1000
,
0000
0001
1000
0000
0010
0000
0100
0000
0001
0010
0100
1000
0000
0000
0000
0001
,
0000
1000
0001
0000
0010
0000
0001
0000
0100
0010
0010
0100
0100
0010
0000
1000
,
0000
0001
1000
0000
0010
0000
0100
0000
0001
0010
0100
1000
0000
0000
0000
0010
,
0000
0100
0010
0000
1000
0000
0001
0000
0000
0100
0000
0000
0100
0000
0010
0000
,
1000
0100
00M0
0100
0001
0000
0001
0010
0M00
0010
1000
0001
0000
0000
0000
0010
,
0000
0010
0001
0000
0100
0000
0010
0000
1000
0001
0001
1000
1000
0001
0000
1000
,
0001
0010
0M00
0010
1000
0000
1000
0100
00M0
0100
0001
1000
0000
0000
0000
0100
,
0000
0100
0010
0000
0001
0000
0100
0000
0010
1000
0100
0010
0001
0010
0100
1000
,
0001
0100
00M0
0100
1000
0000
1000
0010
0M00
0010
0001
1000
0000
0000
0000
0100
,
0000
0100
1000
0000
0010
0000
0100
0000
0001
1000
1000
0001
0001
1000
0000
0001
,
1000
0010
0M00
0010
0001
0000
0001
0100
00M0
0100
1000
0001
0000
0000
0010
0000
,
0010
0000
0001
0000
0100
0000
0000
0000
0100
0000
0010
0000
0100
0000
0000
0000
0010
0000
1000
0000
0100
0000
0000
0000
0100
0000
0010
0000
0001
0000
1000
0001
,
1000
0000
0100
0000
1000
0000
0010
0000
0100
0001
0000
0001
1000
0000
0000
0000
,
0100
0010
0000
0010
0001
0000
1000
0000
0010
0100
0000
0010
0000
1000
0000
0001
,
0000
0010
0000
0001
0100
0000
0000
0010
0000
0100
0010
0100
0000
0000
0100
0000
,
0001
0010
0000
0010
0100
0000
1000
0000
0100
0010
0010
0100
0100
0010
0001
1000
,
0001
0100
0010
0000
1000
0000
0100
0000
0020
0000
0000
0000
0101
0000
0030
0001
,
1000
0010
0100
0000
0001
0000
0010
0000
0200
0000
0000
0000
0011
0000
0300
0010
,
0001
0010
0100
0000
1000
0000
0010
0000
0200
0000
0000
0000
1010
0000
0300
0010
,
1000
0100
0010
0000
0001
0000
1000
0000
0020
0000
0000
0000
1100
0000
0030
0000
,
1000
0001
1000
0000
0010
0000
0100
0000
0001
0010
0100
1000
0000
1000
0001
0100
,
0000
0100
0010
0000
1000
0000
0100
0000
1000
0010
0010
0100
0100
0001
0000
1000
,
0000
1000
0001
0000
0010
0000
0100
0000
1000
0010
0100
0001
0000
0001
1000
0010
,
0000
0010
0100
0000
0001
0000
0010
0000
0001
0100
0100
0010
0010
1000
0000
1000
,
0001
0010
0M00
0010
1000
0000
1000
0100
00M0
0100
0001
1000
0000
0000
0000
0100
,
0000
0010
0100
0000
1000
0000
0010
0000
0001
0010
0010
1000
1000
0001
0000
0001
,
1000
0100
00M0
0100
0001
0000
0001
0010
0M00
0010
1000
0001
0000
0000
0000
0001
,
0000
0100
0010
0000
1000
0000
0100
0000
1000
0100
0001
0000
0001
0100
1000
0001
,
1000
0010
0M00
0010
0001
0000
0001
0100
00M0
0100
1000
0001
0000
0000
0000
0100
,
0000
0010
0100
0000
0001
0000
0010
0000
1000
0010
0010
0001
0001
1000
0000
1000
,
0001
0100
00M0
0100
1000
0000
1000
0010
0M00
0010
0001
1000
0000
0000
0000
1000
,
0000
0010
0100
0000
0001
0000
0010
0000
0001
0100
1000
0000
1000
0100
0001
0010
,
0100
0010
000M
0010
1000
0000
0001
0010
M000
0010
0100
0001
0000
0001
1000
0010
,
0000
0100
0010
0000
1000
0000
0100
0000
0001
0100
0100
1000
1000
0001
0000
0001
,
0100
0010
M000
0010
0001
0000
1000
0010
000M
0010
0100
1000
0000
1000
0100
0000
,
0100
0000
1000
0000
0010
0000
0000
0000
0010
0000
0100
0000
0010
0000
0000
0000
0100
0000
0001
0000
0010
0000
0000
0000
0010
0000
0100
0000
1000
0000
0001
1000
,
0001
0010
0001
0110
1000
0100
1000
0110
,
0001
0000
0100
0000
0010
0000
1000
0000
0100
0000
0010
0000
0000
0001
0000
1000
,
0000
0010
0000
0000
0100
0000
0000
0100
0000
0010
0100
0010
0000
0000
4000
0000
,
0000
0000
0000
0000
,
3000
0000
0000
0000
,
0000
0000
0000
0000
0000
000M
0000
0000
;

//---------------dance-double - Spork!----------------
#NOTEDATA:;
#CHARTNAME:;
#STEPSTYPE:dance-double;
#DESCRIPTION:Spork!;
#CHARTSTYLE:;
#DIFFICULTY:Hard;
#METER:8;
#RADARVALUES:0.396,0.338,0.076,0.008,0.057,352.000,10.000,1.000,0.000,0.000,0.000,0.000,0.000,0.396,0.338,0.076,0.008,0.057,352.000,10.000,1.000,0.000,0.000,0.000,0.000,0.000;
#CREDIT:Spork!;
#NOTES:
00000000
00000000
00000000
00000000
,
00000000
00000000
00000000
00000000
,
00000000
00000000
00000000
00000000
,
00000000
00000000
00000000
00000000
,
00100000
00010000
01000000
00001000
00010000
00000100
00000010
00000010
,
00000100
00001000
00000010
00010000
00001000
00100000
01000000
01000000
,
00100000
00001000
01000000
00001000
00010000
00000010
00000100
00000100
,
00000010
00000000
00010000
00000000
00000100
00000000
00010000
00000000
00001000
00000000
01000000
00000000
00100000
01000000
00100000
00000000
,
10000000
01000000
00010000
00000000
00001000
00000100
00000101
00000000
,
00000001
00000010
00001000
00000000
00010000
00100000
10100000
00000000
,
10000000
00100000
01000000
00000000
00000100
00000010
00000011
00000000
,
00000001
00000100
00000010
00000000
00100000
01000000
11000000
00000000
,
10000000
00100000
10000000
01000000
00010000
00001000
00010000
00000000
,
00001000
00000000
00010000
00000000
00000010
00000000
00001000
00000000
00000100
00000000
00000100
00000000
00000010
00000000
00000000
00000001
,
00000000
00000100
00000001
00000010
00001000
00010000
00001000
00000000
,
00010000
00001000
01000000
00010000
00100000
00100000
01000000
00000000
,
10000000
01000000
00010000
00100000
00010000
01000000
10000000
00100000
,
01000000
00001000
00010000
00000100
00010000
00001000
00000010
00000000
,
00000001
00000100
00001000
00000010
00001000
00000100
00000001
00000010
,
00000100
00000000
00010000
00000000
00001000
00000000
00100000
00000000
00001000
00000000
00010000
00000000
00100000
00000000
00000000
10000000
,
00000000
00100000
00010000
01000000
00010000
00100000
10000000
01000000
,
00100000
00001000
00010000
00000010
00010000
00001000
00000100
00000000
,
00000001
00000010
00001000
00000100
00001000
00000010
00000001
00000100
,
00000010
00001000
00000010
00000000
00001000
00000001
00001000
00000000
00000001
00000000
00000010
00000000
00000100
00000000
00000000
00000000
,
00010000
00000000
00000000
00001000
00000000
00000000
01000000
00000000
00001000
00100000
00000000
00100000
00010000
00000000
00000000
00000000
,
01000000
00010000
01000000
00000000
00010000
10000000
00010000
00000000
10000000
00000000
01000000
00000000
00100000
00000000
00000000
00000000
,
00001000
00010000
00100000
10000000
00100000
00010000
00001000
00000000
,
00010000
00000100
00010000
00000000
00001000
00010000
00001000
00000000
00010000
00000000
00000010
00000000
00000100
00000000
00000000
00000000
,
00000001
00001000
00000001
00000010
00000100
00000000
00011000
00000000
,
10000000
00010000
10000000
00100000
01000000
00000000
00011000
00000000
,
00000001
00001000
00000001
00000100
00000010
00000000
00011000
00000000
,
10000000
00010000
10000000
01000000
00100000
00000000
00011000
00000000
,
00001000
00100000
01000000
00010000
00001000
00000100
00000010
00000000
,
00010000
00000100
00000010
00001000
00010000
00100000
01000000
01000000
,
00001000
01000000
00100000
00010000
00001000
00000010
00000100
00000000
,
00010000
00000000
00000010
00000000
00000100
00000000
00001000
00000000
00010000
00000000
01000000
00000000
00100000
01000000
00100000
00000000
,
00010000
01000000
10000000
00100000
10000000
01000000
00010000
00100000
,
01000000
00010000
00001000
00000100
00000010
00010000
00000100
00000100
,
00001000
00000010
00000001
00000100
00000001
00000010
00001000
00000100
,
00000010
00001000
00010000
00100000
01000000
00001000
01000000
01000000
,
00010000
00100000
10000000
01000000
10000000
00100000
00010000
01000000
,
00100000
00010000
00001000
00000010
00000100
00010000
00000010
00000010
,
00001000
00000100
00000001
00000010
00000001
00000100
00001000
00000010
,
00000100
00001000
00010000
01000000
00100000
00001000
00010000
00010000
,
00000001
00000100
00001000
00000010
00001000
00000100
00000001
00000010
,
00000100
00010000
00001000
01000000
00010000
00100000
00001000
00001000
,
10000000
00100000
00010000
01000000
00010000
00100000
10000000
01000000
,
00100000
00010000
00100000
00000000
00010000
10000000
00010000
00000000
10000000
00000000
00100000
00000000
01000000
00000000
00000000
00000000
,
00100000
00000000
01000000
00011000
00000100
00000000
00000010
00011000
,
00100000
01000000
00010000
10000000
01000000
00000000
10000000
00010000
,
00100000
00010000
01000000
00001000
00010000
00000010
00001000
00000200
,
00000000
00000000
00000000
00000000
,
00000300
00000000
00000000
00000000
;

//---------------dance-double - Spork!----------------
#NOTEDATA:;
#CHARTNAME:;
#STEPSTYPE:dance-double;
#DESCRIPTION:Spork!;
#CHARTSTYLE:;
#DIFFICULTY:Challenge;
#METER:10;
#RADARVALUES:0.499,0.594,0.160,0.183,0.565,408.000,21.000,24.000,9.000,18.000,1.000,0.000,0.000,0.499,0.594,0.160,0.183,0.565,408.000,21.000,24.000,9.000,18.000,1.000,0.000,0.000;
#CREDIT:Spork!;
#NOTES:
// measure 0
00000000
00000000
00000000
00000000
,  // measure 1
00000000
00000000
00000000
00000000
,  // measure 2
00000000
00000000
00000000
00000000
,  // measure 3
00000000
00000000
00000000
00000000
,  // measure 4
00000100
00001000
00000010
00001000
00000100
00000010
00000001
00000100
00000010
00000100
00000001
00000010
00000100
00000000
00001000
00000000
,  // measure 5
00000001
00000100
00000001
00000010
00000100
00010000
00001000
01000000
00010000
00100000
00000000
01000000
00000000
00010000
00000000
00001000
,  // measure 6
00100000
00010000
01000000
00010000
00100000
01000000
10000000
00100000
01000000
00100000
10000000
01000000
00100000
00000000
00010000
00000000
,  // measure 7
10000000
01000000
10000000
00100000
01000000
00001000
00010000
00000010
00001000
00000100
00000000
00000100
00000010
00000010
00000010
00000010
,  // measure 8
00000001
00001000
00000001
00000000
00000100
00000000
00000010
00000000
00020000
00000000
00000000
00000000
0M001100
00000000
00030000
00000000
,  // measure 9
00010000
00001000
00010000
00000000
00100000
00000000
01000000
00000000
00002000
00000000
00000000
00000000
001100M0
00000000
00003000
00000000
,  // measure 10
10000000
00010000
10000000
00000000
01000000
00000000
00100000
00000000
00002000
00000000
00000000
00000000
010100M0
00000000
00003000
00000000
,  // measure 11
00001000
00010000
00001000
00000000
00000010
00000000
00000100
00000000
00020000
00000000
00000000
00000000
0M001010
00000000
00030000
00001000
,  // measure 12
00000000
00001000
00010000
00000000
00000100
00000000
00000010
00000000
00000001
00000010
00001000
00010000
00000000
00010000
00000100
00010000
,  // measure 13
00000000
00010000
00001000
00000000
01000000
00000000
10000000
00000000
00010000
00000000
00000010
00010000
00000000
00001000
00010000
00001000
,  // measure 14
00000000
00010000
00001000
00000000
00100000
00000000
01000000
00000000
10000000
00100000
00010000
00001000
00000000
00001000
01000000
00001000
,  // measure 15
00000000
00001000
00010000
00000000
00000100
00000000
00000001
00000000
00001000
00000000
00100000
00000000
00001000
00000000
00001000
00010000
,  // measure 16
00000000
00000200
00000000
00000000
00002000
00000000
00000000
00000001
00000000
00000000
00003300
00000000
00001100
00000000
00000000
00000000
,  // measure 17
00000000
00000001
00000100
00000000
00001000
00000000
01000000
00000000
00001000
00000000
00100000
00000000
00010000
00000000
00000000
00000000
,  // measure 18
00000000
00020000
00000000
00000000
02000000
00000000
00000000
10000000
00000000
00000000
03030000
00000000
01010000
00000000
00000000
00000000
,  // measure 19
00000000
10000000
01000000
00000000
00010000
00000000
00000100
00000000
00010000
00000000
00000010
00000000
00001000
00000000
00001000
00000001
,  // measure 20
00000000
00000002
00000000
00000000
00000200
00000000
00000000
00001000
00000000
00000000
00000303
00000000
00000110
00000000
00000000
00000000
,  // measure 21
00000000
00000001
00000010
00000000
00001000
00000000
00100000
00000000
00001000
00000000
01000000
00000000
00010000
00000000
00000000
00100000
,  // measure 22
00000000
02000000
00000000
00000000
20000000
00000000
00000000
00010000
00000000
00000000
33000000
00000000
01100000
00000000
00000000
00000000
,  // measure 23
10000000
00000000
00010000
00000000
01000000
00000000
00000000
00000000
01000000
00000000
00001000
00000000
00010000
00000000
00000100
00000000
00010000
00000000
00001000
00000000
00000000
00000000
00100000
00000000
00000000
00000000
00100000
00000000
01000000
00000000
10000000
00010000
,  // measure 24
10000000
00100000
01000000
00100000
10000000
01000000
00100000
00001000
00010000
00000010
00000100
00000001
00001000
00000000
00000110
00000000
,  // measure 25
00000001
00001000
00000010
00000000
00000010
00010000
00001000
00100000
00001000
00010000
00000000
00000100
00000000
00000000
00000100
00000010
,  // measure 26
00000001
00000100
00000010
00000100
00000001
00000010
00000100
00010000
00001000
01000000
00100000
10000000
00010000
00000000
00000000
00000000
,  // measure 27
10000000
00010000
00100000
00000000
00100000
00001000
00010000
00000010
00010000
00001000
00000000
01000000
00000000
01000000
00100000
00000000
,  // measure 28
10000000
01000000
00010000
00000000
00001000
00000000
00100000
00000000
01000000
00000000
00000000
00000000
01110M00
00000000
00000000
00010000
,  // measure 29
00100000
00001000
00010000
00000000
00000010
00000000
00010000
00000000
00001000
00000000
00000000
00000000
0M011010
00000000
00000000
00001000
,  // measure 30
00000001
00000100
00001000
00000000
00010000
00000000
00000100
00000000
00000010
00000000
00000000
00000000
00M01110
00000000
00000000
00001000
,  // measure 31
00000100
00010000
00001000
00000000
01000000
00000000
00001000
00000000
00010000
00000000
00000000
00000000
010110M0
00000000
00000000
00000000
,  // measure 32
00010000
00001000
00000100
00000000
00001000
00000000
10000000
00000000
00001000
00010000
00000100
00000010
00000000
00000000
00000000
00000001
,  // measure 33
00000000
00001000
00000001
00000000
00000100
00000000
00001000
00000000
00010000
00001000
00001000
00010000
00010000
00001000
00000000
00000000
,  // measure 34
00001000
00010000
00100000
00000000
00010000
00000000
00000001
00000000
00010000
00001000
00100000
01000000
00000000
00000000
00000000
10000000
,  // measure 35
00000000
00010000
10000000
00000000
00100000
00000000
00010000
00000000
00001000
00000000
00000010
00000000
00000100
00000000
00001000
00000000
,  // measure 36
00000000
00000020
00000000
00000000
00000200
00000000
00000000
00000001
00000000
00000000
00000330
00000000
00000110
00000000
00000000
00000000
,  // measure 37
00001000
00000001
00001000
00000000
00000010
00000000
00000100
00000000
00001000
00000000
00010000
00000000
01000000
00000000
00100000
00000000
,  // measure 38
00000000
00200000
00000000
00000000
02000000
00000000
00000000
10000000
00000000
00000000
03300000
00000000
01100000
00000000
00000000
00000000
,  // measure 39
00010000
10000000
00010000
00000000
01000000
00000000
00100000
00000000
00010000
00000000
00001000
00000000
00001000
00000010
00000000
00000001
,  // measure 40
00000000
00002000
00000000
00000000
00000020
00000000
00000000
00000001
00000000
00000000
00003030
00000000
00000110
00000000
00000000
00000000
,  // measure 41
00000001
00001000
00000001
00000000
00000010
00000000
00001000
00000000
00010000
00000000
00100000
10000000
00000000
00000000
00000000
10000000
,  // measure 42
00000000
00020000
00000000
00000000
00200000
00000000
00000000
10000000
00000000
00000000
00330000
00000000
01100000
00000000
00000000
00000000
,  // measure 43
10000000
00010000
10000000
00000000
01000000
00000000
00010000
00000000
00001000
00000000
00000100
00000001
00000000
00000000
00000000
00000010
,  // measure 44
00000000
00000200
00000000
00000000
00020000
00000000
00000000
00100000
00000000
00000000
00030300
00000000
00011000
00000000
00000000
00010000
,  // measure 45
00000000
00000010
00001000
00000000
00000100
00000000
00010000
00000000
00001000
00000000
00100000
00010000
00000000
00000000
00000000
00010000
,  // measure 46
00000000
02000000
00000000
00000000
00002000
00000000
00000000
00000010
00000000
00000000
03003000
00000000
00011000
00000000
00000000
00000000
,  // measure 47
00010000
00000000
00000100
00000000
00001000
00000000
00000000
00000000
00001000
00000000
00000010
00000000
00000100
00000000
00000001
00000000
00001000
00000000
00000100
00000000
00000000
00000000
00000010
00000000
00000000
00000000
00000010
00000000
00000001
00000000
00001000
00000001
,  // measure 48
00001000
00000010
00000001
00000110
00010000
00100000
10000000
01100000
,  // measure 49
00001000
00000100
00000001
00000010
00010000
01000000
10000000
00100000
,  // measure 50
00001000
00000010
00000001
00000100
00010000
00100000
10000000
00004000
,  // measure 51
00000000
00000000
00000000
00000000
,  // measure 52
00003000
00000000
00000000
00000000
,  // measure 53
00000000
00000000
00000000
00000000
00000000
000M0000
00000000
00000000
;
