#TITLE:ZOOQUU;
#SUBTITLE:;
#ARTIST:cybermiso;
#TITLETRANSLIT:;
#SUBTITLETRANSLIT:;
#ARTISTTRANSLIT:;
#GENRE:;
#CREDIT:;
#BANNER:[Low Speed] - ZOOQUU.png;
#BACKGROUND:[Low Speed] - ZOOQUU-bg.png;
#LYRICSPATH:;
#CDTITLE:;
#MUSIC:ZOOQUU.ogg;
#OFFSET:-4.454290;
#SAMPLESTART:43.645809;
#SAMPLELENGTH:12.000000;
#SELECTABLE:YES;
#DISPLAYBPM:110.000000;
#BPMS:0.000000=110.000000
,63.000000=220.000000
,64.750000=110.000000
,198.500000=220.000000
,199.250000=110.000000
;
#STOPS:70.750000=0.955000,
205.500000=0.818000
;
#BGCHANGES:;
#KEYSOUNDS:;
#ATTACKS:;

//---------------dance-single - ----------------
#NOTES:
     dance-single:
     :
     Challenge:
     12:
     0.871222,1.000000,0.455967,0.602527,1.000000,619.000000,56.000000,74.000000,0.000000,0.000000,0.000000,0.871222,1.000000,0.455967,0.602527,1.000000,619.000000,56.000000,74.000000,0.000000,0.000000,0.000000:
// measure 0
1000
0000
0000
0000
0001
0000
0010
0000
1100
0000
0000
0000
0011
0000
0001
0010
,  // measure 1
0200
0000
1300
0010
0001
0000
1000
0000
1020
0000
0000
0000
0230
0000
0000
0000
,  // measure 2
0301
0000
0000
0000
0000
0000
0000
0000
0000
0000
0000
0000
0010
0000
0000
0000
0000
0000
0100
0000
0000
0000
0000
0000
1000
0000
0000
0000
0000
0001
1000
0001
1000
0001
1000
0001
1000
0000
0000
1000
0000
0000
1000
0000
0000
0020
0000
0000
,  // measure 3
0130
0000
0000
0000
0010
0000
1000
0000
0002
0000
0000
0000
0013
0000
0200
0320
,  // measure 4
0031
0000
1000
0100
1000
0000
0010
0000
,  // measure 5
0100
0000
0001
0010
0100
0000
0000
0000
,  // measure 6
2010
0000
0000
0000
3010
0010
0100
0100
0102
0000
0000
0003
1000
1000
1000
1000
,  // measure 7
1002
0000
0000
0003
2020
0000
0000
3030
0101
0000
0000
0000
1100
0000
0000
0000
,  // measure 8
1002
0000
0000
0000
0000
0000
0000
0000
0020
0030
0000
0000
0200
0300
0000
0000
2003
0000
0000
0000
0000
0000
0000
0000
0200
0300
0000
0000
0020
0030
0000
0000
,  // measure 9
3002
0000
0000
0000
0000
0000
0000
0000
0000
0000
0000
0000
0000
0000
0000
0000
0000
0000
0000
0000
0000
0000
0000
0000
0000
0000
0000
0000
0000
0000
0000
0000
0000
0000
0000
0000
0000
0000
0000
0000
0000
0000
1003
0000
0000
0000
0000
0000
0001
0000
0000
0000
0000
0000
0000
0000
1000
0000
0000
0000
0000
0000
0000
0000
0001
0000
0000
0000
0000
0000
0000
0000
0010
0000
0000
0000
0000
0000
0000
0000
0000
0000
0000
0000
0100
0000
0000
0000
0000
0000
0000
0000
0000
0000
0000
0000
1000
0000
0000
0000
0000
0000
0000
0000
0000
0000
0000
0000
0000
0000
0000
0000
0001
0000
0000
0000
0000
0000
0000
0000
0000
0000
0000
0000
0000
0000
0000
0000
0100
0000
0000
0000
0000
0000
0000
0000
0000
0000
0000
0000
0000
0000
0000
0000
0010
0000
0000
0000
0000
0000
0000
0000
0000
0000
0000
0000
0000
0000
0000
0000
0000
0000
0000
0000
0000
0000
0000
0000
0100
0000
0000
0000
0000
0000
0000
0000
0000
0000
0000
0000
0000
0000
0000
0000
0000
0000
0000
0000
0000
0000
0000
0000
,  // measure 10
0002
0000
0000
0000
1003
0001
0100
0010
0002
0000
0000
0000
0013
0100
0001
1000
,  // measure 11
0200
0000
0000
0300
0000
0000
0200
0000
0000
0300
0000
0000
0100
0000
0010
0000
0001
0000
0010
0000
0100
0000
1000
0000
0010
0000
0000
0100
0000
0000
0002
0000
0000
0003
0000
0000
0002
0000
0000
0003
0000
0000
0000
0000
0000
0000
0000
0000
,  // measure 12
2001
0000
0000
0000
3010
0100
0010
0010
1020
0000
0000
0000
1030
1000
1000
1000
,  // measure 13
1002
0000
0000
0000
0000
0000
0000
0000
0000
0000
0000
0000
0000
0000
0000
0000
0000
0000
0000
0000
0000
0000
0000
0000
0000
0000
0000
0000
0000
0000
0000
0000
0000
0000
0000
0000
0000
0000
0000
0000
0000
0000
0000
0000
0000
0000
0000
0000
0023
0000
0000
0000
0000
0000
0000
0000
0000
0000
0000
0000
0000
0000
0000
0000
0000
0000
0000
0000
0000
0000
0000
0000
0000
0000
0000
0000
0000
0000
0000
0000
0000
0000
0000
0000
0000
0000
0000
0000
0000
0000
0000
0000
0030
0000
0000
0000
0120
0000
0000
0000
0000
0000
0000
0000
0000
0000
0000
0000
0000
0000
0000
0000
0000
0000
0000
0000
0000
0000
0000
0000
0000
0000
0000
0000
0000
0000
0000
0000
0000
0000
0000
0000
0000
0000
0000
0000
0000
0000
0000
0000
0000
0030
0000
0000
0012
0000
0000
0000
0000
0000
0000
0000
0000
0000
0000
0000
0000
0000
0000
0000
0000
0000
0000
0000
0000
0000
0000
0000
0000
0000
0000
0000
0000
0000
0000
0000
0000
0000
0000
0000
0003
0000
0000
0000
0000
0000
0000
0000
0000
0000
0000
0000
,  // measure 14
1001
0110
1001
0110
,  // measure 15
1001
0110
1001
0002
,  // measure 16
0000
0000
0000
1003
0100
0010
0001
0010
0100
1000
0010
0100
0001
1000
0100
1000
,  // measure 17
0010
0000
0000
0000
0000
0000
0000
0000
0000
0000
0000
0000
0100
0000
0000
0000
0000
0000
0000
0000
0000
0000
0000
0000
0001
0000
0000
0000
0000
0000
0000
0000
0000
0000
0000
0000
1000
0000
0000
0000
0000
0000
0001
0000
0000
0000
1000
0000
0000
0000
0000
0000
0000
0000
0000
0000
0000
0000
0000
0000
0001
0000
0000
0000
0000
0000
1000
0000
0000
0000
0001
0000
0000
0000
0000
0000
0000
0000
0000
0000
0000
0000
0000
0000
1000
0000
0000
0000
0000
0000
0001
0000
0000
0000
1000
0000
0000
0000
0000
0000
0000
0000
0000
0000
0000
0000
0000
0000
0001
0000
0000
0000
0000
0000
1000
0000
0000
0000
0001
0000
0000
0000
0000
0000
0000
0000
0000
0000
0000
0000
0000
0000
0100
0000
0000
0000
0000
0000
0000
0000
0000
0000
0000
0000
0010
0000
0000
0000
0000
0000
0000
0000
0000
0000
0000
0000
0100
0000
0000
0000
0000
0000
0000
0000
0000
0000
0000
0000
0001
0000
0000
0000
0000
0000
0000
0000
0000
0000
0000
0000
1000
0000
0000
0000
0000
0000
0000
0000
0000
0000
0000
0000
,  // measure 18
0100
1000
0100
0000
0010
0000
0001
0000
1000
0000
0010
0000
1000
0000
0010
0000
0100
0000
0001
0000
0200
0300
0200
0300
0001
1000
0001
0000
0100
0000
0010
0000
,  // measure 19
0100
0000
0100
0000
0100
0000
0100
0000
0010
1000
0000
0000
1000
0010
0000
0000
0200
0000
0000
0000
0000
0000
0000
0000
0301
0000
1000
0000
0010
0000
1000
0000
,  // measure 20
0001
0000
0000
0000
0000
0000
0010
0000
0000
0000
0000
0000
0001
0000
0000
0000
0000
0000
0000
0000
0000
0000
0000
0000
0010
0000
0000
0000
0000
0000
0000
0000
0000
0000
0000
0000
0100
0000
0000
0000
0000
0000
0000
0000
0000
0000
0000
0000
1000
0000
0000
0000
0000
0000
0000
0000
0000
0000
0000
0000
0001
0000
0000
0000
0000
0000
0000
0000
0000
0000
0000
0000
1000
0000
0000
0000
0000
0000
0000
0000
0000
0000
0000
0000
0001
0000
0000
0000
0000
0000
0000
0000
0000
0000
0000
0000
0100
0000
0000
0000
0000
0000
0000
0000
0000
0000
0000
0000
0010
0000
0000
0000
0000
0000
0000
0000
0000
0000
0000
0000
0200
0000
0000
0000
0000
0000
0000
0000
0000
0000
0000
0000
0302
0000
0000
0000
0000
0000
0000
0000
0000
0000
0000
0000
0013
0000
0000
0000
0000
0000
0000
0000
0000
0000
0000
0000
0010
0000
0000
0000
0000
0000
0000
0000
0000
0000
0000
0000
0010
0000
0000
0000
0000
0000
0000
0000
0100
0000
0000
0000
0000
0000
0000
0000
0000
0000
1000
0000
0000
0000
0000
0000
,  // measure 21
0001
0000
1000
0000
0100
0000
0000
0000
0010
0001
0010
0000
0001
0100
0001
0000
2000
0000
0000
0000
0000
0000
0000
0000
3001
0000
0010
0000
0001
0000
1000
0000
,  // measure 22
0010
0100
0010
0000
1000
0000
0001
0000
0010
0000
0100
0000
0010
0000
0100
0000
1000
0000
0100
0000
2000
3000
2000
3000
0001
0000
0100
0001
0200
0300
0200
0300
,  // measure 23
0010
1000
0010
1000
0001
0000
1001
0000
0002
0000
0000
0000
0103
0100
0001
1000
,  // measure 24
0010
0000
0000
0000
0000
0000
0100
0000
0000
0000
0000
0000
0010
0000
0000
0000
0000
0000
0000
0000
0000
0000
0000
0000
0100
0000
0000
0000
0000
0000
0000
0000
0000
0000
0000
0000
0010
0000
0000
0000
0000
0000
0000
0000
0000
0000
0000
0000
0100
0000
0000
0000
0000
0000
0000
0000
0000
0000
0000
0000
0001
0000
0000
0000
0000
0000
0000
0000
0000
0000
0000
0000
0100
0000
0000
0000
0000
0000
0000
0000
0000
0000
0000
0000
0001
0000
0000
0000
0000
0000
0000
0000
0000
0000
0000
0000
1000
0000
0000
0000
0000
0000
0000
0000
0000
0000
0000
0000
0100
0000
0000
0000
0000
0000
0000
0000
0000
0000
0000
0000
2000
0000
0000
0000
0000
0000
0000
0000
0000
0000
0000
0000
0000
0000
0000
0000
0000
0000
3000
0000
0000
0000
0000
0000
0200
0000
0000
0000
0000
0000
0000
0000
0000
0000
0000
0000
1300
0000
0000
0000
0000
0000
0010
0000
0000
0000
0000
0000
0100
0000
0000
0000
0000
0000
0010
0000
0000
0000
0000
0000
0000
0000
0000
0000
0000
0000
0000
0000
1000
0000
0000
0000
,  // measure 25
0000
0000
0000
0000
0001
0000
0000
0000
0000
0000
0000
0000
1000
0000
0000
0000
0000
0000
0000
0000
0000
0000
0000
0000
0100
0000
0000
0000
0000
0000
0000
0000
0000
0000
0000
0000
0010
0000
0000
0000
0000
0000
0000
0000
0000
0000
0000
0000
0001
0000
0000
0000
0000
0000
1000
0000
0000
0000
0000
0000
0001
0000
0000
0000
0000
0000
1000
0000
0000
0000
0000
0000
0001
0000
0000
0000
0000
0000
0000
0000
0000
0000
0000
0000
1000
0000
0000
0000
0000
0000
0000
0000
0000
0000
0000
0000
2000
0000
0000
0000
0000
0000
0000
0000
0000
0000
0000
0000
0000
0000
0000
0000
0000
0000
0000
0000
0000
0000
0000
0000
3001
0000
0000
0000
0000
0000
0000
0000
0000
0000
0000
0000
1000
0000
0000
0000
0000
0000
0000
0000
0000
0000
0000
0000
0001
0000
0000
0000
0000
0000
0100
0000
0000
0000
0000
0000
0001
0000
0000
0000
0000
0000
0100
0000
0000
0000
0000
0000
0001
0000
0000
0000
0000
0000
0100
0000
0000
0000
0000
0000
0001
0000
0000
0000
0000
0000
0000
0000
0000
0000
0000
0000
,  // measure 26
1000
0000
0010
0000
0100
0001
0100
0001
0010
0100
1000
0001
1000
0010
1000
0010
,  // measure 27
1000
0000
0010
0000
0100
0000
0010
0000
1000
0000
0100
0000
0010
0000
0001
0000
2000
0000
0000
0000
3000
0000
0000
0001
0100
0000
0020
0000
1000
0000
0030
0000
,  // measure 28
0100
0000
0010
1000
0001
1000
0010
0010
0200
0000
0301
1000
1001
0000
1010
0000
,  // measure 29
1000
0000
0010
0000
0100
0000
0001
0000
0010
0000
0000
0000
0100
0000
0000
0000
0010
0000
0100
0000
0010
0000
0001
0000
1000
0010
1000
0010
1000
0010
1000
0010
,  // measure 30
1000
0000
0010
0100
0001
0001
1001
1001
1000
1000
1001
1001
0001
0001
0001
0001
,  // measure 31
0001
0000
0100
0000
0010
0000
1000
0000
0001
0000
0010
0000
0100
0000
0000
0010
0000
0000
0001
0000
0000
0000
0000
0000
0101
0000
0000
0000
0000
0000
0100
0000
0000
0000
0000
0000
0010
0000
0000
1000
0000
0000
0010
0000
0000
1000
0000
0000
,  // measure 32
0001
0000
0000
0100
0000
0000
0001
0000
0000
0100
0000
0000
0010
0000
0000
1000
0000
0000
0010
0000
0000
1000
0000
0000
0001
0000
0000
0100
0000
0000
0001
0000
0000
0100
0000
0000
0010
0000
0100
0000
0010
0000
0100
0000
0001
0000
0100
0000
,  // measure 33
0001
0000
0010
0000
0001
0000
0010
0000
0001
0000
0010
0000
0100
0000
0010
0000
0100
0000
1000
0000
0100
0000
1000
0000
0100
0000
0000
0000
0000
0000
0010
0000
0000
0001
0000
0000
2000
0000
0000
0000
0000
0000
0000
0000
0000
0000
0000
0000
,  // measure 34
0010
0000
0002
0000
3003
0000
0000
0001
,  // measure 35
0000
0100
0001
0000
0000
0000
0100
0000
,  // measure 36
0000
0001
0000
2000
0000
0000
0001
0000
,  // measure 37
0000
3002
0000
0200
0000
0303
0001
0100
,  // measure 38
0010
0000
0000
0100
0010
0000
1000
0000
0001
0000
0000
1000
0100
0000
1000
0000
,  // measure 39
0010
0000
0000
0100
0010
0000
0100
0000
0001
0000
1000
0001
1000
0000
0010
0000
,  // measure 40
1000
0000
0000
0010
1000
0000
0001
0000
0010
0000
0000
0100
1000
0000
0001
0000
,  // measure 41
0100
0000
0000
0000
0010
0020
0000
0000
0100
0200
0000
0330
1001
0001
0100
0001
,  // measure 42
1000
0001
1000
0000
0001
1000
0001
0000
1000
0000
0100
0000
1000
0000
0001
0000
0100
0000
0010
0000
1000
0000
1000
0000
0100
0000
0000
0010
0001
0000
0001
0100
,  // measure 43
0001
0000
0000
0000
0000
0000
0100
0000
0000
0000
0000
0000
0010
0000
0000
0000
0000
0000
1000
0000
0000
0000
0000
0000
0002
0000
0000
0000
2003
0000
0000
0000
3002
0000
0000
0000
0003
0000
0000
0000
0000
0000
1000
0000
0000
0000
0000
0000
0001
0000
0000
0000
0000
0000
0010
0000
0000
0000
0000
0000
0100
0000
0000
0000
0000
0000
1000
0000
0000
0000
0000
0000
0100
0000
0000
0000
0000
0000
0010
0000
0000
0000
0000
0000
0100
0000
0000
0000
0000
0000
1000
0000
0000
0000
0000
0000
0100
0000
0000
0000
0000
0000
0010
0000
0000
0000
0000
0000
0001
0000
0000
0000
0000
0000
0010
0000
0000
0000
0000
0000
0100
0000
0000
0000
0000
0000
1000
0000
0000
0000
0000
0000
0001
0000
0000
0000
0000
0000
0010
0000
0000
0000
0000
0000
0100
0000
0000
0000
0000
0000
0000
0000
0000
0000
0000
0000
1000
0000
0000
0000
0000
0000
0000
0000
0000
0000
0000
0000
0010
0000
0000
0000
0000
0000
0000
0000
0000
0000
0000
0000
0100
0000
0000
0000
0000
0000
0000
0000
0000
0000
0000
0000
,  // measure 44
0001
0000
0000
0000
0200
0000
0000
0000
0000
0000
0000
0000
0000
0000
0000
0000
0000
0000
0000
0000
0300
0000
0000
0000
0010
0000
0000
0000
2000
0000
0000
0000
0000
0000
0000
0000
3001
0000
0000
0000
0000
0000
0000
0000
0000
0000
0000
0000
0100
0000
0000
0000
0000
0000
0000
0000
0000
0000
0000
0000
0010
0000
0000
0000
0000
0000
0000
0000
0000
0000
0000
0000
1000
0000
0000
0000
0000
0000
0000
0000
0000
0000
0000
0000
0001
0000
0000
0000
0000
0000
0000
0000
0000
0000
0000
0000
0002
0000
0000
0000
0000
0000
0023
0000
0000
0000
0000
0000
0230
0000
0000
0000
0000
0000
2300
0000
0000
0000
0000
0000
3002
0000
0000
0000
0000
0000
0023
0000
0000
0000
0000
0000
0230
0000
0000
0000
0000
0000
2300
0000
0000
0000
0000
0000
3001
0000
0000
0000
0000
0000
0000
0000
0000
0000
0000
0000
0000
0000
0000
0000
0000
0000
0000
0000
0000
0000
0000
0000
0000
0000
0000
0000
0000
0000
0000
0000
0000
0000
0000
0000
0000
0000
0000
0000
0000
0000
0000
0000
0000
0000
0000
0000
,  // measure 45
1001
0000
1001
1000
0000
0000
0001
0100
0001
1000
0001
0000
1000
0010
0100
0001
,  // measure 46
0010
0000
0100
0000
0010
0000
0001
0000
1000
0001
1000
0001
1000
0010
1000
0010
1000
0100
1000
0100
1000
0001
1000
0001
1000
0000
0000
0001
0100
0010
1000
0001
,  // measure 47
0010
0100
0010
0001
1000
0010
1000
0000
0001
0000
1000
0000
0000
0000
0001
0000
1000
0000
0000
0000
0001
0000
1000
0000
0010
0000
0010
0000
0100
0000
0100
0000
,  // measure 48
0001
0000
0001
0000
1000
0000
1000
0000
1001
0000
0000
0000
0110
0000
0000
0000
0001
0000
0100
0000
0010
0000
1000
0000
0010
0000
0000
0100
0001
0000
0000
0001
,  // measure 49
0010
0100
0010
0001
1000
0000
0002
0000
0103
0000
0000
0000
0000
0000
0000
0000
2001
0000
0000
0000
3200
0000
0000
0000
0300
0000
0000
0000
1100
0000
0000
0000
,  // measure 50
1010
0101
1010
0101
1010
0101
1010
1100
,  // measure 51
0011
1100
1010
1001
0101
1010
1100
0011
,  // measure 52
1100
0101
2020
3030
0100
0000
0010
1000
,  // measure 53
0001
0000
0000
0000
;

//---------------dance-single - ----------------
#NOTES:
     dance-single:
     :
     Hard:
     9:
     0.682787,0.712041,0.480393,0.252410,0.683950,497.000000,59.000000,31.000000,0.000000,0.000000,0.000000,0.682787,0.712041,0.480393,0.252410,0.683950,497.000000,59.000000,31.000000,0.000000,0.000000,0.000000:
0001
0000
0000
0000
1000
0000
0100
0000
0110
0000
0000
0000
0011
0000
0001
1000
,
0200
0000
0310
0001
2001
0000
3020
0000
,
0130
0000
0000
0000
0000
0000
0000
0000
0000
0000
0000
0000
0100
0000
0000
0000
0000
0000
0010
0000
0000
0000
0000
0000
1000
0000
0000
0000
0000
0000
0001
0000
0100
0000
0001
0000
0100
0000
0000
0001
0000
0000
0100
0000
0000
0020
0000
0000
,
0130
0000
0000
0000
0010
0000
1000
0000
0002
0000
0000
0000
1003
0000
0200
0320
,
0031
0000
0010
0100
1000
0000
0001
0000
,
1000
0000
0001
0010
0100
0000
0000
0000
,
1002
0103
2001
3100
,
1002
0103
2001
3010
,
1002
0103
2001
3100
,
1002
0103
0101
1010
,
0002
0000
0000
0000
0103
0010
0100
0001
2000
0000
0000
0000
3001
0010
0001
1000
,
0100
0000
0000
0000
0000
0000
0100
0000
0000
0000
0000
0000
0010
0000
0001
0000
1000
0000
0001
0000
0000
0100
0000
0000
0001
0000
0000
1000
0000
0000
0001
0000
0000
0000
0000
0000
1000
0000
0000
0000
0000
0000
0000
0000
0000
0000
0000
0000
,
0011
0000
0000
0000
0010
0100
1000
0001
0100
0000
0000
0000
0010
0100
0010
0100
,
0010
0000
0000
0000
0100
0001
0010
0100
1000
0000
0000
0000
0001
0000
0000
0000
,
1001
1001
0110
0110
,
1001
1001
0110
2002
,
0000
0000
3003
1000
0001
1000
0001
1000
0001
1000
0001
1000
0001
1000
0001
1000
,
0001
1000
0001
0100
0010
1000
0100
0010
0001
0010
1000
0010
0001
0100
0001
1000
,
0100
1000
0001
0100
1000
0100
0010
1000
0001
0010
0100
1000
0001
1000
0000
1000
,
0010
0100
0000
0100
0010
0000
1000
0000
1001
0000
0000
0000
0001
0010
0100
0010
,
0001
0000
0000
1000
0000
0000
0010
0000
0000
0100
0000
0000
0001
0000
0000
0010
0000
0000
0100
0000
0000
0010
0000
0000
0001
0000
0000
1000
0000
0000
0020
0000
0000
0000
0000
0000
0130
0000
0000
0001
0000
0000
0000
0000
0010
0000
0000
0000
,
0100
1000
0001
0000
1100
0000
0011
0000
0101
0000
0100
0010
1000
1000
0010
0100
,
0001
0001
0010
0100
1000
1000
0100
0010
0001
0001
0010
0001
1000
1000
0000
0010
,
0100
0001
0100
0001
0100
0000
0010
0000
1001
0000
0000
0000
0001
0001
1000
0010
,
0100
0100
0010
1000
0001
0001
0001
1000
0010
0010
0100
0001
0010
1000
0010
0001
,
1000
0010
1000
0001
0100
0000
0100
0000
0110
0000
0100
0001
2000
0000
0000
0000
,
3100
0000
0000
0000
1000
1000
0010
0010
0100
0100
0001
0001
1000
1000
0001
0010
,
0100
0010
0001
1000
0010
0010
0100
0100
0002
0000
0003
0000
1001
1000
0010
0000
,
0000
0000
0100
0100
0000
0001
0001
1000
0010
1000
0010
0100
0010
0000
1000
0000
,
0100
0000
0000
0010
0000
0000
0001
0000
0000
1000
0000
0000
0001
0000
0000
0000
0000
0000
0001
0000
0000
0000
0000
0000
0001
0000
0000
0100
0000
0000
0001
0000
0000
0010
0000
0000
0001
0000
1000
0000
0001
0000
1000
0000
0001
0000
1000
0000
,
0001
0000
0100
0010
1000
1000
0001
0010
0100
0100
0010
0001
1000
1000
0001
0001
,
1000
0000
0100
0000
0010
0000
0001
0000
1000
0000
0100
0000
0010
0000
0000
0001
0000
0000
0100
0000
0000
0000
0000
0000
0110
0000
0000
0000
0000
0000
1001
0000
0000
0000
0000
0000
0101
0000
0000
0000
0000
0000
0100
0000
0000
0000
0000
0000
,
0101
0000
0001
0000
0101
0000
0100
0000
0101
0000
0001
0000
0100
0010
1000
0001
,
0010
0100
0010
0001
1000
0000
1000
0000
1000
0000
0001
1000
1001
0000
0000
0000
,
0001
0000
0100
0000
0000
0000
0000
0010
,
0000
0100
0001
0000
0000
0000
1000
0000
,
0010
0100
0000
0002
0000
0000
2003
0000
,
0000
0010
0000
0020
0000
3030
1000
0100
,
0010
0000
0010
0001
0100
0000
0010
1000
,
0001
1000
0100
0000
1000
0000
0010
0100
,
0010
0000
1000
0010
1000
0000
0010
0100
,
0001
0000
1000
0000
0001
0002
0000
0000
1000
2000
0000
3003
1001
0001
0100
0001
,
0020
0000
0230
0000
1300
0000
1000
0000
0100
1000
0010
0100
0001
0000
0010
0000
,
0100
0000
0010
0000
0001
0000
0000
0000
1000
0001
1000
0001
1000
0001
1000
0001
0100
0001
0100
0001
0100
0001
0100
0001
0100
0000
0000
0000
0010
0000
0000
0000
,
1001
0000
0000
0000
1001
0000
0001
0000
0010
0000
0000
0000
0100
0000
0000
0000
1000
0100
1000
0100
1000
0100
1000
0100
1000
0000
0000
0000
0000
0000
0000
0000
,
0100
0000
1002
1000
0000
0000
1003
0001
0100
0000
0010
0000
1000
0100
1000
0001
,
0100
0000
0010
0000
0100
0010
1000
0001
0010
0000
0100
0000
0010
0001
1000
0010
,
1000
0000
0001
0000
1000
0100
0000
0010
0001
0000
1000
0100
0010
0001
0100
0000
,
0010
1000
0001
0000
0010
0100
0010
0001
1000
0010
1000
0000
0001
0100
1000
0100
,
0001
0010
1000
0010
0001
0000
0000
0000
0000
0000
0000
0000
0000
0000
1001
0000
,
1001
1001
1001
0110
0110
0110
0110
1001
,
0110
1001
0110
1001
0101
1010
0101
1100
,
0011
1010
2002
3003
1000
0000
0001
0010
,
0100
0000
0000
0000
;

//---------------dance-single - ----------------
#NOTES:
     dance-single:
     :
     Medium:
     8:
     0.502494,0.690464,0.610670,0.179130,0.179130,335.000000,75.000000,22.000000,0.000000,0.000000,0.000000,0.502494,0.690464,0.610670,0.179130,0.179130,335.000000,75.000000,22.000000,0.000000,0.000000,0.000000:
0001
0000
0000
0000
1000
0000
0010
0000
0100
0000
0000
0000
0001
0000
1000
0001
,
0100
0000
1010
1000
1002
0000
0203
0000
,
0310
0000
0000
0000
0100
0000
0001
0000
0010
0000
0100
1000
0001
0000
0100
0000
,
0010
0000
0000
0000
1000
0000
0010
0000
0200
0000
0000
0000
0301
0000
1000
0001
,
0010
0000
0100
0010
0001
0000
1000
0000
,
0001
0000
0100
0010
1000
0000
0000
0000
,
1001
0000
0011
0000
,
1001
0000
1010
0101
,
1001
0000
1100
0000
,
1001
0000
0101
1001
,
1100
0000
0100
0010
0011
0000
0010
0100
,
1100
0000
0100
0000
1000
0010
0100
0000
,
0110
0000
0100
0010
1001
0000
0100
0010
,
1001
0000
0001
0100
0101
0000
1100
0000
,
1001
1001
1001
1001
,
1001
1001
1001
1001
,
0000
0000
0000
0101
0000
0000
0000
1100
0000
0000
0000
0101
0000
0000
0000
1100
,
0000
0000
0000
0001
0000
0100
0000
0010
0000
1000
0000
0010
0100
0000
0010
0000
,
1000
0010
0001
0010
1000
0100
0001
0100
,
0010
0001
1000
0001
1001
0000
0001
0100
,
0010
0100
0001
1000
0100
1000
0001
0001
,
1000
1000
0001
0100
0110
0000
0010
1000
,
0010
0001
0010
0100
0010
1000
0001
0100
,
0001
0100
0010
0010
1001
0000
0001
0010
,
0001
1000
0010
1000
0010
0001
0010
0100
,
0001
0010
0100
0010
0011
0000
1002
0000
,
0103
0000
0000
0000
0010
1000
0010
1000
0010
1000
0010
1000
0010
1000
0010
1000
,
0010
1000
0010
1000
0010
1000
0001
0100
0001
0000
0000
0000
0001
1000
0010
0000
,
0000
0000
0100
0000
0000
0010
1000
0010
1000
0000
0010
0000
0100
0001
1000
0000
,
0001
0010
0100
1000
0001
0000
0001
0000
1000
0000
1000
0000
0020
0000
0000
0000
,
0130
0000
0000
0000
0001
1000
0100
0100
1000
0001
0100
0100
0001
0010
0100
1000
,
0020
0000
0000
0000
0130
0001
1001
0000
1001
0000
0000
0000
0001
0000
0100
0000
,
1000
0100
0001
0100
1000
0100
0001
0010
,
1000
0010
0001
0010
0100
1000
1001
0000
,
0001
0000
0100
0000
0000
0000
0000
0001
,
0000
1000
0100
0000
0000
0000
1000
0000
,
0010
0200
0000
0002
0000
0303
0001
0000
,
0100
0020
0000
2000
0000
3030
1010
0000
,
0000
0101
0000
1001
,
0000
0101
1010
1100
,
0000
0110
0000
0011
,
0000
0000
1002
0000
0203
0000
0310
1000
,
0001
0001
0010
1000
0010
0010
0001
0010
,
0001
1000
0020
0230
0302
2003
3100
0010
,
0110
0000
0110
0000
0010
0000
0001
0000
2002
0000
0000
3003
1001
0000
0000
0000
,
1001
0000
0001
1000
0000
0000
0001
0010
0001
0010
0000
0000
0001
1000
0100
0000
,
1000
0000
0010
0000
0100
0001
0100
0000
0001
0000
0100
0000
0010
0100
0010
0000
,
0100
0000
0010
0000
1000
0010
0000
0100
0001
0000
1000
0010
0200
0000
0301
0000
,
0200
0310
0020
1030
2000
3001
1001
0000
,
0001
1000
0100
0000
0000
0000
0000
1001
,
1001
1001
1001
1001
1001
1001
1001
1001
,
1001
1001
1001
1001
0110
0110
1001
0110
,
1001
0110
1001
0000
1000
0000
0010
1000
,
0100
0000
0000
0000
;

//---------------dance-single - ----------------
#NOTES:
     dance-single:
     :
     Easy:
     5:
     0.317548,0.345232,0.187272,0.154703,0.028498,231.000000,23.000000,19.000000,0.000000,0.000000,0.000000,0.317548,0.345232,0.187272,0.154703,0.028498,231.000000,23.000000,19.000000,0.000000,0.000000,0.000000:
0001
0100
0110
1001
,
1000
0000
0100
1000
0001
0000
1000
0000
,
0100
1000
0020
0030
,
0100
0001
2000
3000
,
0001
1000
0100
1000
,
0001
0000
1000
0001
1000
0000
0000
0000
,
1001
0000
0110
0000
,
0110
0000
1001
0110
,
1001
0000
0110
0000
,
1001
0000
0110
0100
,
0002
0103
0002
0103
,
0001
1000
0001
0001
,
2000
3100
2000
3010
,
2000
3001
2000
3020
,
0130
0100
0100
0100
,
0100
0100
0100
0200
,
0000
0000
0000
0310
0000
0000
0000
0010
0000
0000
0000
0010
0000
0000
0000
0010
,
0000
0000
0000
0100
0000
0000
0000
0010
0000
0000
0000
1001
0001
0000
0000
0000
,
0100
0010
1000
0001
,
0010
0000
0100
1000
0100
0000
1000
0000
,
0001
0100
0001
1000
,
0100
0000
1000
0010
0100
0001
1000
0000
,
0001
0010
0100
0010
,
0001
0000
1000
0001
1001
0000
0001
0000
,
1000
0010
0100
0001
,
0100
0000
0010
1000
0001
1000
0200
0000
,
1300
0100
1000
0010
,
0100
0000
0001
1000
0001
0000
0100
0000
,
0010
0000
1000
0000
0010
0100
0001
0000
,
1000
0001
0100
0000
0001
0010
0100
0000
,
0010
0000
0001
1000
0010
0000
1000
0010
,
1000
0000
0001
0100
0101
0000
1000
0000
,
1000
0001
0001
1001
,
0110
0101
1010
1001
,
0001
1000
0000
1000
,
0000
0010
0100
0001
,
0000
1000
0000
0010
,
0000
1000
0001
0100
,
0001
0010
0000
0100
,
0010
0001
1000
0001
,
0100
0001
1000
0100
,
1000
1002
0203
0310
,
0100
0000
0001
0000
1000
0100
1000
0000
,
0010
0200
0320
2030
,
3001
1000
0020
0000
1030
0001
0200
0000
,
0301
2000
0000
0100
3100
0000
1000
0000
,
0010
0100
0010
0000
1000
0001
0100
0000
,
0001
1000
1100
0000
0011
0000
1100
0000
,
0100
1000
0010
0000
0100
0000
0001
0000
,
1000
0001
0100
0000
0000
0000
0000
0001
,
1000
0001
1000
0001
1000
0001
1000
0001
,
1000
0001
1000
0001
0100
0010
0100
0010
,
0100
0010
0100
0000
0010
0000
0100
0001
,
1000
0000
0000
0000
;

//---------------dance-single - ----------------
#NOTES:
     dance-single:
     :
     Beginner:
     2:
     0.132603,0.194193,0.097707,0.000000,0.000000,102.000000,12.000000,0.000000,0.000000,0.000000,0.000000,0.132603,0.194193,0.097707,0.000000,0.000000,102.000000,12.000000,0.000000,0.000000,0.000000,0.000000:
0001
0000
0000
0000
,
1000
0010
1000
0000
,
0001
0000
0100
0000
,
0010
0000
0100
0000
,
0010
0000
0100
0000
,
0001
0000
0000
0000
,
1001
0000
1001
0000
,
0110
0000
0110
0010
,
0100
0000
1001
0000
,
0110
0000
0100
0100
,
0010
0000
0010
0000
,
0100
0000
0000
0000
,
0001
0000
0001
0000
,
1000
0000
0001
0000
,
0100
0000
0000
0000
,
0000
0000
0000
0010
,
0000
0000
0000
0000
,
0000
0000
0000
0001
,
0000
1000
0000
0100
,
0000
0000
0000
1000
,
0000
0010
0000
0100
,
0000
0100
0000
0001
,
0000
0000
0000
0001
,
0000
0000
0000
1000
,
0000
0010
0000
0100
,
0000
0010
0000
0010
,
0000
0100
0000
0001
,
0000
1000
1000
0001
,
0000
0100
0000
0010
,
0100
0001
0000
1000
,
0000
0001
0000
0001
,
0000
1000
1000
0010
,
0000
0000
0000
0100
,
0000
0001
1000
1001
,
0000
0000
0000
0000
,
0000
0000
0000
0001
,
0000
0000
0000
1000
,
0000
0000
0000
0010
,
0010
0010
0000
0000
,
0100
0000
0000
0001
,
0000
1000
0000
0010
,
0000
0110
1001
0110
,
0000
0100
0000
0010
,
0000
1000
0001
0100
,
0000
0010
0000
0100
,
0001
0000
0100
0010
,
0000
1000
0000
0001
,
0000
0110
0000
1001
,
0000
0001
0000
1000
,
1000
0000
1000
0000
0000
0000
0000
0001
,
0000
0000
0000
1000
0000
0000
0000
0001
,
0000
0000
0000
1000
0010
0000
0000
0000
,
0100
0000
0010
0100
,
0001
0000
0000
0000
;
