#TITLE:魚氷に上り 耀よひて;
#SUBTITLE:;
#ARTIST:あさき;
#TITLETRANSLIT:Uohi ni nobori kaga yo hite;
#SUBTITLETRANSLIT:;
#ARTISTTRANSLIT:Asaki;
#GENRE:;
#CREDIT:;
#MENUCOLOR:;
#METERTYPE:DDR;
#BANNER:[Low Speed] - Uohi ni nobori kaga yo hite.png;
#BACKGROUND:[Low Speed] - Uohi ni nobori kaga yo hite-bg.png;
#LYRICSPATH:;
#CDTITLE:./CDTITLES/REFLEC BEAT.PNG;
#MUSIC:[Low Speed] - Uohi ni nobori kaga yo hite.mp3;
#OFFSET:-1.757;
#SAMPLESTART:62.620;
#SAMPLELENGTH:15.000;
#SELECTABLE:YES;
#LISTSORT:;
#BPMS:0.000=106.000;
#STOPS:;
#BGCHANGES:;
#ATTACKS:;

//---------------dance-single - ----------------
#NOTES:
     dance-single:
     :
     Beginner:
     1:
     0.073,0.105,0.027,0.000,0.000:
0000
0000
0000
0000
,
0000
0000
0000
0000
,
0000
0000
0000
0000
,
0000
0000
0000
0000
,
0000
0000
0000
0000
,
0010
0000
0000
0000
,
1000
0000
0000
0000
,
0001
0000
0000
0000
,
0100
0000
0000
0001
,
0000
0000
0000
0010
,
0000
0000
0000
0100
,
0000
0000
1000
0000
,
0000
0000
1001
0000
,
0000
0000
0100
0000
,
0000
0000
0010
0000
,
0000
0000
0000
0000
,
1000
0000
0001
0000
,
1000
0000
0000
0000
,
0001
0000
0000
0000
,
0010
0000
0000
0000
,
0100
0000
0000
0000
,
0010
0000
0000
0000
,
0001
0000
0000
0000
,
1000
0000
0000
0000
,
0010
0000
0000
0000
,
0100
0000
0100
0000
,
0100
0000
0000
0000
,
1001
0000
0000
0000
,
0001
0000
0000
0000
,
0010
0000
0000
0000
,
0100
0000
0000
0000
,
1000
1000
0000
0000
,
0001
0001
0000
0000
,
0010
0010
0000
0000
,
0100
0100
0000
0000
,
1001
0000
0000
0000
,
0010
0000
0000
0000
,
1000
0000
0000
0000
,
0001
0000
0000
0000
,
0100
0100
0000
0000
,
0010
0010
0000
0000
,
1000
1000
0000
0000
,
0001
0001
0000
0000
,
1000
0000
0000
0000
,
0000
0000
0000
0000
,
0100
0000
0100
0000
,
0100
0000
0100
0100
;

//---------------dance-single - ----------------
#NOTES:
     dance-single:
     :
     Easy:
     2:
     0.131,0.147,0.063,0.000,0.000:
0000
0000
0000
0000
,
0000
0000
0000
0000
,
0000
0000
0000
0000
,
0000
0000
0000
0000
,
0000
0000
0000
0000
,
0010
0100
0000
0100
,
0000
0100
0000
0001
,
1000
0001
0000
0001
,
1000
0100
0010
0000
,
0010
0000
0010
0000
,
0010
0000
0100
0000
,
0100
0000
1001
0000
,
0000
0000
0010
0010
,
1000
0000
0001
0000
,
1000
0000
0100
0000
,
0010
0010
0001
0000
,
0100
0000
1001
0000
,
0010
0000
1001
0000
,
1000
0000
1000
0000
,
0001
0000
0100
0000
,
0110
0000
0000
0000
,
0001
0000
0000
0000
,
0010
0000
0000
0000
,
0110
0000
0000
0000
,
1000
0000
0000
0000
,
0100
0000
0100
0000
,
0010
0000
0010
0000
,
0001
1000
0001
0000
,
1000
0000
1000
0000
,
0010
0100
0010
0000
,
0100
0000
0100
0000
,
0001
0001
0010
0000
,
0100
0100
1000
0000
,
0010
0100
0010
0000
,
1000
0000
0001
0000
,
1001
0000
1000
0000
,
0100
0100
0010
0000
,
0001
0000
0001
0000
,
0100
0100
0010
0000
,
1000
0100
0010
0000
,
0001
0100
0010
0000
,
1000
0000
0001
0000
,
0110
0000
0001
0000
,
0100
0000
0000
0000
0000
0000
0000
0010
,
0000
0000
0000
1000
,
0001
0001
1000
1000
,
0010
0010
0100
0100
;

//---------------dance-single - ----------------
#NOTES:
     dance-single:
     :
     Medium:
     5:
     0.297,0.295,0.117,0.000,0.094:
0000
0000
0000
0000
,
0000
0000
0000
0000
,
0000
0000
0000
0000
,
0000
0000
0000
0000
,
0000
0000
0000
0000
,
0001
0000
1000
0000
0001
0100
0010
0000
,
1000
0000
0001
0000
1000
0001
0100
0000
,
0010
0000
1000
0000
0001
0100
0010
0000
,
0100
0000
0100
0001
0010
0000
0100
0000
,
1000
0010
1000
0000
0001
0000
0010
0000
,
0001
0010
0001
0000
0100
0000
0010
0000
,
1000
0001
0100
0000
0001
0000
0000
1001
,
0000
0000
1000
0000
0100
0100
1000
0000
,
0001
0010
0001
0000
0100
0100
0001
0000
,
1000
0010
1000
0000
0001
0010
0100
0000
,
1000
0000
0010
0000
0100
0000
0000
1001
0000
0000
0000
0000
0000
0000
0001
0000
,
1000
1001
0001
1001
,
0010
0110
0100
0000
,
0001
0010
0010
0000
0100
1000
0100
0000
,
1000
0000
0000
0110
0000
0000
0001
0000
,
0010
0000
0000
1001
0000
0000
0000
0000
0000
0100
0000
0100
0000
0000
0010
0000
,
0001
0000
0000
0001
0000
0000
0000
0000
0100
0000
0010
0000
0100
0000
0000
0000
,
0010
0000
0000
0100
0000
0100
0000
0100
0000
0000
0001
0000
1000
0000
0000
0000
,
0100
0000
0000
1001
0000
0000
0000
0000
0000
0010
0000
0010
0000
0000
1000
0000
,
0100
0000
0000
0100
0000
0000
0010
0000
0001
0000
0000
0000
1000
0000
0000
0000
,
0001
0000
0100
0010
0100
0000
0001
0000
,
1000
0000
0000
0100
0000
0100
0000
0100
0000
0000
0000
0000
0000
0000
0000
0000
,
1001
0000
0010
0000
0010
0100
0001
0000
,
0001
0000
0010
0000
0001
0010
0100
0000
,
1000
0000
1000
0000
1000
0010
0100
0000
,
0010
0000
1000
0001
0100
0000
0001
0000
,
1001
0000
0010
1000
0100
0000
1000
0000
,
0001
0000
0010
0001
0100
0000
0001
0000
,
1000
0000
0000
0100
0000
0000
0010
0000
0000
0001
0000
0000
0100
0000
0010
0000
,
1000
0000
0000
0010
0000
0000
0110
0000
0000
0001
0000
0000
0100
0000
0001
0000
,
1000
0000
1000
0001
0010
0001
0100
0000
,
0100
0000
0001
0100
0010
1000
0100
0000
,
1000
0000
0100
0010
0001
0100
0010
0000
,
0100
0000
0001
0010
0100
1000
0010
0000
,
0100
0100
0001
0000
1000
0010
1000
0000
,
0001
0001
0010
0000
0001
1000
0001
0000
,
0100
0010
1000
0000
0100
0010
0001
0000
,
1000
0000
0001
0000
0100
0000
0000
1001
0000
0000
0001
0000
0010
0000
0100
0000
,
0010
0000
0000
0000
0000
0000
0000
0001
,
0000
0000
0000
0000
0000
1000
1000
1000
,
0010
0100
0100
0001
0010
0100
0100
1000
,
0010
0000
0100
0000
0100
0000
0001
0000
1000
0000
0010
0000
0100
0000
0000
0110
;

//---------------dance-single - ----------------
#NOTES:
     dance-single:
     :
     Hard:
     8:
     0.450,0.463,0.135,0.000,0.457: // measure 1
0000
0000
0000
0000
,  // measure 2
0000
0000
0000
0000
,  // measure 3
0000
0000
0000
0000
,  // measure 4
0000
0000
0000
0000
,  // measure 5
0000
0000
0000
0000
,  // measure 6
0001
0000
0010
0000
0100
0000
0000
0010
0000
0000
0000
0010
0001
0000
1000
0000
,  // measure 7
0100
0000
1000
0000
0010
0000
0000
0100
0000
0000
0000
0100
0010
0000
1000
0000
,  // measure 8
0010
0000
0100
0000
0001
0000
0000
1000
0000
0000
0000
0001
1000
0000
0010
0000
,  // measure 9
0100
0000
0100
0000
0100
0000
1010
0000
0001
0000
0000
0010
0100
0000
0000
0010
,  // measure 10
0000
0000
0000
0001
1000
0000
0010
0000
1000
0000
0010
0000
0100
0000
0000
0010
,  // measure 11
0000
0000
0000
1000
0001
0000
1000
0000
0001
0000
0000
0010
0100
0000
0010
0000
,  // measure 12
0001
0000
0000
1000
0001
0000
1000
0000
0010
0100
0000
0100
0001
0000
0001
1000
,  // measure 13
0000
1000
0001
0000
1000
0000
1000
0000
0001
0000
0010
0000
0100
0000
0000
0010
,  // measure 14
0000
0001
0000
1000
0001
0000
0100
0000
0010
0000
1000
0000
0100
1000
0000
0001
,  // measure 15
0000
0010
0100
0000
0010
0000
0001
0000
0100
0001
0000
1000
0000
0010
0000
0100
,  // measure 16
0010
0000
1000
0001
0000
0001
1000
0001
0000
0000
0100
0000
0100
0000
0010
0000
,  // measure 17
1000
1100
0001
0101
,  // measure 18
0010
0000
0000
1010
0000
0000
0001
1000
0001
0000
0000
0000
,  // measure 19
1000
0000
0100
0000
1000
0000
0001
0100
0000
0100
0001
0000
0010
0000
0001
0000
,  // measure 20
1000
0100
0000
0000
0000
0000
1000
0001
0000
0001
0000
0000
0100
0000
0100
0000
,  // measure 21
0010
0000
0000
1001
0000
0000
0000
0000
0000
0001
0000
0001
0000
0000
1000
0000
,  // measure 22
0100
1000
0000
1001
0000
0000
0000
0000
0001
0000
0100
0000
0001
0000
1000
0000
,  // measure 23
0001
1000
0001
1000
0000
0100
0000
0100
0000
1000
0010
0100
0010
0100
0000
0000
,  // measure 24
0010
0000
0000
1001
0000
0000
0000
0000
0000
1000
0000
1000
0000
0000
0010
0000
,  // measure 25
0100
0010
0000
0110
0000
0000
0001
1000
0000
0100
0000
0000
1000
0000
0100
0000
,  // measure 26
0010
0000
0000
0010
0100
0000
1000
0000
0001
0000
0000
0001
0100
0000
0010
0000
,  // measure 27
0100
0001
1000
0001
0000
0010
0000
0110
0000
0000
0000
0000
1001
0000
0000
0000
,  // measure 28
1000
0000
0000
0000
1000
0000
0010
1000
0100
0000
1000
0000
0001
0000
1000
0000
,  // measure 29
0001
0000
0000
0000
0001
0000
0010
0001
0100
0000
0001
0000
0010
0000
0100
0000
,  // measure 30
0010
0000
0000
0000
0010
0000
0001
0100
0010
0000
0100
0000
0010
0000
1000
0000
,  // measure 31
0100
0000
0000
0000
0100
0000
1000
0010
0100
0000
0010
1000
0001
0000
0100
0000
,  // measure 32
1010
0000
0000
0000
0001
0000
1000
0000
0010
0000
0100
0010
1000
0000
0001
0000
,  // measure 33
0100
0000
0000
0000
0001
0000
1000
0000
0001
0000
0010
0001
0100
0000
0010
0000
,  // measure 34
1000
0000
1000
0100
0000
0100
0010
0000
0001
0100
0000
0100
0010
0000
0100
0000
,  // measure 35
0001
1000
0001
1000
0000
0000
0110
0000
0100
0001
0000
0000
1000
0001
0100
0001
,  // measure 36
1000
0000
0001
0000
1000
0000
0001
0000
0010
0000
0001
0100
0010
0000
0100
0000
,  // measure 37
0001
0000
1000
0000
0001
0000
1000
0100
0010
0000
0100
0000
1000
0000
0010
0000
,  // measure 38
0100
0000
0010
0000
0100
0000
0010
1000
0001
0000
0010
0000
0001
0000
1000
0000
,  // measure 39
0100
0000
0010
0000
0100
0000
1000
0001
0100
0000
0001
1000
0010
0000
0100
0000
,  // measure 40
1001
0000
0000
0000
0010
0000
1000
0010
0100
0000
0001
0010
0100
0000
0010
0000
,  // measure 41
0001
0000
0000
0000
0100
0000
0010
1000
0100
0000
0010
0001
0100
0000
0010
0000
,  // measure 42
1000
0001
0100
0010
1000
0100
0010
0001
,  // measure 43
0100
0000
0100
0000
0010
0100
0000
1001
0000
0000
0001
0010
0100
1000
0010
0000
,  // measure 44
0110
0000
0000
0000
0000
0000
0000
0001
,  // measure 45
0000
0000
0000
0000
0000
0001
0001
0001
,  // measure 46
1000
0001
0100
0000
0001
0000
1000
0100
0000
0100
1000
0000
0001
0010
0100
0010
,  // measure 47
0000
0010
0001
0000
1000
0010
0100
0010
0000
0010
1000
0000
0001
1000
0001
1000
;
