#VERSION:0.81;
#TITLE:The Mother We Share;
#SUBTITLE:;
#ARTIST:CHVRCHES;
#TITLETRANSLIT:;
#SUBTITLETRANSLIT:;
#ARTISTTRANSLIT:;
#GENRE:;
#ORIGIN:;
#CREDIT:;
#BANNER:The Mother We Share - Chvrchesbn.png;
#BACKGROUND:The Mother We Share - Chvrchesbg.png;
#PREVIEWVID:;
#JACKET:;
#CDIMAGE:;
#DISCIMAGE:;
#LYRICSPATH:The Mother We Share - Chvrches.lrc;
#CDTITLE:encorerebirth.png;
#MUSIC:The Mother We Share - Chvrches.ogg;
#OFFSET:0.348;
#SAMPLESTART:43.033;
#SAMPLELENGTH:22.678;
#SELECTABLE:YES;
#BPMS:0.000=87.000,
96.000=43.500,
120.000=87.000;
#STOPS:;
#DELAYS:;
#WARPS:;
#TIMESIGNATURES:0.000=4=4;
#TICKCOUNTS:0.000=4;
#COMBOS:0.000=1;
#SPEEDS:0.000=1.000=0.000=0;
#SCROLLS:0.000=1.000;
#FAKES:;
#LABELS:0.000=Song Start;
#BGCHANGES:;
#KEYSOUNDS:;
#ATTACKS:
;

//---------------dance-single - Spork!----------------
#NOTEDATA:;
#CHARTNAME:;
#STEPSTYPE:dance-single;
#DESCRIPTION:Spork!;
#CHARTSTYLE:;
#DIFFICULTY:Beginner;
#METER:1;
#RADARVALUES:0.070,0.073,0.063,0.054,0.000,42.000,7.000,6.000,0.000,0.000,0.000,0.000,0.000,0.070,0.073,0.063,0.054,0.000,42.000,7.000,6.000,0.000,0.000,0.000,0.000,0.000;
#CREDIT:Spork!;
#NOTES:
0000
0000
0000
0000
,
0000
0000
0000
0000
,
0000
0000
0000
0000
,
0000
0000
0000
0000
,
0002
0000
0003
0000
,
2000
0000
3000
0000
,
0002
0000
0003
0000
,
0100
0000
0000
0000
,
1001
0000
0000
0000
,
0110
0000
0000
0000
,
0110
0000
0000
0000
,
1000
0000
0001
0000
,
0110
0000
0000
0000
,
1001
0000
0000
0000
,
1001
0000
0000
0000
,
0010
0000
0100
0000
,
0001
0000
1000
0000
,
0100
0000
0000
0000
,
1000
0000
0001
0000
,
1000
0000
0010
0000
,
1000
0000
0001
0000
,
0010
0000
0000
0000
,
0001
0000
1000
0000
,
0001
0000
0100
0000
,
0010
0000
0010
0000
,
0100
0000
0000
0000
,
0001
0000
1000
0000
,
0001
0000
0001
0000
,
0010
0000
0100
0000
,
0010
0000
1001
0000
,
0200
0000
0300
0000
,
0020
0000
0030
0000
,
0200
0000
0300
0000
;

//---------------dance-single - Spork!----------------
#NOTEDATA:;
#CHARTNAME:;
#STEPSTYPE:dance-single;
#DESCRIPTION:Spork!;
#CHARTSTYLE:;
#DIFFICULTY:Easy;
#METER:2;
#RADARVALUES:0.151,0.152,0.170,0.206,0.000,76.000,19.000,23.000,0.000,0.000,0.000,0.000,0.000,0.151,0.152,0.170,0.206,0.000,76.000,19.000,23.000,0.000,0.000,0.000,0.000,0.000;
#CREDIT:Spork!;
#NOTES:
0000
0000
0000
0000
,
0000
0000
0000
0000
,
0000
0000
0000
0000
,
0000
0000
0000
0000
,
2000
0000
3100
0000
,
0200
0000
0310
0000
,
0020
0000
0031
0000
,
2002
0000
3003
0000
,
1001
1001
0000
0000
,
0101
0101
0000
0000
,
0110
0110
0000
0000
,
1000
0100
0010
0001
,
1001
1001
0000
0000
,
1010
1010
0000
0000
,
0110
0110
0000
0000
,
2002
0000
0000
3003
,
0001
0010
0001
0100
,
0020
0000
0230
0000
,
0301
0010
0100
1000
,
0002
0000
1003
1001
,
1000
0100
1000
0010
,
0200
0000
0320
0000
,
1030
0100
0010
0001
,
2000
0000
3001
1000
,
0002
0000
0203
0000
,
0320
0000
2030
0000
,
3001
0001
0000
0000
1000
1000
0000
0000
,
0100
0100
0000
0000
1100
0000
0101
0000
,
1000
1000
0000
0000
0001
0001
0000
0000
,
0010
0010
0000
0000
2001
0000
0000
0000
,
3002
0000
0103
0000
,
0200
0000
0310
0000
,
0020
0000
1030
0000
,
2002
0000
0000
0000
,
3003
0000
0000
0000
;

//---------------dance-single - Spork!----------------
#NOTEDATA:;
#CHARTNAME:;
#STEPSTYPE:dance-single;
#DESCRIPTION:Spork!;
#CHARTSTYLE:;
#DIFFICULTY:Medium;
#METER:4;
#RADARVALUES:0.194,0.197,0.152,0.206,0.009,112.000,17.000,23.000,0.000,0.000,0.000,0.000,0.000,0.194,0.197,0.152,0.206,0.009,112.000,17.000,23.000,0.000,0.000,0.000,0.000,0.000;
#CREDIT:Spork!;
#NOTES:
0000
0000
0000
0000
,
0000
0000
0000
0000
,
0000
0000
0000
0000
,
0000
0000
0000
0000
,
0020
1000
0000
0130
,
0200
0001
0000
0310
,
2000
0100
0000
3001
,
2002
0000
0000
3003
,
0011
1010
0100
0010
,
1100
0101
0010
0100
,
1001
0110
0100
0010
,
0001
1000
0001
0000
1000
0001
1000
0000
,
1010
0011
0100
0010
,
0101
1100
0010
0100
,
1001
0110
0100
0010
,
0220
0000
0000
0330
,
1000
0000
0100
0000
1000
0100
0010
0000
,
0001
0100
1000
0110
,
0001
0000
0010
0000
0001
0010
0100
0000
,
2000
3020
0032
0023
,
1030
0000
0010
0000
1000
0010
0100
0000
,
0001
0010
1000
0110
,
0001
0000
0100
0000
0001
0100
0010
0000
,
2000
3200
0302
0203
,
2300
0000
3020
0000
,
0230
0000
0302
0000
,
1003
0100
0000
0000
0100
0010
0000
0000
,
0010
0001
0000
0000
0001
1000
0001
1000
,
0001
0100
0000
0000
0100
0010
0000
0000
,
0010
1000
0000
0000
1002
0000
0000
0000
,
0023
0001
0000
0130
,
0200
1000
0000
0310
,
0002
0100
0000
1003
,
0000
0000
1000
0000
0000
0001
0000
0000
0010
0000
0000
0001
0000
0000
1000
0000
;

//---------------dance-single - Spork!----------------
#NOTEDATA:;
#CHARTNAME:;
#STEPSTYPE:dance-single;
#DESCRIPTION:Spork!;
#CHARTSTYLE:;
#DIFFICULTY:Hard;
#METER:7;
#RADARVALUES:0.295,0.364,0.134,0.125,0.304,202.000,15.000,14.000,0.000,0.000,0.000,0.000,0.000,0.295,0.364,0.134,0.125,0.304,202.000,15.000,14.000,0.000,0.000,0.000,0.000,0.000;
#CREDIT:Spork!;
#NOTES:
0000
0000
0000
0000
,
0000
0000
0000
0000
,
0000
0000
0000
0000
,
0000
0000
0000
0000
,
0000
0000
0001
0000
0000
0010
0000
0000
0001
0000
0000
0100
0010
0000
0010
0000
,
0000
0000
1000
0000
0000
0100
0000
0000
1000
0010
0000
1000
0000
1000
0001
0000
,
0000
0000
1000
0000
0000
0010
0000
0000
1000
0000
0000
0100
0010
0000
0010
0000
,
0000
0000
0001
0000
0000
1000
0000
0000
0010
0000
0000
0010
0100
0000
0100
0000
,
0002
0000
0000
0000
0010
0000
0000
1000
0000
1000
0003
0000
0011
0000
0000
0000
,
2000
0000
0000
0000
0100
0000
0000
0001
0000
0001
3000
0000
1100
0000
0000
0000
,
0200
0000
0000
0000
0001
0000
0000
1000
0000
1000
0300
0000
0101
0000
0100
0000
,
0010
0000
0000
0010
0000
0000
0100
0000
0000
0100
0000
0001
0000
1000
0000
0000
,
2000
0000
0000
0000
0001
0000
0000
0100
0000
0100
3000
0000
0110
0000
0000
0010
,
0001
0010
0002
0000
1000
0000
0000
0100
0000
0000
0103
0000
0110
0000
0000
0000
,
0020
0000
0000
0000
1000
0000
0000
0001
0000
0001
0030
0000
1010
0000
0000
0000
,
2002
0000
0000
0000
0000
0000
0000
3000
0000
0003
0000
0000
1001
0000
0000
0000
,
0001
0010
0100
1000
0010
0001
0100
0001
,
0010
1000
0100
0010
0000
0010
1001
0000
,
1000
0010
0001
0010
1000
0100
0001
0100
,
1000
0010
0001
0100
1000
0010
0001
0100
,
1000
0010
0100
0001
0010
1000
0100
1000
,
0010
0001
0100
0010
0000
0010
1001
0000
,
0001
0100
1000
0100
0001
0010
1000
0010
,
0001
0000
0100
0000
0000
1000
0000
0000
0010
0000
0000
0001
0000
0000
1000
0000
,
0000
0000
0001
0000
0000
0001
0000
0000
0000
0000
0000
0000
0000
0000
0000
0000
0000
0000
0100
0000
0000
0100
0000
0000
0010
0000
0000
1000
0000
0000
0001
0000
,
0000
0000
1000
0000
0000
1000
0000
0000
0000
0000
0000
0000
0000
0000
0000
0000
0000
0000
0010
0000
0000
0010
0100
0010
0100
0000
0000
0100
0000
0000
0001
0000
,
1000
0000
0000
0000
1200
0000
0000
0000
0000
0010
0000
0000
0310
0000
0000
0000
0001
0000
0100
0000
0000
0001
0000
0000
1000
0000
0000
0100
0000
0000
1000
0000
,
0001
0000
0000
0000
0201
0000
0000
0000
0000
0010
0000
0000
0310
0000
0000
0000
1000
0000
0000
0000
0100
0000
0000
0000
0010
0000
0000
0000
0001
0000
0000
0000
,
1000
0000
0010
0000
1020
0000
0000
0000
0000
0100
0000
0000
0130
0000
0000
0000
0001
0000
0010
0000
0000
0001
0000
0000
1000
0000
0000
0010
0000
0000
0100
0000
,
0001
0000
0010
0000
0021
0000
0000
0000
0000
0100
0000
0000
0130
0000
0000
0000
2002
0000
0000
0000
0000
0000
0000
0000
0000
0000
0000
0000
3003
0000
0000
0000
,
0000
0000
1000
0000
0000
0100
0000
0000
1000
0000
0000
0010
0100
0000
0100
0000
,
0000
0000
0001
0000
0000
0010
0000
0000
0001
0100
0000
0001
0000
0001
1000
0000
,
0000
0000
0001
0000
0000
0100
0000
0000
0001
0000
0000
0010
0100
0000
0100
0000
,
0000
0000
1000
0000
0000
1000
0001
1000
0001
0000
0000
0001
0000
0000
0010
0000
;

//---------------dance-single - Spork!----------------
#NOTEDATA:;
#CHARTNAME:;
#STEPSTYPE:dance-single;
#DESCRIPTION:Spork!;
#CHARTSTYLE:;
#DIFFICULTY:Challenge;
#METER:9;
#RADARVALUES:0.505,0.654,0.474,0.260,0.801,313.000,53.000,29.000,22.000,20.000,0.000,0.000,0.000,0.505,0.654,0.474,0.260,0.801,313.000,53.000,29.000,22.000,20.000,0.000,0.000,0.000;
#CREDIT:Spork!;
#NOTES:
0000
0000
0000
0000
,
0000
0000
0000
0000
,
0000
0000
0000
0000
,
0000
0000
0000
0000
,
011M
000M
1000
000M
0000
1000
1000
0001
0010
M000
0000
0100
M010
0000
0001
0000
,
11M0
00M0
0001
00M0
0000
0001
0001
1000
0010
010M
0000
0001
10M0
0100
0010
0000
,
M110
M000
0001
M000
0000
0001
0001
1000
0010
000M
0000
0100
001M
0000
1000
0000
,
1M02
0M00
0010
0M00
0000
1000
1000
1003
2000
0000
0000
0001
0001
0001
3001
0000
,
0210
0000
0000
0000
2000
0000
0000
0010
0000
0001
3300
0000
1100
0000
0000
0000
,
1002
0000
0000
0000
0200
0000
0000
0010
0000
1000
0303
0000
0101
0000
0000
0000
,
1020
0000
0000
0000
0200
0000
0000
0001
0000
1000
0330
0000
0110
0100
0010
1000
,
0001
0010
0000
0010
0100
0000
0100
1000
0000
1100
0000
0101
0000
1001
0000
0000
,
0210
0000
0000
0000
0002
0000
0000
1000
0000
0010
0303
0000
0101
0000
0000
1000
,
0001
2000
0001
0000
0200
0000
0000
0001
0000
0000
3310
0000
1100
0000
0000
0000
,
0021
0000
0000
0000
0200
0000
0000
1000
0000
0001
0330
0000
0110
0100
0010
0001
,
1000
0010
0000
0010
0100
0000
0100
0001
0000
0011
0000
1010
0000
0010
1000
0100
,
0010
0001
0100
0001
0010
0100
1000
0010
0000
0100
0000
0000
1001
0000
0000
0100
,
0010
1000
0100
1000
0010
0100
0001
0010
0000
0000
0100
0000
0110
0000
0000
0000
,
1000
0010
1000
0100
0010
0001
0100
0010
0000
1000
0000
0000
1001
0000
0000
0010
,
0100
0001
0010
0001
0100
0010
1000
0100
0010
0000
0010
0000
0110
0000
0100
1000
,
0000
1000
0100
0001
0100
1000
0100
0010
0000
0001
0000
0011
0000
1010
0000
0010
,
1000
0001
0100
1000
0100
0001
0100
0010
0000
0000
1000
0000
1001
0001
1000
0001
,
0000
0001
0010
1000
0010
0001
0010
0100
0000
1000
0000
1100
0000
0101
0000
0100
,
0001
0010
0100
1000
0010
0100
0001
1000
0100
0000
0000
0110
0000
0000
1001
0000
,
0000
0000
0100
0000
0000
0100
0100
0200
0000
0010
0000
0000
0310
0000
0000
0000
0110
0000
0100
0000
0000
0001
0001
0002
1000
0000
0000
0100
0000
0000
0103
0000
,
0101
0000
0010
0000
0000
0010
0010
0020
0000
0100
0000
0000
0130
0000
0000
0000
0000
0000
0100
0000
0000
1000
1000
2000
0001
0000
0000
0010
0000
0000
3010
0000
,
1010
0000
1000
0000
2002
0000
0000
0000
0000
0010
0000
0000
0010
3003
0001
0000
0011
0000
0001
0000
0100
0001
0000
0001
1000
0000
0000
1100
0000
0000
0101
0000
,
0011
0000
0001
0000
2002
0000
0000
0000
0000
0010
0000
0000
0010
3003
1000
0000
0001
0010
0000
0010
0100
0000
0100
1000
0000
1100
0000
0101
0000
0000
0001
1000
,
0001
0000
0010
0000
2200
0000
0000
0000
0000
0001
0000
0000
0001
3300
0100
0000
0110
0000
0010
0000
0100
1000
0000
1000
0001
0000
0000
0101
0000
0000
1100
0000
,
1001
0000
0010
0000
0202
0000
0000
0000
0000
1000
0000
0000
1000
0303
0100
0000
0001
0010
0000
0010
0100
0000
0100
1000
0000
1100
0000
1001
0000
0001
1000
0000
,
0110
0000
0001
0000
0000
0001
0001
1000
0100
0000
0000
0010
0100
000M
1000
0M00
,
0011
0000
1000
0000
0000
1000
1000
0001
0100
0010
0000
0100
M001
0010
0100
0000
,
011M
0000
1000
0000
0000
1000
1000
0001
0100
0000
0000
0010
0100
0000
0002
0000
,
0000
0000
0023
0000
0000
0100
0100
0100
0230
0000
0000
0010
0000
0000
0010
0000
,
0300
0000
0000
0000
;

//---------------dance-double - Spork!----------------
#NOTEDATA:;
#CHARTNAME:;
#STEPSTYPE:dance-double;
#DESCRIPTION:Spork!;
#CHARTSTYLE:;
#DIFFICULTY:Easy;
#METER:1;
#RADARVALUES:0.087,0.120,0.072,0.125,0.000,46.000,8.000,14.000,0.000,0.000,0.000,0.000,0.000,0.087,0.120,0.072,0.125,0.000,46.000,8.000,14.000,0.000,0.000,0.000,0.000,0.000;
#CREDIT:Spork!;
#NOTES:
00000000
00000000
00000000
00000000
,
00000000
00000000
00000000
00000000
,
00000000
00000000
00000000
00000000
,
00000000
00000000
00000000
00000000
,
00000001
00000000
00000000
00000000
,
10000000
00000000
00000000
00000000
,
00000001
00000000
00000000
00000000
,
00022000
00000000
00033000
00000000
,
01100000
00000000
00000000
00000000
,
00001001
00000000
00000000
00000000
,
10010000
00000000
00000000
00000000
,
00001000
00000000
00010000
00000000
,
00000110
00000000
00000000
00000000
,
10010000
00000000
00000000
00000000
,
00001001
00000000
00000000
00000000
,
00010000
00000000
00001000
00000000
,
01000000
00000000
01000000
00000000
,
00001000
00000000
00000000
00000000
,
00010000
00000000
00010000
00000000
,
00000010
00000000
00001000
00000000
,
00000100
00000000
00000100
00000000
,
00010000
00000000
00000000
00000000
,
00001000
00000000
00001000
00000000
,
00100000
00000000
00010000
00000000
,
20000000
00000000
32000000
00000000
,
03200000
00000000
00320000
00000000
,
20030000
00000000
30020000
00000000
,
00032000
00000000
00003001
00001000
,
00000002
00000000
00002003
00000000
,
00023000
00000000
10030000
00010000
,
10000000
00000000
00000000
00000000
,
00000001
00000000
00000000
00000000
,
10000000
00000000
00000000
00000000
,
00022000
00000000
00033000
00000000
;

//---------------dance-double - Spork!----------------
#NOTEDATA:;
#CHARTNAME:;
#STEPSTYPE:dance-double;
#DESCRIPTION:Spork!;
#CHARTSTYLE:;
#DIFFICULTY:Medium;
#METER:3;
#RADARVALUES:0.159,0.152,0.179,0.125,0.000,90.000,20.000,14.000,0.000,0.000,0.000,0.000,0.000,0.159,0.152,0.179,0.125,0.000,90.000,20.000,14.000,0.000,0.000,0.000,0.000,0.000;
#CREDIT:Spork!;
#NOTES:
00000000
00000000
00000000
00000000
,
00000000
00000000
00000000
00000000
,
00000000
00000000
00000000
00000000
,
00000000
00000000
00000000
00000000
,
20000000
00000000
30100000
01000000
,
00002000
00000000
00103000
00001000
,
00020000
00000000
00030100
00000010
,
00000002
00000000
00001003
00001000
,
00000101
00001100
00000000
00000000
,
11000000
01010000
00000000
00000000
,
00000011
00001010
00000000
00000000
,
00010000
00001000
01000000
01000000
,
10100000
00110000
00000000
00000000
,
00000011
00001010
00000000
00000000
,
11000000
01010000
00000000
00000000
,
00022000
00000000
00033000
00011000
,
00010000
00000100
00001000
00000100
,
00000010
00000001
00000000
00001001
,
00000001
00000100
00000010
00010000
,
00001000
01000000
00100000
01000000
,
00001000
00100000
00010000
00100000
,
01000000
10000000
00000000
10010000
,
10000000
00100000
01000000
00001000
,
00010000
00000100
00000010
00000100
,
00020000
00030000
00000020
00000030
,
00200000
00300000
00002000
00003000
,
01000000
01000000
00000000
00000000
00001000
00010000
00000000
00000000
,
00000100
00000100
00000000
00000000
00010001
00000000
10001000
00000000
,
00000010
00000010
00000000
00000000
00010000
00001000
00000000
00000000
,
00100000
00100000
00000000
00000000
10001000
00000000
00010001
00000000
,
00000002
00000000
00000103
00000010
,
00020000
00000000
00030100
00010000
,
00002000
00000000
00103000
01000000
,
20000000
00000000
00000000
00000000
,
30000000
00000000
00000000
00000000
;

//---------------dance-double - Spork!----------------
#NOTEDATA:;
#CHARTNAME:;
#STEPSTYPE:dance-double;
#DESCRIPTION:Spork!;
#CHARTSTYLE:;
#DIFFICULTY:Hard;
#METER:5;
#RADARVALUES:0.229,0.244,0.161,0.295,0.085,128.000,18.000,33.000,0.000,0.000,0.000,0.000,0.000,0.229,0.244,0.161,0.295,0.085,128.000,18.000,33.000,0.000,0.000,0.000,0.000,0.000;
#CREDIT:Spork!;
#NOTES:
00000000
00000000
00000000
00000000
,
00000000
00000000
00000000
00000000
,
00000000
00000000
00000000
00000000
,
00000000
00000000
00000000
00000000
,
00020000
00000000
00000000
00000000
00030100
00000000
00000000
00000000
00001000
00000000
00000000
00000010
00000000
00000000
00010000
00000000
,
00002000
00000000
00000000
00000000
01003000
00000000
00000000
00000000
00010000
00000000
00000000
00100000
00000000
00000000
00001000
00000000
,
00020000
00000000
00000000
00000000
00030010
00000000
00000000
00000000
00001000
00000000
00000000
00000100
00000000
00000000
00010000
00000000
,
00022000
00000000
00033000
00000000
,
00201000
00000000
00000000
00000000
00000000
00000000
00000000
00010000
00000000
00310000
00000000
00000000
00000000
00000000
00000000
00000000
,
01020000
00000000
00000000
00000000
00000000
00000000
00000000
10000000
00000000
10030000
00000000
00000000
11000000
00000000
00000000
00000000
,
01200000
00000000
00000000
00000000
00000000
00000000
00000000
00001000
00000000
00301000
00000000
00000000
00000000
00000000
00000000
00000000
,
00001000
00000000
00010000
00000000
00000010
00010000
00001000
00000000
,
00010200
00000000
00000000
00000000
00000000
00000000
00000000
00001000
00000000
00001300
00000000
00000000
00000000
00000000
00000000
00001000
,
00000010
00000100
00000001
00000000
00000000
00000000
00000000
00000110
00000000
00000000
00001001
00000000
00000000
00000000
00000000
00000000
,
00000210
00000000
00000000
00000000
00000000
00000000
00000000
00010000
00000000
00010300
00000000
00000000
00000000
00000000
00000000
00000000
,
00022000
00000000
00033000
00011000
,
00001000
00010000
00000100
00000000
00010000
00001000
01000000
00000000
,
00010000
00100000
01000000
10000000
00000000
10000000
00010000
00000000
,
10000000
00100000
01000000
00000000
01000000
00001000
00010000
00000000
,
00020000
00030020
00002030
00003200
,
00010300
00001000
00100000
00000000
00001000
00010000
00000010
00000000
,
00001000
00000100
00000010
00000001
00000000
00000001
00000100
00000000
,
00000001
00001000
00000010
00000000
00000010
00010000
00001000
00000000
,
00002000
00203000
00320000
02030000
,
03100000
00000000
20000000
30000000
,
00000002
00000003
00000010
00000000
,
00000210
00001000
00000300
00000000
01200000
00010000
00300000
00000000
,
00001002
00000100
00000003
00000000
00000001
00001000
00010000
10000000
,
02100000
00010000
03000000
00000000
00000120
00001000
00000030
00000000
,
20010000
01000000
30000000
00000000
10000000
00100000
01000000
00000000
,
00002000
00000000
00000000
00000000
00103000
00000000
00000000
00000000
00010000
00000000
00000000
01000000
00000000
00000000
00001000
00000000
,
00020000
00000000
00000000
00000000
00030010
00000000
00000000
00000000
00001000
00000000
00000000
00000100
00000000
00000000
00010000
00000000
,
00002000
00000000
00000000
00000000
01003000
00000000
00000000
00000000
00010000
00000000
00000000
00100000
00000000
00000000
00001000
00000000
,
00000000
00022000
00000000
00000000
00000000
00000000
00000000
00000000
,
00033000
00000000
00000000
00000000
;

//---------------dance-double - Spork!----------------
#NOTEDATA:;
#CHARTNAME:;
#STEPSTYPE:dance-double;
#DESCRIPTION:Spork!;
#CHARTSTYLE:;
#DIFFICULTY:Challenge;
#METER:9;
#RADARVALUES:0.394,0.472,0.143,0.197,0.618,270.000,16.000,22.000,48.000,18.000,0.000,0.000,0.000,0.394,0.472,0.143,0.197,0.618,270.000,16.000,22.000,48.000,18.000,0.000,0.000,0.000;
#CREDIT:Spork!;
#NOTES:
// measure 0
00000000
00000000
00000000
00000000
,  // measure 1
00000000
00000000
00000000
00000000
,  // measure 2
00000000
00000000
00000000
00000000
,  // measure 3
00000000
00000000
00000000
00000000
,  // measure 4
00001000
00000000
00100000
00000000
00010000
00100000
01000000
00000000
10000000
00100000
00000000
00010000
00001000
00000000
00000010
00000000
,  // measure 5
00001000
00000000
01000000
00000000
00010000
01000000
00100000
00000000
10000000
01000000
00000000
00010000
00000000
00001000
00010000
00000000
,  // measure 6
00010000
00000000
00000100
00000000
00001000
00000100
00000010
00000000
00000001
00000100
00000000
00001000
00010000
00000000
01000000
00000000
,  // measure 7
00010000
00000000
00000010
00000000
00001000
00000010
00000100
00000000
00000001
00000010
00000001
00001000
00000001
00000100
00000010
00000000
,  // measure 8
00000220
00001000
00000001
00001330
,  // measure 9
00022000
00000100
00100000
00033100
,  // measure 10
00000220
00000001
00001000
00000331
,  // measure 11
00000001
00000100
00000000
00001000
01000000
00000000
00001000
00100000
00000000
00010000
00000000
10000000
00000000
01000000
00000000
00000000
,  // measure 12
02200000
00010000
10000000
03310000
,  // measure 13
00022000
01000000
00000010
01033000
,  // measure 14
02200000
10000000
00010000
13300000
,  // measure 15
10000000
01000000
00000000
00010000
00000100
00000000
00010000
00000010
00000000
00001000
00000000
00000001
00000000
00000000
00000000
00000000
,  // measure 16
00001000
00000100
00001000
00000100
00000010
00000100
00000010
00000100
00000010
00000001
00000010
00000001
00001000
00000001
00001000
00000001
,  // measure 17
00000100
00000010
00000100
00000010
00010000
00001000
00010000
00001000
00100000
00000000
01000000
00000000
10010000
00000000
00100000
00000000
,  // measure 18
00010000
01000000
00010000
01000000
00100000
01000000
00100000
01000000
10000000
01000000
10000000
01000000
00010000
01000000
00010000
00010000
,  // measure 19
10000000
01000000
10000000
01000000
00100000
01000000
00100000
00100000
00001000
00010000
00001000
00010000
00001000
00000000
00001000
01000000
,  // measure 20
00010000
00100000
00010000
00100000
01000000
00100000
01000000
00100000
01000000
10000000
01000000
10000000
00010000
10000000
00010000
10000000
,  // measure 21
00100000
01000000
00100000
01000000
00001000
00010000
00001000
00010000
00000100
00000000
00000010
00000000
00001001
00000000
00000100
00000000
,  // measure 22
00001000
00000010
00001000
00000010
00000100
00000010
00000100
00000010
00000001
00000010
00000001
00000010
00001000
00000010
00001000
00001000
,  // measure 23
00000001
00000010
00000001
00000010
00000100
00000010
00000100
00000100
00001000
00000100
00000010
00000001
00001000
00000000
00000001
00000000
,  // measure 24
00000000
00000000
00000000
00000000
00000000
00000000
00000000
00000000
00000000
00M00000
00000000
00000000
00000M00
00000000
00000000
00000000
00002001
00000000
00000000
00000000
00000000
00000000
00000000
00000000
00003000
00000000
0000000M
00000000
00000000
0M000000
00000000
00000000
,  // measure 25
10020M00
00M00000
00000M00
00M00000
00000000
00000000
00000000
00000000
00030000
000000M0
00000000
00000000
0M000000
00000000
00000000
00000000
00000000
00000000
00000000
00000000
00000000
00000000
00000000
00000000
00000000
00000000
00000000
000M0000
00000000
0000M000
00M00000
00000000
,  // measure 26
00000120
00000000
00000000
00000000
00000001
00000000
00000000
00000000
00000030
0000M000
00000000
00000000
000M0000
00000000
00000000
00000000
02100000
00000000
00000000
00000000
10000000
00000000
00000000
00000000
03000000
00000000
00M00000
00000000
00000000
000000M0
00000000
00000000
,  // measure 27
0M012000
00000M00
0M000000
00000M00
10000000
00000000
00000000
00000000
00003000
00M00000
00000000
00000000
00000M00
00000000
00000000
00000000
1000M000
01000M00
000000M0
0100000M
00100000
00000000
00100000
00010000
00000000
10000000
0000M000
00010000
00000000
000000M0
0100M000
00000000
,  // measure 28
01200M00
000M0000
00000M00
000M0000
10000000
00000000
00000000
00000000
00300000
0000M000
00000000
00000000
0M000000
00000000
00000000
00000000
000M0210
00M00000
0M000000
M0000000
00000001
00000000
00000000
00000000
00000300
00000000
000M0000
00000000
00000000
0M000000
00000000
00000000
,  // measure 29
00M21000
00000M00
00M00000
00000M00
00000001
00000000
00000000
00000000
00030000
0000M000
00000000
00000000
0M000000
00000000
00000000
00000000
00000001
00000010
00000000
00000010
00000100
00000000
00000100
00001000
00000000
00000001
00000000
00001000
00000000
00000000
00000010
00000000
,  // measure 30
00010000
00000000
00000100
00000000
00001000
00000100
00000010
00000000
00000001
00000100
00000000
00001000
00010000
00000000
01000000
00000000
,  // measure 31
00010000
00000000
00000010
00000000
00001000
00000010
00000100
00000000
00000001
00000010
00000000
00001000
00000000
00010000
00001000
00000000
,  // measure 32
00001000
00000000
00100000
00000000
00010000
00100000
01000000
00000000
10000000
00100000
00000000
00010000
00001000
00000000
00000010
00000000
,  // measure 33
00001000
00000000
02000000
00000000
00000000
00100000
00100000
00100000
03200000
00000000
00000000
01000000
00000000
00000000
01000000
00000000
,  // measure 34
00300000
00000000
00000000
00000000
;
