#VERSION:0.81;
#TITLE:Selfish Gene;
#SUBTITLE:;
#ARTIST:ani vocal by Rin;
#TITLETRANSLIT:;
#SUBTITLETRANSLIT:;
#ARTISTTRANSLIT:;
#GENRE:;
#ORIGIN:;
#CREDIT:;
#BANNER:[Low Speed] - Selfish Gene-bn.png;
#BACKGROUND:[Low Speed] - Selfish Gene-bg.png;
#PREVIEWVID:;
#JACKET:[Low Speed] - Selfish Gene-jacket.png;
#CDIMAGE:;
#DISCIMAGE:;
#LYRICSPATH:;
#CDTITLE:;
#MUSIC:[Low Speed] - Selfish Gene.mp3;
#OFFSET:-0.000000;
#SAMPLESTART:52.800018;
#SAMPLELENGTH:16.000015;
#SELECTABLE:YES;
#BPMS:0.000=100.000;
#STOPS:;
#DELAYS:;
#WARPS:;
#TIMESIGNATURES:0.000=4=4;
#TICKCOUNTS:0.000=4;
#COMBOS:0.000=1;
#SPEEDS:0.000=1.000=0.000=0;
#SCROLLS:0.000=1.000;
#FAKES:;
#LABELS:0.000=Song Start;
#BGCHANGES:;
#KEYSOUNDS:;
#ATTACKS:
;

//---------------dance-single - ----------------
#NOTEDATA:;
#CHARTNAME:;
#STEPSTYPE:dance-single;
#DESCRIPTION:;
#CHARTSTYLE:;
#DIFFICULTY:Beginner;
#METER:1;
#RADARVALUES:0.071263,0.080369,0.000000,0.000000,0.000000,54.000000,0.000000,0.000000,0.000000,0.000000,0.000000,0.000000,0.000000,0.071263,0.080369,0.000000,0.000000,0.000000,54.000000,0.000000,0.000000,0.000000,0.000000,0.000000,0.000000,0.000000;
#CREDIT:;
#NOTES:
0000
0000
0000
0000
,
0000
0000
0000
0000
,
0000
0000
0000
0000
,
0000
0000
0000
0000
,
0000
0000
0000
0000
,
0010
0000
0000
0000
,
1000
0000
0000
0000
,
0001
0000
0000
0000
,
0100
0000
0000
0000
,
0010
0000
0000
0000
,
1000
0000
0000
0000
,
1000
0000
0000
0000
,
0001
0000
0000
0000
,
0001
0000
0000
0000
,
0100
0000
0000
0000
,
0100
0000
0000
0000
,
0010
0000
0000
0000
,
0010
0000
0000
0000
,
1000
0000
0000
0000
,
0001
0000
0000
0000
,
1000
0000
0000
0000
,
0001
0000
0000
0000
,
0100
0000
0100
0000
,
0010
0000
0010
0000
,
0100
0000
0100
0000
,
0010
0000
0010
0000
,
1000
0000
1000
0000
,
0001
0000
0001
0000
,
1000
0000
1000
0000
,
1000
0000
1000
0000
,
0001
0000
0000
0000
,
1000
0000
0000
0000
,
0010
0000
0000
0000
,
0100
0000
0000
0000
,
0001
0000
0000
0000
,
1000
0000
0000
0000
,
0001
0000
0001
0000
,
1000
0000
0000
0000
,
1000
0000
1000
0000
,
0001
0000
0001
0000
,
0100
0000
0100
0000
,
0001
0000
0001
0000
,
0001
0000
0001
0000
,
1000
0000
1000
0000
;

//---------------dance-single - ----------------
#NOTEDATA:;
#CHARTNAME:;
#STEPSTYPE:dance-single;
#DESCRIPTION:;
#CHARTSTYLE:;
#DIFFICULTY:Easy;
#METER:2;
#RADARVALUES:0.117452,0.121939,0.000000,0.083140,0.000000,80.000000,0.000000,9.000000,0.000000,0.000000,0.000000,0.000000,0.000000,0.117452,0.121939,0.000000,0.083140,0.000000,80.000000,0.000000,9.000000,0.000000,0.000000,0.000000,0.000000,0.000000;
#CREDIT:;
#NOTES:
0000
0000
0000
0000
,
0000
0000
0000
0000
,
0000
0000
0000
0000
,
0000
0000
0000
0000
,
0000
0000
0000
0000
,
0010
0000
0010
0000
,
1000
0000
1000
0000
,
0001
0000
0001
0000
,
0100
0000
0100
0000
,
0010
0000
0010
0000
,
1000
1000
0000
0000
,
0001
0001
0000
0000
,
0100
0100
0000
0000
,
0010
0010
0000
0000
,
0100
0100
0000
0000
,
0001
0001
0000
0000
,
1000
1000
0000
0000
,
0010
0000
0010
0000
,
0200
0000
0301
0000
,
0002
0000
0103
0000
,
0200
0000
0310
0000
,
0020
0000
1030
0000
,
0001
0000
0001
0000
,
1000
1000
1000
0000
,
0010
0000
0010
0000
,
0100
0100
0100
0000
,
1000
0000
1000
0000
,
0001
0001
0001
0000
,
1000
0000
1000
0000
,
1000
0000
1000
0000
,
0001
0000
0001
0000
,
2000
0000
0000
3000
,
0020
0000
0000
0030
,
0200
0000
0000
0300
,
0002
0000
0000
0003
,
1000
0000
1000
0000
,
0001
0001
0001
0000
,
1000
0000
1000
0000
,
0010
0010
0010
0000
,
1000
0000
1000
0000
,
0010
0010
0010
0000
,
0100
0000
0100
0000
,
0100
0000
0100
0000
,
0010
0000
2000
0000
,
3000
0000
0000
0000
;

//---------------dance-single - ----------------
#NOTEDATA:;
#CHARTNAME:;
#STEPSTYPE:dance-single;
#DESCRIPTION:;
#CHARTSTYLE:;
#DIFFICULTY:Medium;
#METER:4;
#RADARVALUES:0.250740,0.223555,0.073902,0.101616,0.152424,171.000000,8.000000,11.000000,0.000000,0.000000,0.000000,0.000000,0.000000,0.250740,0.223555,0.073902,0.101616,0.152424,171.000000,8.000000,11.000000,0.000000,0.000000,0.000000,0.000000,0.000000;
#CREDIT:;
#NOTES:
0000
0000
0000
0000
,
0000
0000
0000
0000
,
0000
0000
0000
0000
,
0000
0000
0000
0000
,
0000
0000
0000
0000
,
0001
0000
0000
0000
0010
0000
0000
0000
0001
0000
0000
1000
0000
0000
0000
0000
,
0001
0000
0001
0000
0001
0000
1000
0100
,
1000
0000
0000
0000
1000
0000
0000
0000
0010
0000
0000
0010
0000
0000
0010
0000
,
0000
0000
0100
0000
0000
0100
0000
0000
0100
0000
0000
0010
0000
0000
0100
0000
,
0000
0001
0001
0000
0001
0000
0000
0000
,
1000
0000
1000
0000
0001
0000
0000
0000
0100
0000
0000
0100
0000
0000
0100
0000
,
0000
0000
0001
0000
0000
0001
0000
0000
0010
0000
0000
0010
0000
0000
0010
0000
,
0100
0000
0100
0000
0100
0000
0000
0000
0010
0000
0000
0010
0000
0000
0000
0000
,
0100
0100
0100
0000
1000
1000
1000
0000
,
0001
0000
0000
0000
0001
0000
0000
0000
1000
0000
0000
1000
0000
0000
1000
0000
,
0000
0000
0010
0000
0000
0010
0000
0000
0000
0100
0000
0000
0100
0000
0000
0000
,
0010
0010
0010
0000
1000
1000
1000
0000
,
0000
0000
0010
0000
0000
0010
0000
0000
0010
0000
0100
0000
0010
0000
0000
0000
,
0200
0000
0000
0000
0010
0000
0000
0000
0310
0000
0000
0010
0000
0000
0000
0000
,
0020
0000
0000
0000
0100
0000
0000
0000
0130
0000
0000
0100
0000
0000
0000
0000
,
0200
0000
0000
0000
0001
0000
0000
0000
0301
0000
0000
0001
0000
0000
0000
0000
,
0002
1000
1003
1000
,
0001
0000
0000
0000
0100
0000
0000
0000
0001
0000
0000
0100
0000
0000
1000
0000
,
0000
0000
1000
0000
0000
0100
0000
0000
0001
0000
0000
0000
1001
0000
0000
0000
,
0001
0000
0000
0000
0010
0000
0000
0000
0001
0000
0000
0010
0000
0000
1000
0000
,
0000
0000
1000
0000
0000
0010
0000
0000
0001
0000
0000
0000
0101
0000
0000
0000
,
1000
0000
0000
0000
0100
0000
0000
0000
1000
0000
0000
0100
0000
0000
0001
0000
,
0000
0000
0001
0000
0000
0100
0000
0000
1000
0000
0000
0000
1001
0000
0000
0000
,
0001
0000
0000
0000
0001
0000
0000
0000
0100
0000
0000
0100
0000
0000
0100
0000
,
0000
0000
0010
0000
0000
0010
0000
0000
1000
0000
0000
1000
0000
0000
1000
0000
,
0000
0001
0010
1000
0100
0000
0000
0000
,
0002
1000
0000
1003
,
2000
0010
0000
3010
,
0020
1000
0000
1030
,
2000
0001
0002
3003
,
0001
0000
0000
0000
0001
0000
0000
0000
1000
0000
0000
1000
0000
0000
1000
0000
,
0000
0000
0001
0000
0000
0001
0000
0000
0001
0000
0000
0000
0000
0000
0000
0000
,
0100
0000
0000
0000
0100
0000
0000
0000
0010
0000
0000
0010
0000
0000
0010
0000
,
0000
0000
0100
0000
0000
0100
0000
0000
0000
0110
0000
0000
0110
0000
0000
0000
,
0001
0000
0000
0000
0010
0000
0000
0000
0001
0000
0000
0010
0000
0000
1000
0000
,
0000
0000
1000
0000
0000
0100
0000
0000
0001
0000
0000
0000
0101
0000
0000
0000
,
0001
0000
0000
0000
0100
0000
0000
0000
0001
0000
0000
0100
0000
0000
1000
0000
,
0000
0000
1000
0000
0000
0010
0000
0000
0001
0000
0000
0000
0101
0000
0000
0000
,
0010
1000
2020
0000
,
3030
0000
0000
0000
;

//---------------dance-single - ----------------
#NOTEDATA:;
#CHARTNAME:;
#STEPSTYPE:dance-single;
#DESCRIPTION:;
#CHARTSTYLE:;
#DIFFICULTY:Hard;
#METER:7;
#RADARVALUES:0.387987,0.447109,0.249420,0.166280,0.378749,249.000000,27.000000,18.000000,0.000000,0.000000,0.000000,0.000000,0.000000,0.387987,0.447109,0.249420,0.166280,0.378749,249.000000,27.000000,18.000000,0.000000,0.000000,0.000000,0.000000,0.000000;
#CREDIT:;
#NOTES:
// measure 0
0000
0000
0000
0000
,  // measure 1
0000
0000
0000
0000
,  // measure 2
0000
0000
0000
0000
,  // measure 3
0000
0000
0000
0000
,  // measure 4
0000
0000
0000
0000
,  // measure 5
0001
0000
0000
0000
1000
0000
0000
0000
0010
0000
0000
0110
0000
0000
0100
0000
,  // measure 6
0000
0000
0010
0000
0100
0010
0000
0000
1000
0000
0001
1000
0000
0001
0010
0100
,  // measure 7
1000
0000
0000
0000
1000
0000
0000
0000
0010
0000
0000
0110
0000
0000
0010
0000
,  // measure 8
0100
0000
0100
0000
0010
0100
0000
0010
0100
0000
0000
0010
0000
0000
1000
0000
,  // measure 9
0000
0000
0010
0000
0000
0100
0001
1000
0010
0000
0000
0000
0000
0000
0000
0000
,  // measure 10
1000
0000
1000
0000
1001
0000
0000
0000
0100
0000
0000
0100
0000
0010
0100
0000
,  // measure 11
0000
0000
0001
0000
0010
0001
0000
0000
0010
0000
0000
0001
0000
0000
0010
0000
,  // measure 12
0100
0000
0100
0000
0110
0000
0000
0000
0100
0000
0000
0100
0000
0000
0010
0000
,  // measure 13
0100
0000
0100
0000
0100
1000
0000
0000
1000
0001
0000
0100
0000
0010
1000
0000
,  // measure 14
0001
0000
0100
0000
0101
0000
0000
0000
0001
0000
0100
0001
0000
0000
1000
0000
,  // measure 15
0000
0000
0010
0000
0100
0010
0000
0000
0000
0100
0010
0100
0000
0000
0001
0000
,  // measure 16
1000
0000
1000
0000
1000
0100
0000
1000
0000
0000
1000
0000
0001
0000
0100
0000
,  // measure 17
0000
0000
0010
0000
0000
0010
0000
0000
0000
0100
0010
0100
0000
0010
0100
0000
,  // measure 18
0200
0000
0000
0000
0001
0000
0000
0000
0301
0000
0000
0001
0000
0000
0001
0000
,  // measure 19
0002
0000
0000
0000
0100
0000
0000
0000
0103
0000
0000
0100
0000
0000
0100
0000
,  // measure 20
0200
0000
0000
0000
0001
0000
0000
0000
0301
0000
0000
0001
0000
0000
0001
0000
,  // measure 21
0000
0000
0100
0000
0010
1000
0100
0010
0001
0000
0000
0000
1000
0000
0000
0000
,  // measure 22
1001
0000
0000
0000
0101
0000
0000
0000
1001
0000
0000
0110
0000
0000
0101
0000
,  // measure 23
0000
0000
0001
0000
0010
1000
0000
0000
1000
0000
0010
0001
0000
0010
0001
0000
,  // measure 24
0011
0000
0000
0000
1001
0000
0000
0000
0011
0000
0000
0110
0000
0000
1100
0000
,  // measure 25
0000
0000
1000
0000
0100
0010
0000
0100
0010
0000
0000
0001
0000
0000
0010
0000
,  // measure 26
1100
0000
0000
0000
1010
0000
0000
0000
1100
0000
0000
0110
0000
0000
0011
0000
,  // measure 27
0000
0000
0001
0000
0100
1000
0000
0100
1000
0000
0100
0000
0001
0010
0100
1000
,  // measure 28
0010
0000
0000
0000
0100
0000
0000
0000
0001
0000
0000
0001
0000
0000
0001
0000
,  // measure 29
1000
0000
0010
0000
1000
0010
0000
1000
0100
0000
0000
0010
0000
0000
0001
0000
,  // measure 30
0000
0000
1000
0000
0000
0001
0100
0010
1000
0000
0000
0000
0000
0000
0000
0000
,  // measure 31
0000
0000
0002
0000
0000
0023
0000
0000
0230
0000
0000
2300
0000
0000
3002
0000
,  // measure 32
0003
0000
2000
0000
0000
3010
0100
0000
0100
0010
0100
0020
0000
0000
1030
0100
,  // measure 33
0020
0000
0000
0000
0030
0100
1000
0100
0020
0000
0000
0230
0000
0000
2300
0000
,  // measure 34
0000
3002
0000
2003
0002
0000
3003
0000
,  // measure 35
0001
0000
0000
0000
0001
0000
0000
0000
1000
0000
0000
1000
0000
0000
1000
0000
,  // measure 36
0000
0000
0001
0000
0000
0001
0000
0000
0001
0000
0000
0000
0001
0010
0100
1000
,  // measure 37
0100
0000
0000
0000
0100
0000
0000
0000
0010
0000
0000
0010
0000
0000
0010
0000
,  // measure 38
0000
0000
0100
0000
0000
0100
0000
0000
0010
0110
0000
0110
0000
0010
0100
0000
,  // measure 39
0011
0000
0000
0000
0110
0000
0000
0000
0011
0000
0000
0101
0000
0000
1010
0000
,  // measure 40
0000
0000
1000
0000
0010
0001
0000
0000
0010
0000
1000
0000
0001
0100
0010
1000
,  // measure 41
0001
0000
0000
0000
1000
0000
0000
0000
0010
0000
0000
1000
0000
0000
0001
0000
,  // measure 42
1000
0000
0001
0000
1000
0001
0000
1000
0010
0000
0000
0100
0000
0000
0010
0000
,  // measure 43
0000
0000
1000
0000
0000
0001
0010
0100
2000
0000
0000
0000
0000
0000
0000
0000
,  // measure 44
3000
0000
0000
0000
;
