#VERSION:0.81;
#TITLE:REcollect;
#SUBTITLE:;
#ARTIST:猫叉Master feat. 常盤ゆう;
#TITLETRANSLIT:;
#SUBTITLETRANSLIT:;
#ARTISTTRANSLIT:Nekomata Master feat. Yu Tokiwa;
#GENRE:;
#ORIGIN:;
#CREDIT:;
#BANNER:[Low Speed] - REcollect.png;
#BACKGROUND:[Low Speed] - REcollect-bg.png;
#PREVIEWVID:;
#JACKET:[Low Speed] - REcollect-jacket.png;
#CDIMAGE:;
#DISCIMAGE:;
#LYRICSPATH:;
#CDTITLE:;
#MUSIC:[Low Speed] - REcollect.mp3;
#OFFSET:-0.480;
#SAMPLESTART:91.960;
#SAMPLELENGTH:15.000;
#SELECTABLE:YES;
#BPMS:0.000=115.000;
#STOPS:;
#DELAYS:;
#WARPS:;
#TIMESIGNATURES:0.000=4=4;
#TICKCOUNTS:0.000=4;
#COMBOS:0.000=1;
#SPEEDS:0.000=1.000=0.000=0;
#SCROLLS:0.000=1.000;
#FAKES:;
#LABELS:0.000=Song Start;
#BGCHANGES:;
#KEYSOUNDS:;
#ATTACKS:
;

//---------------dance-single - ----------------
#NOTEDATA:;
#CHARTNAME:;
#STEPSTYPE:dance-single;
#DESCRIPTION:;
#CHARTSTYLE:;
#DIFFICULTY:Hard;
#METER:7;
#RADARVALUES:0.384,0.384,0.008,0.346,0.000,284.000,1.000,42.000,0.000,0.000,0.000,0.000,0.000,0.384,0.384,0.008,0.346,0.000,284.000,1.000,42.000,0.000,0.000,0.000,0.000,0.000;
#CREDIT:;
#NOTES:
// measure 0
0000
0000
0000
0000
,  // measure 1
0000
0000
0000
0000
,  // measure 2
0000
0000
0000
0000
,  // measure 3
0000
0000
0000
0000
,  // measure 4
1000
0000
1000
0100
0010
0000
0010
0001
,  // measure 5
0100
0000
0100
0010
1000
0000
1000
0001
,  // measure 6
0010
0000
0010
0100
1000
0000
1000
0010
,  // measure 7
0100
0000
0100
0001
0010
0000
0010
0100
,  // measure 8
2000
0001
0010
0001
,  // measure 9
0100
0001
0010
0001
,  // measure 10
0100
0001
0010
0001
,  // measure 11
0100
0001
0010
3001
,  // measure 12
1000
0000
0010
0000
0100
0000
0001
0010
,  // measure 13
0100
0010
0001
0000
1000
0010
0100
0010
,  // measure 14
2000
0000
0100
0000
0010
0000
3100
1000
,  // measure 15
0001
0010
0001
0010
0100
1000
0100
1000
,  // measure 16
0001
0000
0001
1000
0010
0000
0010
1000
,  // measure 17
0001
1000
0100
0000
0010
0001
1000
0001
,  // measure 18
0200
0000
0010
0000
0301
0100
0001
0010
,  // measure 19
0100
1000
0020
0130
,  // measure 20
1001
0000
0001
0000
1000
0000
0100
0010
,  // measure 21
0001
0010
0100
0000
1000
0010
0001
0010
,  // measure 22
2000
0000
0100
0000
0010
0000
3001
1000
,  // measure 23
0001
0100
0001
0100
0010
1000
0010
1000
,  // measure 24
0001
0000
0010
0000
0001
0000
0100
0010
,  // measure 25
1000
0100
0010
0000
0001
0100
0010
1000
,  // measure 26
0200
0000
0010
0000
1300
0100
0010
0001
,  // measure 27
0000
1000
0010
0100
0000
0010
2000
0000
,  // measure 28
3001
0010
0100
0000
1000
0010
0200
0002
,  // measure 29
0303
0000
0020
2000
0030
3100
0010
0001
,  // measure 30
1000
0100
0010
0000
0001
0100
0020
0000
,  // measure 31
1030
0000
0100
0000
1000
0010
0100
0001
,  // measure 32
0020
0000
0031
0000
0100
0010
2000
0200
,  // measure 33
3300
0000
0020
0002
0033
0000
2000
0002
,  // measure 34
0003
0000
3010
0000
0100
0010
0001
0000
,  // measure 35
1000
0000
0010
0000
0100
0010
2000
0000
,  // measure 36
3002
0000
0100
0000
0000
0000
0103
0020
,  // measure 37
0000
0000
1030
0200
0000
0310
0001
0100
,  // measure 38
0020
1000
0000
2030
,  // measure 39
3002
0010
1000
0103
,  // measure 40
0001
0010
0001
0010
0100
1000
0100
1000
,  // measure 41
0010
0100
0010
0100
0001
1000
0001
1000
,  // measure 42
0100
1000
0100
1000
0001
0100
0001
0100
,  // measure 43
0020
0000
0000
0000
0000
0000
0000
1030
,  // measure 44
0001
0000
0001
0100
0000
0100
0001
0010
,  // measure 45
0001
0100
1000
0100
0000
0001
0010
0100
,  // measure 46
2000
0000
3010
0000
0002
0000
0013
0001
,  // measure 47
0200
0000
0320
0000
2030
0000
3001
1000
,  // measure 48
0100
0000
0100
0010
0000
0010
0001
0100
,  // measure 49
0010
1000
0010
0100
0000
0100
0001
0010
,  // measure 50
0200
0000
1300
0000
0002
0000
0103
0001
,  // measure 51
0020
0032
0203
0320
,  // measure 52
1030
0100
1000
0000
0001
0100
0001
0000
,  // measure 53
2000
3020
0032
0023
,  // measure 54
1030
0100
0010
0001
0100
0010
1000
0001
;

//---------------dance-single - ----------------
#NOTEDATA:;
#CHARTNAME:;
#STEPSTYPE:dance-single;
#DESCRIPTION:;
#CHARTSTYLE:;
#DIFFICULTY:Beginner;
#METER:1;
#RADARVALUES:0.115,0.135,0.000,0.041,0.000,93.000,0.000,5.000,0.000,0.000,0.000,0.000,0.000,0.115,0.135,0.000,0.041,0.000,93.000,0.000,5.000,0.000,0.000,0.000,0.000,0.000;
#CREDIT:;
#NOTES:
0000
0000
0000
0000
,
0000
0000
0000
0000
,
0000
0000
0000
0000
,
0000
0000
0000
0000
,
1000
0000
1000
0000
,
0001
0000
0001
0000
,
0100
0000
0100
0000
,
0010
0000
0010
0000
,
1000
0000
1000
0000
,
0100
0000
0100
0000
,
0010
0000
0010
0000
,
0001
0000
0001
0000
,
1000
0000
0000
0000
,
0100
0000
0000
0000
,
0010
0000
0000
0000
,
0001
0000
0000
0000
,
1000
0000
0000
0000
,
0010
0000
0000
0000
,
0100
0000
0000
0000
,
0001
0000
0000
0000
,
1000
0000
1000
0000
,
0001
0000
0001
0000
,
1000
0000
1000
0000
,
0100
0000
0100
0000
,
0010
0000
0010
0000
,
0001
0000
0001
0000
,
0100
0000
0100
0000
,
0010
0000
0010
0000
,
1000
0000
1000
0000
,
0100
0000
0100
0000
,
0010
0000
0010
0000
,
0001
0000
0001
0000
,
0010
0000
0010
0000
,
0100
0000
0100
0000
,
1000
0000
1000
0000
,
0001
0000
0001
0000
,
2000
0000
3000
0000
,
0002
0000
0003
0000
,
0200
0000
0300
0000
,
0020
0000
0030
0000
,
1000
1000
1000
0000
,
0001
0001
0001
0000
,
0100
0100
0100
0000
,
0020
0000
0000
0030
,
0010
0000
0010
0000
,
0100
0000
0100
0000
,
0001
0000
0001
0000
,
0010
0000
0010
0000
,
0100
0000
0100
0000
,
1000
0000
1000
0000
,
0010
0000
0010
0000
,
0100
0000
0100
0000
,
0001
0000
0001
0000
,
0010
0000
0010
0000
,
0100
0000
0100
0100
;

//---------------dance-single - ----------------
#NOTEDATA:;
#CHARTNAME:;
#STEPSTYPE:dance-single;
#DESCRIPTION:;
#CHARTSTYLE:;
#DIFFICULTY:Easy;
#METER:2;
#RADARVALUES:0.188,0.180,0.000,0.016,0.000,158.000,0.000,2.000,0.000,0.000,0.000,0.000,0.000,0.188,0.180,0.000,0.016,0.000,158.000,0.000,2.000,0.000,0.000,0.000,0.000,0.000;
#CREDIT:;
#NOTES:
// measure 0
0000
0000
0000
0000
,  // measure 1
0000
0000
0000
0000
,  // measure 2
0000
0000
0000
0000
,  // measure 3
0000
0000
0000
0000
,  // measure 4
1000
1000
0100
0100
,  // measure 5
0010
0010
0001
0001
,  // measure 6
0010
0010
0100
0100
,  // measure 7
1000
1000
0001
0001
,  // measure 8
2000
0000
0100
0000
,  // measure 9
0010
0000
0100
0000
,  // measure 10
0001
0000
0100
0000
,  // measure 11
0010
0000
0100
3000
,  // measure 12
1000
0000
0100
0000
,  // measure 13
0010
0000
0001
0000
,  // measure 14
1000
0000
0010
0000
,  // measure 15
0100
0000
0001
0000
,  // measure 16
1000
0000
0010
0000
,  // measure 17
1000
0000
0100
0000
,  // measure 18
0010
0000
0001
0000
,  // measure 19
0100
0000
0000
0000
,  // measure 20
0001
0010
0001
0000
,  // measure 21
1000
0010
1000
0000
,  // measure 22
0001
0100
0001
0000
,  // measure 23
1000
0100
1000
0000
,  // measure 24
0001
0001
0010
0000
,  // measure 25
1000
1000
0010
0000
,  // measure 26
0001
0001
0100
0000
,  // measure 27
1000
1000
0100
1000
,  // measure 28
0010
0010
0100
0100
,  // measure 29
0010
0010
0100
0100
,  // measure 30
0001
0001
1000
1000
,  // measure 31
0001
0001
1000
1000
,  // measure 32
0100
0100
0010
0010
,  // measure 33
0100
0100
0010
0010
,  // measure 34
1000
1000
0001
0001
,  // measure 35
1000
1000
0001
0001
,  // measure 36
0100
0010
0000
0010
,  // measure 37
0000
1000
0000
1000
,  // measure 38
0000
0001
0000
0001
,  // measure 39
0000
0100
0000
0100
,  // measure 40
0001
0010
0001
0010
,  // measure 41
0001
1000
0001
1000
,  // measure 42
0001
0100
0001
0100
,  // measure 43
0020
0000
0000
0030
,  // measure 44
0010
1000
0010
1000
,  // measure 45
0001
0100
0001
0000
,  // measure 46
0010
0001
0010
0001
,  // measure 47
1000
0010
1000
1000
,  // measure 48
0001
0100
0001
0100
,  // measure 49
0010
0100
0010
0000
,  // measure 50
1000
0100
1000
0100
,  // measure 51
0010
0100
0010
0010
,  // measure 52
0001
0100
0001
0000
,  // measure 53
1000
0100
1000
0000
,  // measure 54
0001
0001
1000
1000
;

//---------------dance-single - ----------------
#NOTEDATA:;
#CHARTNAME:;
#STEPSTYPE:dance-single;
#DESCRIPTION:;
#CHARTSTYLE:;
#DIFFICULTY:Medium;
#METER:4;
#RADARVALUES:0.290,0.293,0.000,0.280,0.000,213.000,0.000,34.000,0.000,0.000,0.000,0.000,0.000,0.290,0.293,0.000,0.280,0.000,213.000,0.000,34.000,0.000,0.000,0.000,0.000,0.000;
#CREDIT:;
#NOTES:
// measure 0
0000
0000
0000
0000
,  // measure 1
0000
0000
0000
0000
,  // measure 2
0000
0000
0000
0000
,  // measure 3
0000
0000
0000
0000
,  // measure 4
1000
0100
0010
0100
,  // measure 5
1000
0010
0100
0010
,  // measure 6
1000
0001
0010
0001
,  // measure 7
1000
0001
0100
0001
,  // measure 8
2000
0001
0000
0001
,  // measure 9
0000
0010
0000
0010
,  // measure 10
0000
0100
0000
0100
,  // measure 11
0000
0010
0000
3010
,  // measure 12
1000
0000
0100
0000
1000
0000
0010
0100
,  // measure 13
0001
0000
0010
0000
0001
0010
0100
0000
,  // measure 14
2000
0010
0000
3010
,  // measure 15
0002
0010
0000
0013
,  // measure 16
0001
0000
1000
0100
1000
0000
0001
0100
,  // measure 17
0001
0000
0010
0000
0001
0100
0001
0000
,  // measure 18
0020
0100
0000
0130
,  // measure 19
2000
0100
0000
3001
,  // measure 20
1000
0000
0001
0000
0010
0000
0001
1000
,  // measure 21
0010
0000
1000
0000
0001
0010
0100
0000
,  // measure 22
2000
0100
0000
3100
,  // measure 23
0002
0100
0000
0103
,  // measure 24
0001
0000
0010
0001
0010
0000
0100
1000
,  // measure 25
0100
0000
0010
0000
0100
1000
0100
0000
,  // measure 26
0020
0000
0001
0000
0000
0000
0031
0010
,  // measure 27
0001
0000
1000
0010
1000
0000
0002
0000
,  // measure 28
2003
0000
0100
0000
0000
0000
3010
1000
,  // measure 29
0000
0000
0001
1000
0000
1000
0001
0010
,  // measure 30
0002
0100
0000
0013
,  // measure 31
0001
0000
0100
0000
0010
0000
1000
0100
,  // measure 32
0020
0000
0001
0000
0000
0000
0130
0010
,  // measure 33
0000
0000
0001
0010
0000
0000
0100
2000
,  // measure 34
0000
0010
0000
3010
,  // measure 35
0002
0010
0000
0203
,  // measure 36
0320
0000
1000
0000
0000
0000
1030
0010
,  // measure 37
0000
0000
0100
0001
0000
0100
0001
0010
,  // measure 38
0200
0010
0000
0310
,  // measure 39
1000
0100
0010
0001
,  // measure 40
1000
0100
1000
0000
0100
1000
0100
0000
,  // measure 41
1000
0010
1000
0000
0010
1000
0010
0000
,  // measure 42
0100
0010
0100
0000
0010
0100
0010
0100
,  // measure 43
0020
0000
0000
0000
0000
0000
0000
0130
,  // measure 44
0002
0000
0000
0013
0000
0000
0001
1000
,  // measure 45
0010
0000
0010
1000
0000
1000
0010
0200
,  // measure 46
0000
0000
0001
0000
0000
0000
0301
0100
,  // measure 47
0020
0000
0230
0000
0302
0000
1003
0001
,  // measure 48
1000
0000
1000
0010
0000
0000
1000
0100
,  // measure 49
0010
0001
0010
0001
0000
1000
0010
2000
,  // measure 50
0000
0000
0001
0000
0000
0000
3001
1000
,  // measure 51
0020
0230
0302
2003
,  // measure 52
3200
0010
0000
0320
,  // measure 53
0032
0203
0320
2030
,  // measure 54
3001
1000
0001
1000
0001
1000
0001
1000
;
